osu file format v10

[General]
AudioFilename: Party With Pinkie [VIP].mp3
AudioLeadIn: 0
PreviewTime: 169935
Countdown: 0
SampleSet: Normal
StackLeniency: 0.7
Mode: 0
LetterboxInBreaks: 1

[Editor]
Bookmarks: 975,31695,62415,77775,108495,139215,169935,200655,231375,262095,292815
DistanceSpacing: 1
BeatDivisor: 1
GridSize: 8

[Metadata]
Title:Party With Pinkie [VIP]
TitleUnicode:Party With Pinkie [VIP]
Artist:Alex S.
ArtistUnicode:Alex S.
Creator:vytalibus
Version:Collab
Source:
Tags:
BeatmapID:183617
BeatmapSetID:61657

[Difficulty]
HPDrainRate:6
CircleSize:4
OverallDifficulty:7
ApproachRate:8
SliderMultiplier:1.4
SliderTickRate:1

[Events]
//Background and Video events
0,0,"Party With Pinkie VIP.jpg"
//Break Periods
2,8375,30945
2,85655,169185
//Storyboard Layer 0 (Background)
//Storyboard Layer 1 (Fail)
//Storyboard Layer 2 (Pass)
//Storyboard Layer 3 (Foreground)
//Storyboard Sound Samples
//Background Colour Transformations
3,100,163,162,255

[TimingPoints]
975.590163934426,480,4,1,0,100,1,0

[HitObjects]
256,192,975,1,0,0:0:0
344,192,1455,1,0,0:0:0
256,192,1935,1,0,0:0:0
168,192,2415,1,0,0:0:0
256,192,2895,1,0,0:0:0
344,192,3375,1,0,0:0:0
256,192,3855,1,0,0:0:0
168,192,4335,1,0,0:0:0
256,192,4815,1,0,0:0:0
344,192,5295,1,0,0:0:0
256,192,5775,1,0,0:0:0
168,192,6255,1,0,0:0:0
256,192,6735,1,0,0:0:0
344,192,7215,1,0,0:0:0
256,192,7695,1,0,0:0:0
168,192,8175,1,0,0:0:0
256,192,31695,5,0,0:0:0
256,192,32175,1,0,0:0:0
256,192,32655,1,0,0:0:0
256,192,33615,1,0,0:0:0
256,192,34095,1,0,0:0:0
256,192,34575,1,0,0:0:0
256,192,35535,1,0,0:0:0
256,192,36015,1,0,0:0:0
256,192,36495,1,0,0:0:0
256,192,37455,1,0,0:0:0
256,192,37935,1,0,0:0:0
256,192,38415,1,0,0:0:0
256,192,38895,1,0,0:0:0
256,192,39375,1,0,0:0:0
256,192,39855,1,0,0:0:0
256,192,40335,1,0,0:0:0
256,192,41295,1,0,0:0:0
256,192,41775,1,0,0:0:0
256,192,42255,1,0,0:0:0
256,192,43215,1,0,0:0:0
256,192,43695,1,0,0:0:0
256,192,44175,1,0,0:0:0
256,192,45135,1,0,0:0:0
256,192,45615,1,0,0:0:0
256,192,46095,1,0,0:0:0
288,192,47055,5,0,0:0:0
288,192,47535,1,0,0:0:0
288,192,48015,1,0,0:0:0
288,192,48255,1,0,0:0:0
288,192,48495,1,0,0:0:0
288,192,48975,1,0,0:0:0
288,192,49455,1,0,0:0:0
288,192,49935,1,0,0:0:0
288,192,50175,1,0,0:0:0
288,192,50415,1,0,0:0:0
288,192,50895,1,0,0:0:0
288,192,51375,1,0,0:0:0
288,192,51855,1,0,0:0:0
288,192,52095,1,0,0:0:0
288,192,52335,1,0,0:0:0
288,192,52815,1,0,0:0:0
288,192,53295,1,0,0:0:0
288,192,53775,1,0,0:0:0
288,192,54015,1,0,0:0:0
288,192,54255,1,0,0:0:0
288,192,54735,1,0,0:0:0
288,192,55215,1,0,0:0:0
288,192,55695,1,0,0:0:0
288,192,55935,1,0,0:0:0
288,192,56175,1,0,0:0:0
288,192,56655,1,0,0:0:0
288,192,57135,1,0,0:0:0
288,192,57615,1,0,0:0:0
288,192,57855,1,0,0:0:0
288,192,58095,1,0,0:0:0
288,192,58575,1,0,0:0:0
288,192,59055,1,0,0:0:0
288,192,59535,1,0,0:0:0
288,192,60015,1,0,0:0:0
288,192,60495,1,0,0:0:0
288,192,60975,1,0,0:0:0
288,192,61455,1,0,0:0:0
288,192,61935,1,0,0:0:0
288,192,62175,1,0,0:0:0
288,192,62415,1,0,0:0:0
288,192,62895,1,0,0:0:0
288,192,63375,1,0,0:0:0
288,192,63855,1,0,0:0:0
288,192,64335,1,0,0:0:0
288,192,64815,1,0,0:0:0
288,192,65295,1,0,0:0:0
288,192,65775,1,0,0:0:0
288,192,66255,1,0,0:0:0
288,192,66735,1,0,0:0:0
288,192,67215,1,0,0:0:0
288,192,67695,1,0,0:0:0
288,192,68175,1,0,0:0:0
288,192,68655,1,0,0:0:0
288,192,69135,1,0,0:0:0
288,192,69615,1,0,0:0:0
288,192,70095,1,0,0:0:0
288,192,70335,1,0,0:0:0
288,192,70575,1,0,0:0:0
288,192,70815,1,0,0:0:0
288,192,71055,1,0,0:0:0
288,192,71295,1,0,0:0:0
288,192,71535,1,0,0:0:0
288,192,71775,1,0,0:0:0
288,192,72015,1,0,0:0:0
288,192,72255,1,0,0:0:0
288,192,72495,1,0,0:0:0
288,192,72735,1,0,0:0:0
288,192,72975,1,0,0:0:0
288,192,73215,1,0,0:0:0
288,192,73455,1,0,0:0:0
288,192,73695,1,0,0:0:0
288,192,73935,2,0,B|288:256,15,35
288,192,75855,2,0,B|288:160,15,17.5
288,192,77535,1,0,0:0:0
288,192,77775,1,0,0:0:0
288,192,78255,1,0,0:0:0
288,192,78735,1,0,0:0:0
288,192,79215,1,0,0:0:0
288,192,79695,1,0,0:0:0
288,192,80175,1,0,0:0:0
288,192,80655,1,0,0:0:0
288,192,81135,1,0,0:0:0
288,192,81615,1,0,0:0:0
288,192,81855,1,0,0:0:0
288,192,82095,1,0,0:0:0
288,192,82335,1,0,0:0:0
288,192,82575,1,0,0:0:0
288,192,82695,1,0,0:0:0
288,192,82935,1,0,0:0:0
288,192,83175,1,0,0:0:0
288,192,83295,1,0,0:0:0
288,192,83535,1,0,0:0:0
288,192,83775,1,0,0:0:0
288,192,84015,1,0,0:0:0
288,192,84255,1,0,0:0:0
288,192,84495,1,0,0:0:0
288,192,84615,1,0,0:0:0
288,192,84855,1,0,0:0:0
288,192,85095,1,0,0:0:0
288,192,85215,1,0,0:0:0
288,192,85455,1,0,0:0:0
128,192,169935,6,0,B|296:192,4,140
