osu file format v14

[General]
AudioFilename: JonTron - JonTron Theme (Alex S. Mini Remix).mp3
AudioLeadIn: 0
PreviewTime: 481
Countdown: 1
SampleSet: Normal
StackLeniency: 0.7
Mode: 2
LetterboxInBreaks: 1
WidescreenStoryboard: 1

[Editor]
DistanceSpacing: 0.6
BeatDivisor: 4
GridSize: 16
TimelineZoom: 1

[Metadata]
Title:JonTron Theme (Alex S. Mini Remix)
TitleUnicode:JonTron Theme (Alex S. Mini Remix)
Artist:Alex S.
ArtistUnicode:Alex S.
Creator:Negri_sk
Version:Platter
Source:
Tags:
BeatmapID:798395
BeatmapSetID:363395

[Difficulty]
HPDrainRate:5
CircleSize:4
OverallDifficulty:8.4
ApproachRate:8.4
SliderMultiplier:2.39999990463257
SliderTickRate:1

[Events]
//Background and Video events
0,0,"alex_s__by_delta105-d57cwra.jpg",0,0
//Break Periods
//Storyboard Layer 0 (Background)
//Storyboard Layer 1 (Fail)
//Storyboard Layer 2 (Pass)
//Storyboard Layer 3 (Foreground)
//Storyboard Sound Samples

[TimingPoints]
2850,631.578947368421,4,1,0,100,1,0
12955,-100,4,1,0,100,0,1
32218,-100,4,2,0,5,0,0

[HitObjects]
304,256,639,6,0,L|384:256,2,59.9999976158142
144,240,1271,2,0,P|128:176|144:112,1,119.999995231628
224,80,1902,1,0,0:0:0:0:
320,80,2218,2,0,P|352:160|256:320,1,239.999990463257
208,288,3007,5,12,0:0:0:0:
144,256,3165,1,0,0:0:0:0:
208,224,3323,1,8,0:0:0:0:
144,192,3481,1,0,0:0:0:0:
320,288,3639,5,8,0:0:0:0:
384,256,3797,1,0,0:0:0:0:
320,224,3955,1,8,0:0:0:0:
384,192,4113,2,0,P|352:112|320:80,1,119.999995231628,2|0,0:0|0:0,0:0:0:0:
160,80,4744,2,0,P|112:144|96:192,1,119.999995231628,2|0,0:0|0:0,0:0:0:0:
272,288,5376,2,0,P|336:272|384:240,1,119.999995231628,2|0,0:0|0:0,0:0:0:0:
256,192,6007,12,0,6639,0:0:0:0:
368,288,6797,5,8,0:0:0:0:
432,240,6955,1,0,0:0:0:0:
368,192,7113,1,8,0:0:0:0:
432,144,7271,2,0,B|464:96|464:96|416:48,1,119.999995231628,0|8,0:0|0:0,0:0:0:0:
288,48,7902,5,12,0:0:0:0:
224,96,8060,1,0,0:0:0:0:
144,96,8218,1,8,0:0:0:0:
224,96,8376,1,0,0:0:0:0:
288,48,8534,2,0,L|416:48,1,119.999995231628,8|0,0:0|0:0,0:0:0:0:
376,144,9165,6,0,L|496:144,2,119.999995231628,2|0|2,0:0|0:0|0:0,0:0:0:0:
224,144,10113,2,0,L|96:144,1,119.999995231629,2|0,0:0|0:0,0:0:0:0:
240,144,10586,1,8,0:0:0:0:
160,144,10744,1,0,0:0:0:0:
80,144,10902,1,8,0:0:0:0:
160,144,11060,1,0,0:0:0:0:
384,96,11218,5,8,0:0:0:0:
320,96,11376,1,0,0:0:0:0:
192,48,11534,1,8,0:0:0:0:
256,48,11692,2,0,L|400:48,1,119.999995231629,2|0,0:0|0:0,0:0:0:0:
64,48,12323,1,8,0:0:0:0:
144,48,12481,1,0,0:0:0:0:
64,48,12639,1,8,0:0:0:0:
144,48,12797,1,0,0:0:0:0:
368,48,12955,6,0,P|416:112|432:160,1,119.999995231629,12|0,0:0|0:0,0:0:0:0:
208,240,13586,2,0,P|160:176|144:128,1,119.999995231629,2|0,0:0|0:0,0:0:0:0:
176,48,14218,2,0,P|128:112|112:160,1,119.999995231629,2|0,0:0|0:0,0:0:0:0:
336,240,14849,2,0,P|384:176|400:128,1,119.999995231629,2|0,0:0|0:0,0:0:0:0:
224,128,15481,1,8,0:0:0:0:
160,96,15639,1,0,0:0:0:0:
96,64,15797,1,8,0:0:0:0:
160,32,15955,1,0,0:0:0:0:
432,144,16113,5,8,0:0:0:0:
464,80,16271,1,0,0:0:0:0:
224,176,16428,1,8,0:0:0:0:
176,112,16586,1,0,0:0:0:0:
416,96,16744,1,8,0:0:0:0:
496,96,16902,1,0,0:0:0:0:
416,96,17060,1,8,0:0:0:0:
336,96,17218,1,0,0:0:0:0:
416,96,17376,1,8,0:0:0:0:
160,192,17534,6,0,L|112:240,1,59.9999976158143,2|0,0:0|0:0,0:0:0:0:
368,256,17850,1,8,0:0:0:0:
128,32,18007,2,0,P|81:69|57:123,2,119.999995231629,12|0|0,0:0|0:0|0:0,0:0:0:0:
272,240,18955,2,0,P|320:176|336:128,1,119.999995231629,2|0,0:0|0:0,0:0:0:0:
96,48,19586,2,0,P|48:128|32:160,1,119.999995231629,2|0,0:0|0:0,0:0:0:0:
320,256,20218,2,0,P|352:176|352:128,2,119.999995231629,2|0|2,0:0|0:0|0:0,0:0:0:0:
160,176,21165,5,12,0:0:0:0:
240,176,21323,1,0,0:0:0:0:
160,176,21481,1,8,0:0:0:0:
240,176,21639,1,0,0:0:0:0:
480,128,21797,2,0,P|448:64|400:32,1,119.999995231629,2|0,0:0|0:0,0:0:0:0:
272,32,22428,2,0,P|208:48|160:96,1,119.999995231629,2|0,0:0|0:0,0:0:0:0:
320,240,23060,5,12,0:0:0:0:
400,240,23218,1,0,0:0:0:0:
320,240,23376,1,8,0:0:0:0:
400,240,23534,1,0,0:0:0:0:
464,128,23692,1,8,0:0:0:0:
400,128,23850,1,0,0:0:0:0:
160,112,24007,5,8,0:0:0:0:
224,112,24165,1,0,0:0:0:0:
448,48,24323,1,8,0:0:0:0:
512,48,24481,1,0,0:0:0:0:
448,48,24639,1,8,0:0:0:0:
336,48,24797,2,0,L|400:48,1,59.9999976158143,2|0,0:0|0:0,0:0:0:0:
448,96,25113,5,8,0:0:0:0:
512,144,25271,1,0,0:0:0:0:
448,192,25428,1,8,0:0:0:0:
128,224,25586,2,0,P|96:160|96:112,2,119.999995231629,2|0|2,0:0|0:0|0:0,0:0:0:0:
368,256,26534,2,0,P|400:192|416:144,1,119.999995231629,2|0,0:0|0:0,0:0:0:0:
144,128,27165,5,8,0:0:0:0:
96,80,27323,1,0,0:0:0:0:
144,32,27481,1,8,0:0:0:0:
368,160,27639,2,0,L|304:160,1,59.9999976158143,2|0,0:0|0:0,0:0:0:0:
64,80,27955,2,0,L|144:80,1,59.9999976158143,2|0,0:0|0:0,0:0:0:0:
368,80,28271,5,12,0:0:0:0:
288,80,28428,1,0,0:0:0:0:
368,80,28586,1,8,0:0:0:0:
288,80,28744,1,0,0:0:0:0:
64,160,28902,2,0,L|144:160,1,59.9999976158143,2|0,0:0|0:0,0:0:0:0:
400,256,29218,2,0,L|336:256,1,59.9999976158143,2|0,0:0|0:0,0:0:0:0:
96,192,29534,5,8,0:0:0:0:
16,192,29692,1,0,0:0:0:0:
96,192,29850,1,8,0:0:0:0:
176,192,30007,1,0,0:0:0:0:
400,192,30165,1,8,0:0:0:0:
480,192,30323,1,0,0:0:0:0:
400,192,30481,1,8,0:0:0:0:
320,192,30639,6,0,L|192:192,2,119.999995231629,12|0|0,0:0|0:0|0:0,0:0:0:0:
224,96,31428,1,8,0:0:0:0:
368,96,31586,1,8,0:0:0:0:
288,96,31744,1,0,0:0:0:0:
432,96,31902,2,0,P|480:144|496:192,2,119.999995231629,2|0|2,0:0|0:0|0:0,0:0:0:0:
256,144,33165,6,0,L|256:176,8,29.9999988079071
256,192,34113,12,0,37902,0:0:0:0:
