osu file format v14

[General]
AudioFilename: spicetrousle.mp3
AudioLeadIn: 0
PreviewTime: 31664
Countdown: 0
SampleSet: Soft
StackLeniency: 0.7
Mode: 0
LetterboxInBreaks: 0
WidescreenStoryboard: 0

[Editor]
DistanceSpacing: 1
BeatDivisor: 2
GridSize: 4
TimelineZoom: 1

[Metadata]
Title:SpiceTrousle
TitleUnicode:SpiceTrousle
Artist:Alex Mercer Mashups
ArtistUnicode:Alex Mercer Mashups
Creator:microism
Version:Normal
Source:
Tags:bonetrousle undertale spicetale soundcloud hootowlstar -lemons
BeatmapID:903356
BeatmapSetID:383266

[Difficulty]
HPDrainRate:3
CircleSize:3
OverallDifficulty:4
ApproachRate:5
SliderMultiplier:1
SliderTickRate:1

[Events]
//Background and Video events
0,0,"hey guys.jpg",0,0
//Break Periods
//Storyboard Layer 0 (Background)
//Storyboard Layer 1 (Fail)
//Storyboard Layer 2 (Pass)
//Storyboard Layer 3 (Foreground)
//Storyboard Sound Samples

[TimingPoints]
64,400,4,2,0,70,1,0
32064,-100,4,1,0,70,0,1
51264,-100,4,2,0,70,0,0

[Colours]
Combo1 : 0,128,192
Combo2 : 16,137,31
Combo3 : 225,50,50

[HitObjects]
184,224,64,6,0,B|232:232|232:232|284:224,1,100,8|0,0:0|0:0,0:0:0:0:
328,136,864,2,0,B|280:128|280:128|228:136,1,100
184,224,1664,2,0,P|132:240|84:228,1,100,8|0,0:0|0:0,0:0:0:0:
132,136,2464,2,0,L|124:32,1,100,0|2,0:0|0:0,0:0:0:0:
220,60,3264,6,0,L|228:164,1,100,8|0,0:0|0:0,0:0:0:0:
292,236,4064,2,0,L|284:335,1,100
192,292,4864,2,0,P|142:284|93:292,1,100,8|0,0:0|0:0,0:0:0:0:
4,244,5664,2,0,L|11:144,1,100,0|2,0:0|0:0,0:0:0:0:
152,196,6664,6,0,L|204:200,2,50,0|8|0,0:0|0:0|0:0,0:0:0:0:
112,228,7264,1,0,0:0:0:0:
144,324,7664,1,8,0:0:0:0:
244,316,8064,2,0,L|296:320,2,50,0|0|8,0:0|0:0|0:0,0:0:0:0:
284,224,8864,2,0,L|333:227,2,50,0|0|8,0:0|0:0|0:0,0:0:0:0:
240,204,9464,1,0,0:0:0:0:
196,184,9664,6,0,L|96:176,1,100,0|8,0:0|0:0,0:0:0:0:
52,264,10464,2,0,L|152:272,1,100,0|8,0:0|0:0,0:0:0:0:
196,296,11064,1,0,0:0:0:0:
240,316,11264,2,0,L|292:320,2,50,0|0|8,0:0|0:0|0:0,0:0:0:0:
256,216,12064,1,4,0:0:0:0:
256,60,13064,6,0,L|256:112,2,50,0|8|0,0:0|0:0|0:0,0:0:0:0:
256,12,13664,1,0,0:0:0:0:
160,44,14064,1,8,0:0:0:0:
64,76,14464,2,0,L|72:176,1,100,0|8,0:0|0:0,0:0:0:0:
156,228,15264,2,0,B|208:244|252:220,1,100,0|8,0:0|0:0,0:0:0:0:
296,196,15864,1,0,0:0:0:0:
340,172,16064,6,0,L|392:176,2,50,0|0|8,0:0|0:0|0:0,0:0:0:0:
260,112,16864,2,0,L|208:108,1,50
168,132,17264,2,0,L|118:135,1,50,8|0,0:0|0:0,0:0:0:0:
72,152,17664,2,0,P|68:180|72:204,2,50,0|0|8,0:0|0:0|0:0,0:0:0:0:
72,52,18464,1,2,0:0:0:0:
72,52,18864,1,2,0:0:0:0:
160,96,19264,6,0,P|188:100|212:96,1,50
260,84,19664,2,0,P|284:80|309:84,1,50,8|0,0:0|0:0,0:0:0:0:
360,92,20064,2,0,P|372:140|360:188,1,100,0|8,0:0|0:0,0:0:0:0:
408,276,20864,2,0,P|359:288|311:276,1,100,0|8,0:0|0:0,0:0:0:0:
212,292,21664,2,0,L|208:240,1,50
240,204,22064,2,0,L|244:152,1,50,8|0,0:0|0:0,0:0:0:0:
212,116,22464,6,0,L|208:64,2,50,0|0|8,0:0|0:0|0:0,0:0:0:0:
112,116,23264,2,0,L|116:168,1,50
92,208,23664,2,0,L|88:260,1,50,8|0,0:0|0:0,0:0:0:0:
116,300,24064,2,0,L|120:352,2,50,0|0|8,0:0|0:0|0:0,0:0:0:0:
188,228,24864,1,4,0:0:0:0:
328,260,25864,6,0,L|380:256,2,50,0|8|0,0:0|0:0|0:0,0:0:0:0:
280,244,26464,2,0,L|180:252,1,100,0|8,0:0|0:0,0:0:0:0:
104,184,27264,2,0,L|108:132,1,50
140,96,27664,2,0,P|184:84|240:92,1,100,8|0,0:0|0:0,0:0:0:0:
264,132,28264,1,0,0:0:0:0:
292,172,28464,2,0,L|288:224,1,50,8|0,0:0|0:0,0:0:0:0:
272,268,28864,6,0,L|276:324,2,50,0|0|8,0:0|0:0|0:0,0:0:0:0:
180,304,29664,2,0,L|176:356,2,50,0|0|8,0:0|0:0|0:0,0:0:0:0:
168,256,30264,1,0,0:0:0:0:
156,208,30464,2,0,L|160:156,1,50
168,108,30864,2,0,L|268:104,1,100,8|2,0:0|0:0,0:0:0:0:
344,168,31664,1,0,0:0:0:0:
344,268,32064,6,0,L|244:272,1,100,10|8,0:0|0:0,0:0:0:0:
192,188,32864,2,0,L|292:184,1,100,2|8,0:0|0:0,0:0:0:0:
344,96,33664,2,0,L|294:98,2,50,2|0|8,0:0|0:0|0:0,0:0:0:0:
388,188,34464,2,0,L|438:190,2,50,2|0|8,0:0|0:0|0:0,0:0:0:0:
392,236,35064,5,0,0:0:0:0:
396,284,35264,2,0,P|348:272|300:284,1,100,2|8,0:0|0:0,0:0:0:0:
256,312,35864,1,0,0:0:0:0:
212,284,36064,2,0,P|163:271|115:283,1,100,2|8,0:0|0:0,0:0:0:0:
92,240,36664,1,0,0:0:0:0:
112,192,36864,2,0,L|124:92,1,100,2|8,0:0|0:0,0:0:0:0:
172,72,37464,1,0,0:0:0:0:
220,56,37664,2,0,L|320:64,1,100,2|4,0:0|0:0,0:0:0:0:
448,144,38664,6,0,L|396:140,2,50,0|8|0,0:0|0:0|0:0,0:0:0:0:
452,192,39264,1,2,0:0:0:0:
492,284,39664,1,8,0:0:0:0:
456,376,40064,2,0,P|428:372|404:376,2,50,2|0|8,0:0|0:0|0:0,0:0:0:0:
476,276,40864,2,0,L|424:276,1,50,2|0,0:0|0:0,0:0:0:0:
380,256,41264,2,0,L|328:256,1,50,8|0,0:0|0:0,0:0:0:0:
284,276,41664,6,0,L|184:276,1,100,2|8,0:0|0:0,0:0:0:0:
136,256,42264,1,0,0:0:0:0:
88,236,42464,2,0,L|96:136,1,100,2|8,0:0|0:0,0:0:0:0:
108,88,43064,1,0,0:0:0:0:
120,40,43264,2,0,L|176:36,1,50,2|0,0:0|0:0,0:0:0:0:
216,52,43664,2,0,L|265:55,1,50,8|0,0:0|0:0,0:0:0:0:
312,40,44064,2,0,L|412:32,1,100,2|4,0:0|0:0,0:0:0:0:
392,180,45064,6,0,P|388:204|392:232,2,50,0|8|0,0:0|0:0|0:0,0:0:0:0:
348,156,45664,2,0,L|248:164,1,100,2|8,0:0|0:0,0:0:0:0:
184,240,46464,2,0,L|188:292,2,50,2|0|8,0:0|0:0|0:0,0:0:0:0:
148,144,47264,2,0,L|152:92,2,50,2|0|8,0:0|0:0|0:0,0:0:0:0:
112,180,47864,1,0,0:0:0:0:
80,216,48064,6,0,L|87:315,1,100,2|8,0:0|0:0,0:0:0:0:
136,332,48664,1,0,0:0:0:0:
184,348,48864,2,0,P|236:356|284:348,1,100,2|8,0:0|0:0,0:0:0:0:
328,332,49464,1,0,0:0:0:0:
376,312,49664,2,0,P|428:304|476:312,1,100,2|8,0:0|0:0,0:0:0:0:
472,260,50264,1,0,0:0:0:0:
468,212,50464,2,0,L|476:112,1,100,2|4,0:0|0:0,0:0:0:0:
328,140,51464,6,0,P|352:144|377:140,2,50,0|8|0,0:0|0:0|0:0,0:0:0:0:
300,96,52064,2,0,P|312:140|304:196,1,100,0|8,0:0|0:0,0:0:0:0:
232,264,52864,2,0,L|236:316,2,50,0|0|8,0:0|0:0|0:0,0:0:0:0:
136,240,53664,1,0,0:0:0:0:
148,140,54064,2,0,L|152:88,1,50,8|0,0:0|0:0,0:0:0:0:
184,52,54464,6,0,L|236:48,1,50
284,60,54864,2,0,L|336:64,1,50,8|0,0:0|0:0,0:0:0:0:
380,80,55264,2,0,P|392:124|380:176,1,100,0|8,0:0|0:0,0:0:0:0:
316,252,56064,2,0,P|312:280|316:304,2,50,2|2|2,0:0|0:0|0:0,0:0:0:0:
412,276,56864,1,2,0:0:0:0:
379,176,57264,1,6,0:0:0:0:
