osu file format v14

[General]
AudioFilename: spicetrousle.mp3
AudioLeadIn: 0
PreviewTime: 31664
Countdown: 0
SampleSet: Soft
StackLeniency: 0.7
Mode: 0
LetterboxInBreaks: 0
WidescreenStoryboard: 0

[Editor]
DistanceSpacing: 1.2
BeatDivisor: 1
GridSize: 4
TimelineZoom: 1

[Metadata]
Title:SpiceTrousle
TitleUnicode:SpiceTrousle
Artist:Alex Mercer Mashups
ArtistUnicode:Alex Mercer Mashups
Creator:microism
Version:Easy
Source:
Tags:bonetrousle undertale spicetale soundcloud hootowlstar -lemons
BeatmapID:903355
BeatmapSetID:383266

[Difficulty]
HPDrainRate:2
CircleSize:2
OverallDifficulty:3
ApproachRate:3
SliderMultiplier:0.8
SliderTickRate:1

[Events]
//Background and Video events
0,0,"hey guys.jpg",0,0
//Break Periods
//Storyboard Layer 0 (Background)
//Storyboard Layer 1 (Fail)
//Storyboard Layer 2 (Pass)
//Storyboard Layer 3 (Foreground)
//Storyboard Sound Samples

[TimingPoints]
64,400,4,2,0,70,1,0
32064,-100,4,1,0,70,0,1
51264,-100,4,2,0,70,0,0

[Colours]
Combo1 : 0,128,192
Combo2 : 16,137,31
Combo3 : 225,50,50

[HitObjects]
56,192,64,6,0,B|112:166|169:192|169:192|225:217|288:192,1,240,8|0,0:0|0:0,0:0:0:0:
320,104,1664,2,0,P|384:200|308:284,1,240,0|2,0:0|0:0,0:0:0:0:
232,336,3264,6,0,B|152:336|152:336|80:304|80:304|-8:304,1,240,8|0,0:0|0:0,0:0:0:0:
16,208,4864,2,0,B|8:48|8:48|88:48,1,240,0|2,0:0|0:0,0:0:0:0:
168,104,6464,5,0,0:0:0:0:
248,48,6864,2,0,L|408:40,1,160,8|8,0:0|0:0,0:0:0:0:
464,120,8064,1,0,0:0:0:0:
512,204,8464,2,0,L|504:364,1,160,8|8,0:0|0:0,0:0:0:0:
416,336,9664,5,0,0:0:0:0:
328,304,10064,2,0,L|168:312,1,160,8|8,0:0|0:0,0:0:0:0:
72,328,11264,1,0,0:0:0:0:
104,240,11664,2,8,P|128:168|104:88,1,160
192,48,12864,5,0,0:0:0:0:
280,88,13264,2,8,L|440:80,2,160
200,136,15264,5,0,0:0:0:0:
120,184,15664,2,8,P|96:256|120:344,1,160
208,328,16864,1,0,0:0:0:0:
304,336,17264,2,8,L|464:328,1,160
496,240,18464,1,4,0:0:0:0:
304,216,19264,6,0,B|224:224|224:224|144:216,1,160,2|0,0:0|0:0,0:0:0:0:
136,120,20464,1,8,0:0:0:0:
176,32,20864,2,0,L|336:32,1,160,2|0,0:0|0:0,0:0:0:0:
376,120,22064,1,8,0:0:0:0:
416,208,22464,6,0,L|408:368,1,160,2|0,0:0|0:0,0:0:0:0:
320,328,23664,1,8,0:0:0:0:
240,280,24064,2,0,L|232:120,1,160,2|0,0:0|0:0,0:0:0:0:
56,192,25664,5,0,0:0:0:0:
48,96,26064,2,8,L|280:88,1,160
304,112,27264,1,0,0:0:0:0:
400,136,27664,2,8,P|416:216|400:296,1,160
312,256,28864,5,0,0:0:0:0:
224,288,29264,2,8,L|64:280,1,160
80,184,30464,1,0,0:0:0:0:
64,88,30864,2,8,L|216:96,1,80,8|0,0:0|0:0,0:0:0:0:
240,112,31664,1,2,0:0:0:0:
336,88,32064,6,0,L|496:80,1,160,10|0,0:0|0:0,0:0:0:0:
488,176,33264,1,0,0:0:0:0:
480,272,33664,2,0,B|472:312|480:352|480:352|440:336|400:352,1,160,2|0,0:0|0:0,0:0:0:0:
304,336,34864,1,0,0:0:0:0:
208,352,35264,6,0,L|48:344,1,160,2|0,0:0|0:0,0:0:0:0:
32,248,36464,1,0,0:0:0:0:
16,152,36864,2,0,P|88:120|168:128,1,160,2|0,0:0|0:0,0:0:0:0:
256,176,38064,1,0,0:0:0:0:
344,127,38464,6,0,P|423:119|496:152,1,160,2|0,0:0|0:0,0:0:0:0:
488,248,39664,1,0,0:0:0:0:
472,344,40064,2,0,L|312:352,1,160,2|0,0:0|0:0,0:0:0:0:
304,256,41264,1,0,0:0:0:0:
296,160,41664,6,0,B|216:152|216:152|136:160,1,160,2|0,0:0|0:0,0:0:0:0:
40,144,42864,1,0,0:0:0:0:
104,72,43264,2,0,L|264:56,1,160,2|0,0:0|0:0,0:0:0:0:
256,152,44464,1,0,0:0:0:0:
248,248,44864,6,0,L|408:232,1,160,2|0,0:0|0:0,0:0:0:0:
448,144,46064,1,0,0:0:0:0:
392,64,46464,2,0,L|232:80,1,160,2|0,0:0|0:0,0:0:0:0:
184,164,47664,1,0,0:0:0:0:
136,248,48064,6,0,B|112:272|64:280|64:280|128:328,1,160,2|0,0:0|0:0,0:0:0:0:
216,360,49264,1,0,0:0:0:0:
296,312,49664,2,0,L|464:328,1,160,2|0,0:0|0:0,0:0:0:0:
480,232,50864,1,0,0:0:0:0:
448,144,51264,6,0,B|384:160|340:96|340:96|368:160|328:212,1,240
256,144,52864,2,0,P|176:136|80:248,1,240
128,336,54464,6,0,B|208:352|208:352|280:320|280:320|360:336,1,240
432,272,56064,2,0,P|472:192|416:56,1,240,0|4,0:0|0:0,0:0:0:0:
