osu file format v14

[General]
AudioFilename: Nightcore - Counting Stars.mp3
AudioLeadIn: 0
PreviewTime: 107064
Countdown: 0
SampleSet: Normal
StackLeniency: 0.7
Mode: 3
LetterboxInBreaks: 0
SpecialStyle: 0
WidescreenStoryboard: 1

[Editor]
DistanceSpacing: 0.8
BeatDivisor: 4
GridSize: 32
TimelineZoom: 1.04

[Metadata]
Title:Counting Stars (Nightcore Mix)
TitleUnicode:Counting Stars (Nightcore Mix)
Artist:Alex Goot, Kurt Schneider, and Chrissy Costanza
ArtistUnicode:Alex Goot, Kurt Schneider, and Chrissy Costanza
Creator:DrawdeX
Version:7K NM
Source:
Tags:OneRepublic cover Maou - sama
BeatmapID:484143
BeatmapSetID:205036

[Difficulty]
HPDrainRate:7
CircleSize:7
OverallDifficulty:7
ApproachRate:5
SliderMultiplier:1.4
SliderTickRate:1

[Events]
//Background and Video events
0,0,"nightcore.jpg",0,0
//Break Periods
//Storyboard Layer 0 (Background)
//Storyboard Layer 1 (Fail)
//Storyboard Layer 2 (Pass)
//Storyboard Layer 3 (Foreground)
//Storyboard Sound Samples

[TimingPoints]
550,480,4,1,1,30,1,0
550,-90.9090909090909,4,1,1,30,0,0
19600,422.535211267606,4,1,1,70,1,0
56783,-100,4,2,1,70,0,0
59740,-100,4,3,1,100,0,0
60163,-100,4,1,1,70,0,1
73684,-100,4,1,1,70,0,0
104107,-100,4,2,1,70,0,0
107064,-100,4,3,1,100,0,0
107487,-100,4,1,1,70,0,1
134529,-100,4,2,1,70,0,0
154811,-100,4,1,1,70,0,1
168332,-100,4,2,1,70,0,0

[HitObjects]
109,192,550,5,0,0:0:0:0:
402,192,550,128,0,2470:0:0:0:0:
256,192,2470,1,0,0:0:0:0:
182,192,2470,128,0,4390:0:0:0:0:
402,192,4390,1,0,0:0:0:0:
36,192,4390,128,0,6310:0:0:0:0:
402,192,6310,128,0,8230:0:0:0:0:
182,192,6310,1,0,0:0:0:0:
256,192,8230,1,0,0:0:0:0:
36,192,8230,128,0,10150:0:0:0:0:
329,192,10150,128,0,12070:0:0:0:0:
109,192,10150,1,0,0:0:0:0:
402,192,12070,1,0,0:0:0:0:
109,192,12070,128,0,13990:0:0:0:0:
329,192,13990,1,0,0:0:0:0:
182,192,13990,128,0,15910:0:0:0:0:
256,192,16870,1,0,0:0:0:0:
36,192,19600,1,0,0:0:0:0:
256,192,19600,1,0,0:0:0:0:
475,192,19600,1,4,0:0:0:0:
402,192,20022,1,8,0:0:0:0:
329,192,20022,1,0,0:0:0:0:
109,192,20445,1,0,0:0:0:0:
182,192,20867,1,8,0:0:0:0:
256,192,20867,128,0,21290:0:0:0:0:
402,192,21184,1,2,0:0:0:0:
320,192,21290,1,2,0:0:0:0:
64,192,21712,1,8,0:0:0:0:
109,192,21712,1,0,0:0:0:0:
256,192,22135,1,0,0:0:0:0:
402,192,22557,1,8,0:0:0:0:
320,192,22557,128,0,22980:0:0:0:0:
109,192,22874,1,2,0:0:0:0:
192,192,22980,1,2,0:0:0:0:
402,192,23402,1,8,0:0:0:0:
256,192,23402,1,0,0:0:0:0:
320,192,23825,1,0,0:0:0:0:
64,192,24247,128,0,24670:0:0:0:0:
109,192,24247,1,8,0:0:0:0:
329,192,24564,1,2,0:0:0:0:
256,192,24670,1,2,0:0:0:0:
182,192,25092,1,0,0:0:0:0:
320,192,25092,1,8,0:0:0:0:
256,192,25515,1,0,0:0:0:0:
109,192,25938,1,8,0:0:0:0:
402,192,25938,1,0,0:0:0:0:
182,192,26360,1,0,0:0:0:0:
36,192,26360,128,2,28050:0:0:0:0:
329,192,26360,1,4,0:0:0:0:
256,192,26783,1,0,0:0:0:0:
320,192,27205,1,0,0:0:0:0:
402,192,27628,1,0,0:0:0:0:
448,192,28050,128,2,29740:0:0:0:0:
109,192,28050,1,0,0:0:0:0:
192,192,28473,1,0,0:0:0:0:
256,192,28895,1,0,0:0:0:0:
329,192,29318,1,0,0:0:0:0:
192,192,29740,1,0,0:0:0:0:
64,192,29740,128,2,31430:0:0:0:0:
256,192,30163,1,0,0:0:0:0:
320,192,30585,1,0,0:0:0:0:
402,192,31008,1,0,0:0:0:0:
256,192,31430,1,0,0:0:0:0:
192,192,31430,128,2,33121:0:0:0:0:
320,192,31853,1,0,0:0:0:0:
109,192,32276,1,0,0:0:0:0:
402,192,32698,1,8,0:0:0:0:
256,192,33121,1,0,0:0:0:0:
109,192,33121,128,2,33543:0:0:0:0:
402,192,33543,1,0,0:0:0:0:
320,192,33966,1,0,0:0:0:0:
192,192,34388,1,0,0:0:0:0:
256,192,34811,1,0,0:0:0:0:
402,192,34811,128,2,35233:0:0:0:0:
192,192,35233,1,0,0:0:0:0:
109,192,35656,1,0,0:0:0:0:
256,192,36078,1,0,0:0:0:0:
182,192,36501,1,0,0:0:0:0:
64,192,36501,128,2,38191:0:0:0:0:
402,192,36923,1,0,0:0:0:0:
448,192,37346,1,0,0:0:0:0:
256,192,37769,1,0,0:0:0:0:
192,192,38191,1,0,0:0:0:0:
448,192,38191,128,2,39036:0:0:0:0:
109,192,38614,1,0,0:0:0:0:
182,192,38825,1,0,0:0:0:0:
256,192,38930,1,0,0:0:0:0:
329,192,39036,1,0,0:0:0:0:
36,192,39881,1,4,0:0:0:0:
448,192,39881,128,0,41571:0:0:0:0:
256,192,39881,1,0,0:0:0:0:
109,192,40304,1,8,0:0:0:0:
320,192,40304,1,0,0:0:0:0:
192,192,40726,1,0,0:0:0:0:
256,192,41149,1,0,0:0:0:0:
320,192,41149,1,8,0:0:0:0:
192,192,41571,128,0,43261:0:0:0:0:
109,192,41571,1,0,0:0:0:0:
64,192,41994,1,8,0:0:0:0:
329,192,41994,1,0,0:0:0:0:
256,192,42416,1,0,0:0:0:0:
402,192,42839,1,8,0:0:0:0:
64,192,42839,1,0,0:0:0:0:
448,192,43261,128,0,44952:0:0:0:0:
256,192,43261,1,0,0:0:0:0:
64,192,43684,1,0,0:0:0:0:
329,192,43684,1,8,0:0:0:0:
109,192,44107,1,0,0:0:0:0:
192,192,44529,1,8,0:0:0:0:
320,192,44529,1,0,0:0:0:0:
109,192,44952,1,0,0:0:0:0:
448,192,45374,1,8,0:0:0:0:
109,192,45374,128,0,45797:0:0:0:0:
329,192,45797,1,0,0:0:0:0:
402,192,45797,128,0,46219:0:0:0:0:
64,192,46219,1,8,0:0:0:0:
256,192,46219,128,0,46642:0:0:0:0:
475,192,46642,1,4,0:0:0:0:
109,192,46642,1,0,0:0:0:0:
320,192,46642,128,0,48332:0:0:0:0:
64,192,47064,1,8,0:0:0:0:
402,192,47064,1,0,0:0:0:0:
256,192,47487,1,0,0:0:0:0:
109,192,47909,1,0,0:0:0:0:
448,192,47909,1,8,0:0:0:0:
64,192,48332,128,0,50022:0:0:0:0:
182,192,48332,1,0,0:0:0:0:
109,192,48754,1,8,0:0:0:0:
402,192,48754,1,0,0:0:0:0:
256,192,49177,1,0,0:0:0:0:
320,192,49600,1,8,0:0:0:0:
192,192,49600,1,0,0:0:0:0:
192,192,50022,128,0,51712:0:0:0:0:
402,192,50022,1,0,0:0:0:0:
448,192,50445,1,0,0:0:0:0:
320,192,50445,1,8,0:0:0:0:
256,192,50867,1,0,0:0:0:0:
64,192,51290,1,0,0:0:0:0:
402,192,51290,1,8,0:0:0:0:
448,192,51712,128,0,53402:0:0:0:0:
256,192,51712,1,0,0:0:0:0:
64,192,52135,1,0,0:0:0:0:
320,192,52135,1,8,0:0:0:0:
109,192,52557,1,0,0:0:0:0:
329,192,52980,1,0,0:0:0:0:
192,192,52980,1,8,0:0:0:0:
64,192,53402,1,0,0:0:0:0:
256,192,53402,1,0,0:0:0:0:
182,192,53825,128,0,54247:0:0:0:0:
329,192,54247,1,0,0:0:0:0:
402,192,54670,128,0,55092:0:0:0:0:
109,192,55092,1,0,0:0:0:0:
36,192,55515,128,0,55938:0:0:0:0:
475,192,55938,1,0,0:0:0:0:
256,192,56360,128,0,56783:0:0:0:0:
182,192,56360,1,0,0:0:0:0:
402,192,56571,1,0,0:0:0:0:
36,192,56783,1,0,0:0:0:0:
329,192,56783,1,8,0:0:0:0:
256,192,59740,128,8,60163:0:0:0:0:
448,192,60163,128,0,61853:0:0:0:0:
64,192,60163,1,4,0:0:0:0:
320,192,60163,1,0,0:0:0:0:
192,192,60585,1,8,0:0:0:0:
109,192,60585,1,0,0:0:0:0:
256,192,61008,1,0,0:0:0:0:
192,192,61430,1,8,0:0:0:0:
329,192,61430,1,0,0:0:0:0:
64,192,61853,128,0,63543:0:0:0:0:
402,192,61853,1,0,0:0:0:0:
256,192,62276,1,8,0:0:0:0:
192,192,62276,1,0,0:0:0:0:
402,192,62698,1,0,0:0:0:0:
192,192,63121,1,0,0:0:0:0:
448,192,63121,1,8,0:0:0:0:
256,192,63543,1,0,0:0:0:0:
320,192,63543,128,0,65233:0:0:0:0:
109,192,63966,1,8,0:0:0:0:
448,192,63966,1,0,0:0:0:0:
192,192,64388,1,0,0:0:0:0:
36,192,64811,1,8,0:0:0:0:
448,192,64811,1,0,0:0:0:0:
448,192,65233,1,0,0:0:0:0:
192,192,65233,128,0,66923:0:0:0:0:
64,192,65656,1,0,0:0:0:0:
402,192,65656,1,8,0:0:0:0:
256,192,66078,1,0,0:0:0:0:
320,192,66501,1,8,0:0:0:0:
448,192,66501,1,0,0:0:0:0:
64,192,66923,128,0,68614:0:0:0:0:
402,192,66923,1,0,0:0:0:0:
256,192,66923,1,4,0:0:0:0:
320,192,67346,1,8,0:0:0:0:
182,192,67346,1,0,0:0:0:0:
402,192,67769,1,0,0:0:0:0:
182,192,68191,1,8,0:0:0:0:
256,192,68191,1,0,0:0:0:0:
448,192,68614,1,0,0:0:0:0:
320,192,68614,128,0,70304:0:0:0:0:
64,192,69036,1,0,0:0:0:0:
109,192,69036,1,8,0:0:0:0:
256,192,69459,1,0,0:0:0:0:
109,192,69881,1,8,0:0:0:0:
475,192,69881,1,0,0:0:0:0:
192,192,70304,1,0,0:0:0:0:
448,192,70304,128,0,71994:0:0:0:0:
36,192,70304,1,4,0:0:0:0:
109,192,70726,1,0,0:0:0:0:
256,192,70726,1,8,0:0:0:0:
329,192,71149,1,0,0:0:0:0:
256,192,71571,1,8,0:0:0:0:
109,192,71571,1,0,0:0:0:0:
329,192,71994,1,0,0:0:0:0:
182,192,71994,128,0,73684:0:0:0:0:
64,192,72416,1,0,0:0:0:0:
256,192,72416,1,8,0:0:0:0:
329,192,72839,1,0,0:0:0:0:
109,192,73261,1,8,0:0:0:0:
402,192,73261,1,0,0:0:0:0:
402,192,73684,1,0,0:0:0:0:
109,192,73684,1,0,0:0:0:0:
256,192,73684,1,4,0:0:0:0:
475,192,74107,1,8,0:0:0:0:
64,192,74107,1,0,0:0:0:0:
256,192,74529,1,0,0:0:0:0:
402,192,74952,1,8,0:0:0:0:
329,192,74952,128,0,75374:0:0:0:0:
109,192,75269,1,2,0:0:0:0:
64,192,75374,1,2,0:0:0:0:
448,192,75797,1,0,0:0:0:0:
320,192,75797,1,8,0:0:0:0:
256,192,76219,1,0,0:0:0:0:
192,192,76642,1,8,0:0:0:0:
109,192,76642,128,0,77064:0:0:0:0:
402,192,76959,1,2,0:0:0:0:
329,192,77064,1,2,0:0:0:0:
402,192,77487,1,8,0:0:0:0:
192,192,77487,1,0,0:0:0:0:
256,192,77909,1,0,0:0:0:0:
475,192,78332,1,8,0:0:0:0:
402,192,78332,128,0,78754:0:0:0:0:
36,192,78649,1,2,0:0:0:0:
109,192,78754,1,2,0:0:0:0:
256,192,79177,1,8,0:0:0:0:
192,192,79177,1,0,0:0:0:0:
402,192,79600,1,0,0:0:0:0:
320,192,80022,1,8,0:0:0:0:
109,192,80022,1,0,0:0:0:0:
36,192,80445,1,0,0:0:0:0:
448,192,80445,128,2,82135:0:0:0:0:
256,192,80445,1,4,0:0:0:0:
109,192,80867,1,0,0:0:0:0:
256,192,81290,1,0,0:0:0:0:
402,192,81712,1,0,0:0:0:0:
109,192,82135,128,2,83825:0:0:0:0:
256,192,82135,1,0,0:0:0:0:
329,192,82557,1,0,0:0:0:0:
402,192,82980,1,0,0:0:0:0:
329,192,83402,1,0,0:0:0:0:
329,192,83825,128,2,85515:0:0:0:0:
182,192,83825,1,0,0:0:0:0:
36,192,84247,1,0,0:0:0:0:
475,192,84670,1,0,0:0:0:0:
36,192,85092,1,0,0:0:0:0:
256,192,85515,128,2,87205:0:0:0:0:
402,192,85515,1,0,0:0:0:0:
109,192,85938,1,0,0:0:0:0:
36,192,86360,1,0,0:0:0:0:
402,192,86783,1,0,0:0:0:0:
192,192,87205,1,0,0:0:0:0:
448,192,87205,128,2,88895:0:0:0:0:
109,192,87205,1,4,0:0:0:0:
256,192,87628,1,8,0:0:0:0:
64,192,87628,1,0,0:0:0:0:
402,192,88050,1,0,0:0:0:0:
329,192,88473,1,8,0:0:0:0:
109,192,88473,1,0,0:0:0:0:
64,192,88895,128,2,90585:0:0:0:0:
256,192,88895,1,0,0:0:0:0:
402,192,89318,1,8,0:0:0:0:
329,192,89318,1,0,0:0:0:0:
182,192,89740,1,0,0:0:0:0:
256,192,90163,1,0,0:0:0:0:
448,192,90163,1,8,0:0:0:0:
402,192,90585,1,0,0:0:0:0:
320,192,91008,1,0,0:0:0:0:
109,192,91008,1,8,0:0:0:0:
64,192,91430,1,0,0:0:0:0:
256,192,91853,1,8,0:0:0:0:
448,192,91853,1,0,0:0:0:0:
36,192,92276,1,2,0:0:0:0:
182,192,92487,1,2,0:0:0:0:
329,192,92698,1,8,0:0:0:0:
402,192,92804,1,8,0:0:0:0:
109,192,93121,1,2,0:0:0:0:
182,192,93332,1,2,0:0:0:0:
329,192,93543,1,8,0:0:0:0:
402,192,93649,1,8,0:0:0:0:
64,192,93966,128,0,95656:0:0:0:0:
182,192,93966,1,0,0:0:0:0:
256,192,93966,1,4,0:0:0:0:
256,192,94388,1,8,0:0:0:0:
448,192,94388,1,0,0:0:0:0:
320,192,94811,1,0,0:0:0:0:
402,192,95233,1,0,0:0:0:0:
192,192,95233,1,8,0:0:0:0:
320,192,95656,128,0,97346:0:0:0:0:
182,192,95656,1,0,0:0:0:0:
36,192,96078,1,0,0:0:0:0:
402,192,96078,1,8,0:0:0:0:
256,192,96501,1,0,0:0:0:0:
109,192,96923,1,0,0:0:0:0:
475,192,96923,1,8,0:0:0:0:
192,192,97346,128,0,99036:0:0:0:0:
256,192,97346,1,0,0:0:0:0:
64,192,97769,1,0,0:0:0:0:
402,192,97769,1,8,0:0:0:0:
329,192,98191,1,0,0:0:0:0:
448,192,98614,1,0,0:0:0:0:
109,192,98614,1,8,0:0:0:0:
448,192,99036,128,0,100726:0:0:0:0:
36,192,99036,1,0,0:0:0:0:
320,192,99459,1,8,0:0:0:0:
256,192,99459,1,0,0:0:0:0:
109,192,99881,1,0,0:0:0:0:
192,192,100304,1,8,0:0:0:0:
320,192,100304,1,0,0:0:0:0:
64,192,100726,1,4,0:0:0:0:
256,192,100726,1,0,0:0:0:0:
109,192,101149,128,0,101571:0:0:0:0:
329,192,101571,1,0,0:0:0:0:
402,192,101994,128,0,102416:0:0:0:0:
182,192,102416,1,0,0:0:0:0:
109,192,102839,128,0,103261:0:0:0:0:
329,192,103261,1,0,0:0:0:0:
256,192,103684,128,0,104107:0:0:0:0:
329,192,103684,1,0,0:0:0:0:
109,192,103895,1,0,0:0:0:0:
182,192,104107,1,8,0:0:0:0:
475,192,104107,1,0,0:0:0:0:
256,192,107064,128,8,107487:0:0:0:0:
109,192,107487,1,4,0:0:0:0:
64,192,107487,128,0,109177:0:0:0:0:
402,192,107487,1,0,0:0:0:0:
192,192,107909,1,8,0:0:0:0:
448,192,107909,1,0,0:0:0:0:
256,192,108332,1,0,0:0:0:0:
448,192,108754,1,0,0:0:0:0:
182,192,108754,1,8,0:0:0:0:
448,192,109177,128,0,110867:0:0:0:0:
109,192,109177,1,0,0:0:0:0:
320,192,109600,1,8,0:0:0:0:
256,192,109600,1,0,0:0:0:0:
109,192,110022,1,0,0:0:0:0:
192,192,110445,1,8,0:0:0:0:
329,192,110445,1,0,0:0:0:0:
64,192,110867,128,0,112557:0:0:0:0:
256,192,110867,1,0,0:0:0:0:
320,192,111290,1,8,0:0:0:0:
448,192,111290,1,0,0:0:0:0:
256,192,111712,1,0,0:0:0:0:
192,192,112135,1,0,0:0:0:0:
320,192,112135,1,8,0:0:0:0:
320,192,112557,128,0,114247:0:0:0:0:
256,192,112557,1,0,0:0:0:0:
109,192,112980,1,0,0:0:0:0:
182,192,112980,1,8,0:0:0:0:
36,192,113402,1,0,0:0:0:0:
448,192,113825,1,0,0:0:0:0:
192,192,113825,1,8,0:0:0:0:
109,192,114247,1,0,0:0:0:0:
64,192,114247,128,0,115938:0:0:0:0:
256,192,114247,1,4,0:0:0:0:
402,192,114670,1,0,0:0:0:0:
182,192,114670,1,8,0:0:0:0:
256,192,115092,1,0,0:0:0:0:
182,192,115515,1,8,0:0:0:0:
448,192,115515,1,0,0:0:0:0:
320,192,115938,128,0,117628:0:0:0:0:
256,192,115938,1,0,0:0:0:0:
109,192,116360,1,8,0:0:0:0:
448,192,116360,1,0,0:0:0:0:
402,192,116783,1,0,0:0:0:0:
64,192,117205,1,0,0:0:0:0:
192,192,117205,1,8,0:0:0:0:
448,192,117628,128,0,119318:0:0:0:0:
109,192,117628,1,0,0:0:0:0:
256,192,118050,1,0,0:0:0:0:
192,192,118050,1,8,0:0:0:0:
36,192,118473,1,0,0:0:0:0:
256,192,118895,1,0,0:0:0:0:
320,192,118895,1,8,0:0:0:0:
109,192,119318,1,0,0:0:0:0:
182,192,119740,1,0,0:0:0:0:
320,192,119740,1,8,0:0:0:0:
256,192,120163,1,0,0:0:0:0:
109,192,120585,1,8,0:0:0:0:
402,192,120585,1,0,0:0:0:0:
320,192,121008,128,0,122698:0:0:0:0:
64,192,121008,1,0,0:0:0:0:
475,192,121008,1,4,0:0:0:0:
192,192,121430,1,8,0:0:0:0:
109,192,121430,1,0,0:0:0:0:
256,192,121853,1,0,0:0:0:0:
402,192,122276,1,8,0:0:0:0:
64,192,122276,1,0,0:0:0:0:
448,192,122698,128,0,124388:0:0:0:0:
182,192,122698,1,0,0:0:0:0:
64,192,123121,1,0,0:0:0:0:
256,192,123121,1,8,0:0:0:0:
109,192,123543,1,0,0:0:0:0:
192,192,123966,1,8,0:0:0:0:
329,192,123966,1,0,0:0:0:0:
192,192,124388,128,0,126078:0:0:0:0:
256,192,124388,1,0,0:0:0:0:
64,192,124811,1,0,0:0:0:0:
448,192,124811,1,8,0:0:0:0:
402,192,125233,1,0,0:0:0:0:
448,192,125656,1,0,0:0:0:0:
109,192,125656,1,8,0:0:0:0:
448,192,126078,128,0,127769:0:0:0:0:
256,192,126078,1,0,0:0:0:0:
109,192,126501,1,0,0:0:0:0:
329,192,126501,1,8,0:0:0:0:
192,192,126923,1,0,0:0:0:0:
109,192,127346,1,8,0:0:0:0:
256,192,127346,1,0,0:0:0:0:
329,192,127769,1,0,0:0:0:0:
64,192,127769,128,0,129459:0:0:0:0:
182,192,127769,1,4,0:0:0:0:
402,192,128191,1,8,0:0:0:0:
182,192,128191,1,0,0:0:0:0:
256,192,128614,1,0,0:0:0:0:
320,192,129036,1,8,0:0:0:0:
192,192,129036,1,0,0:0:0:0:
320,192,129459,128,0,131149:0:0:0:0:
109,192,129459,1,0,0:0:0:0:
182,192,129881,1,0,0:0:0:0:
448,192,129881,1,8,0:0:0:0:
109,192,130304,1,0,0:0:0:0:
448,192,130726,1,8,0:0:0:0:
64,192,130726,1,0,0:0:0:0:
192,192,131149,128,0,132839:0:0:0:0:
256,192,131149,1,0,0:0:0:0:
320,192,131571,1,8,0:0:0:0:
448,192,131571,1,0,0:0:0:0:
109,192,131994,1,0,0:0:0:0:
320,192,132416,1,8,0:0:0:0:
64,192,132416,1,0,0:0:0:0:
402,192,132839,1,0,0:0:0:0:
320,192,133261,1,8,0:0:0:0:
109,192,133261,1,0,0:0:0:0:
256,192,133684,1,0,0:0:0:0:
329,192,134107,1,8,0:0:0:0:
448,192,134107,1,0,0:0:0:0:
64,192,134529,128,8,136219:0:0:0:0:
402,192,134529,1,4,0:0:0:0:
182,192,134529,1,0,0:0:0:0:
256,192,134952,1,2,0:0:0:0:
402,192,135374,1,0,0:0:0:0:
256,192,135797,1,2,0:0:0:0:
192,192,136219,128,8,137909:0:0:0:0:
329,192,136219,1,0,0:0:0:0:
475,192,136642,1,2,0:0:0:0:
329,192,137064,1,0,0:0:0:0:
475,192,137487,1,2,0:0:0:0:
320,192,137909,128,8,139600:0:0:0:0:
36,192,137909,1,0,0:0:0:0:
182,192,138332,1,2,0:0:0:0:
36,192,138754,1,0,0:0:0:0:
182,192,139177,1,2,0:0:0:0:
448,192,139600,128,8,141290:0:0:0:0:
36,192,139600,1,0,0:0:0:0:
256,192,140022,1,2,0:0:0:0:
109,192,140445,1,0,0:0:0:0:
256,192,140867,1,2,0:0:0:0:
320,192,141290,128,8,142980:0:0:0:0:
182,192,141290,1,0,0:0:0:0:
36,192,141712,1,2,0:0:0:0:
182,192,142135,1,0,0:0:0:0:
36,192,142557,1,2,0:0:0:0:
192,192,142980,128,8,144670:0:0:0:0:
475,192,142980,1,0,0:0:0:0:
329,192,143402,1,2,0:0:0:0:
475,192,143825,1,0,0:0:0:0:
329,192,144247,1,2,0:0:0:0:
64,192,144670,128,8,146360:0:0:0:0:
475,192,144670,1,0,0:0:0:0:
402,192,145092,1,2,0:0:0:0:
329,192,145515,1,0,0:0:0:0:
256,192,145938,1,2,0:0:0:0:
448,192,146360,128,8,148050:0:0:0:0:
182,192,146360,1,0,0:0:0:0:
109,192,146783,1,2,0:0:0:0:
182,192,147205,1,0,0:0:0:0:
256,192,147628,1,2,0:0:0:0:
64,192,148050,128,8,149740:0:0:0:0:
329,192,148050,1,0,0:0:0:0:
402,192,148473,1,2,0:0:0:0:
329,192,148895,1,0,0:0:0:0:
402,192,149318,1,2,0:0:0:0:
192,192,149740,128,8,151430:0:0:0:0:
475,192,149740,1,0,0:0:0:0:
320,192,150163,1,2,0:0:0:0:
402,192,150585,1,0,0:0:0:0:
320,192,151008,1,2,0:0:0:0:
448,192,151430,128,8,153121:0:0:0:0:
36,192,151430,1,0,0:0:0:0:
109,192,151853,1,2,0:0:0:0:
256,192,152276,1,0,0:0:0:0:
109,192,152698,1,2,0:0:0:0:
320,192,153121,128,8,154388:0:0:0:0:
36,192,153121,1,0,0:0:0:0:
192,192,153543,1,2,0:0:0:0:
109,192,153966,1,0,0:0:0:0:
109,192,154811,1,0,0:0:0:0:
448,192,154811,128,0,156501:0:0:0:0:
256,192,154811,1,4,0:0:0:0:
192,192,155233,1,8,0:0:0:0:
36,192,155233,1,0,0:0:0:0:
320,192,155656,1,0,0:0:0:0:
256,192,156078,1,0,0:0:0:0:
192,192,156078,1,8,0:0:0:0:
64,192,156501,128,0,158191:0:0:0:0:
402,192,156501,1,0,0:0:0:0:
192,192,156923,1,0,0:0:0:0:
329,192,156923,1,8,0:0:0:0:
256,192,157346,1,0,0:0:0:0:
192,192,157769,1,0,0:0:0:0:
448,192,157769,1,8,0:0:0:0:
320,192,158191,128,0,159881:0:0:0:0:
256,192,158191,1,0,0:0:0:0:
182,192,158614,1,8,0:0:0:0:
64,192,158614,1,0,0:0:0:0:
109,192,159036,1,0,0:0:0:0:
448,192,159459,1,8,0:0:0:0:
109,192,159459,1,0,0:0:0:0:
192,192,159881,128,0,161571:0:0:0:0:
256,192,159881,1,0,0:0:0:0:
64,192,160304,1,0,0:0:0:0:
402,192,160304,1,8,0:0:0:0:
109,192,160726,1,0,0:0:0:0:
320,192,161149,1,0,0:0:0:0:
448,192,161149,1,8,0:0:0:0:
256,192,161571,1,4,0:0:0:0:
64,192,161571,128,0,163261:0:0:0:0:
402,192,161571,1,0,0:0:0:0:
182,192,161994,1,8,0:0:0:0:
448,192,161994,1,0,0:0:0:0:
256,192,162416,1,0,0:0:0:0:
402,192,162839,1,8,0:0:0:0:
192,192,162839,1,0,0:0:0:0:
320,192,163261,128,0,164952:0:0:0:0:
448,192,163261,1,0,0:0:0:0:
64,192,163684,1,0,0:0:0:0:
192,192,163684,1,8,0:0:0:0:
109,192,164107,1,0,0:0:0:0:
192,192,164529,1,0,0:0:0:0:
402,192,164529,1,8,0:0:0:0:
448,192,164952,128,0,166642:0:0:0:0:
256,192,164952,1,0,0:0:0:0:
64,192,165374,1,0,0:0:0:0:
329,192,165374,1,8,0:0:0:0:
109,192,165797,1,0,0:0:0:0:
256,192,166219,1,8,0:0:0:0:
182,192,166219,1,0,0:0:0:0:
109,192,166642,1,0,0:0:0:0:
64,192,167064,1,0,0:0:0:0:
475,192,167064,1,8,0:0:0:0:
256,192,167487,1,0,0:0:0:0:
402,192,167909,1,0,0:0:0:0:
109,192,167909,1,8,0:0:0:0:
36,192,168332,128,8,170656:0:0:0:0:
475,192,168332,128,0,170656:0:0:0:0:
256,192,168332,1,4,0:0:0:0:
