osu file format v14

[General]
AudioFilename: Nightcore - Counting Stars.mp3
AudioLeadIn: 0
PreviewTime: 107064
Countdown: 0
SampleSet: Normal
StackLeniency: 0.7
Mode: 3
LetterboxInBreaks: 0
SpecialStyle: 0
WidescreenStoryboard: 1

[Editor]
DistanceSpacing: 0.8
BeatDivisor: 4
GridSize: 32
TimelineZoom: 0.8500037

[Metadata]
Title:Counting Stars (Nightcore Mix)
TitleUnicode:Counting Stars (Nightcore Mix)
Artist:Alex Goot, Kurt Schneider, and Chrissy Costanza
ArtistUnicode:Alex Goot, Kurt Schneider, and Chrissy Costanza
Creator:DrawdeX
Version:4K HD
Source:
Tags:OneRepublic cover Maou - sama
BeatmapID:484219
BeatmapSetID:205036

[Difficulty]
HPDrainRate:7.5
CircleSize:4
OverallDifficulty:7
ApproachRate:5
SliderMultiplier:1.4
SliderTickRate:1

[Events]
//Background and Video events
0,0,"nightcore.jpg",0,0
//Break Periods
//Storyboard Layer 0 (Background)
//Storyboard Layer 1 (Fail)
//Storyboard Layer 2 (Pass)
//Storyboard Layer 3 (Foreground)
//Storyboard Sound Samples

[TimingPoints]
550,480,4,1,1,30,1,0
550,-90.9090909090909,4,1,1,30,0,0
16870,-87.719298245614,4,1,1,70,0,0
19600,422.535211267606,4,1,1,70,1,0
26360,-111.111111111111,4,1,1,70,0,0
39036,-200,4,1,1,70,0,0
39459,-100,4,1,1,70,0,0
56783,-125,4,2,1,70,0,0
59740,-66.6666666666667,4,3,1,70,0,0
59952,-200,4,3,1,100,0,0
60163,-100,4,1,1,70,0,1
73684,-100,4,1,1,70,0,0
80445,-125,4,1,1,70,0,0
87205,-100,4,1,1,70,0,0
104107,-125,4,2,1,70,0,0
107064,-66.6666666666667,4,3,1,100,0,0
107276,-200,4,3,1,100,0,0
107487,-100,4,1,1,70,0,1
134529,-125,4,2,1,70,0,0
154811,-100,4,1,1,70,0,1
168332,-125,4,2,1,70,0,0

[HitObjects]
192,192,550,128,0,2470:0:0:0:0:
448,192,550,128,0,2470:0:0:0:0:
320,192,2470,128,0,4390:0:0:0:0:
64,192,2470,128,0,4390:0:0:0:0:
448,192,4390,128,0,6310:0:0:0:0:
192,192,4390,128,0,6310:0:0:0:0:
64,192,6310,128,0,8230:0:0:0:0:
320,192,6310,128,0,8230:0:0:0:0:
192,192,8230,1,0,0:0:0:0:
448,192,8230,128,0,10150:0:0:0:0:
320,192,10150,128,0,12070:0:0:0:0:
192,192,10150,128,0,12070:0:0:0:0:
448,192,12070,128,0,13990:0:0:0:0:
64,192,12070,128,0,13990:0:0:0:0:
320,192,13990,128,0,15910:0:0:0:0:
192,192,13990,128,0,15910:0:0:0:0:
64,192,16870,1,0,0:0:0:0:
448,192,16870,1,0,0:0:0:0:
448,192,19600,1,0,0:0:0:0:
64,192,19600,1,4,0:0:0:0:
320,192,19600,1,0,0:0:0:0:
192,192,19811,1,0,0:0:0:0:
64,192,20022,1,8,0:0:0:0:
320,192,20022,1,0,0:0:0:0:
448,192,20233,1,0,0:0:0:0:
64,192,20445,1,0,0:0:0:0:
192,192,20656,1,0,0:0:0:0:
448,192,20867,1,8,0:0:0:0:
320,192,20867,128,0,21290:0:0:0:0:
192,192,21078,1,0,0:0:0:0:
64,192,21184,1,2,0:0:0:0:
192,192,21290,1,2,0:0:0:0:
320,192,21501,1,0,0:0:0:0:
448,192,21712,1,8,0:0:0:0:
192,192,21712,1,0,0:0:0:0:
64,192,21923,1,0,0:0:0:0:
192,192,22135,1,0,0:0:0:0:
320,192,22346,1,0,0:0:0:0:
64,192,22557,1,8,0:0:0:0:
192,192,22557,128,0,22980:0:0:0:0:
320,192,22769,1,0,0:0:0:0:
448,192,22874,1,2,0:0:0:0:
320,192,22980,1,2,0:0:0:0:
448,192,23191,1,0,0:0:0:0:
64,192,23402,1,8,0:0:0:0:
320,192,23402,1,0,0:0:0:0:
448,192,23614,1,0,0:0:0:0:
192,192,23825,1,0,0:0:0:0:
64,192,24036,1,0,0:0:0:0:
448,192,24247,128,0,24670:0:0:0:0:
320,192,24247,1,8,0:0:0:0:
192,192,24459,1,0,0:0:0:0:
64,192,24564,1,2,0:0:0:0:
192,192,24670,1,2,0:0:0:0:
64,192,24881,1,0,0:0:0:0:
448,192,25092,1,0,0:0:0:0:
192,192,25092,1,8,0:0:0:0:
320,192,25304,1,0,0:0:0:0:
64,192,25515,1,0,0:0:0:0:
192,192,25726,1,0,0:0:0:0:
320,192,25938,1,8,0:0:0:0:
64,192,25938,1,0,0:0:0:0:
192,192,26149,1,0,0:0:0:0:
64,192,26360,1,4,0:0:0:0:
448,192,26360,128,2,28050:0:0:0:0:
320,192,26360,1,0,0:0:0:0:
320,192,26783,1,0,0:0:0:0:
64,192,27205,1,0,0:0:0:0:
192,192,27628,1,0,0:0:0:0:
64,192,28050,128,2,29740:0:0:0:0:
320,192,28050,1,0,0:0:0:0:
448,192,28473,1,0,0:0:0:0:
192,192,28895,1,0,0:0:0:0:
320,192,29318,1,0,0:0:0:0:
448,192,29740,128,2,31430:0:0:0:0:
192,192,29740,1,0,0:0:0:0:
64,192,30163,1,0,0:0:0:0:
192,192,30585,1,0,0:0:0:0:
320,192,31008,1,0,0:0:0:0:
64,192,31430,1,0,0:0:0:0:
320,192,31430,128,2,33121:0:0:0:0:
448,192,31853,1,0,0:0:0:0:
192,192,32276,1,0,0:0:0:0:
64,192,32698,1,0,0:0:0:0:
448,192,32698,1,8,0:0:0:0:
192,192,33121,1,0,0:0:0:0:
448,192,33121,128,2,33543:0:0:0:0:
64,192,33543,1,0,0:0:0:0:
192,192,33966,1,0,0:0:0:0:
320,192,34388,1,0,0:0:0:0:
448,192,34811,1,0,0:0:0:0:
64,192,34811,128,2,35233:0:0:0:0:
320,192,35233,1,0,0:0:0:0:
192,192,35656,1,0,0:0:0:0:
64,192,36078,1,0,0:0:0:0:
448,192,36501,128,2,38191:0:0:0:0:
192,192,36501,1,0,0:0:0:0:
320,192,36923,1,0,0:0:0:0:
192,192,37346,1,0,0:0:0:0:
64,192,37769,1,0,0:0:0:0:
320,192,38191,1,0,0:0:0:0:
64,192,38191,128,2,39036:0:0:0:0:
320,192,38614,1,0,0:0:0:0:
448,192,38825,1,0,0:0:0:0:
320,192,38878,1,0,0:0:0:0:
192,192,38930,1,0,0:0:0:0:
320,192,38983,1,0,0:0:0:0:
448,192,39036,1,0,0:0:0:0:
448,192,39881,1,0,0:0:0:0:
192,192,39881,1,4,0:0:0:0:
64,192,39881,128,0,41571:0:0:0:0:
320,192,40092,1,0,0:0:0:0:
448,192,40304,1,8,0:0:0:0:
192,192,40304,1,0,0:0:0:0:
448,192,40515,1,0,0:0:0:0:
320,192,40726,1,0,0:0:0:0:
320,192,40938,1,0,0:0:0:0:
448,192,41149,1,0,0:0:0:0:
192,192,41149,1,8,0:0:0:0:
192,192,41360,1,0,0:0:0:0:
320,192,41571,128,0,43261:0:0:0:0:
448,192,41571,1,0,0:0:0:0:
192,192,41783,1,0,0:0:0:0:
448,192,41994,1,8,0:0:0:0:
64,192,41994,1,0,0:0:0:0:
64,192,42205,1,0,0:0:0:0:
192,192,42416,1,0,0:0:0:0:
448,192,42628,1,0,0:0:0:0:
64,192,42839,1,8,0:0:0:0:
448,192,42839,1,0,0:0:0:0:
192,192,43050,1,0,0:0:0:0:
64,192,43261,128,0,44952:0:0:0:0:
448,192,43261,1,0,0:0:0:0:
192,192,43473,1,0,0:0:0:0:
448,192,43684,1,0,0:0:0:0:
320,192,43684,1,8,0:0:0:0:
192,192,43895,1,0,0:0:0:0:
320,192,44107,1,0,0:0:0:0:
448,192,44318,1,0,0:0:0:0:
320,192,44529,1,8,0:0:0:0:
192,192,44529,1,0,0:0:0:0:
320,192,44740,1,0,0:0:0:0:
448,192,44952,1,0,0:0:0:0:
320,192,44952,1,0,0:0:0:0:
192,192,45163,1,0,0:0:0:0:
320,192,45374,1,8,0:0:0:0:
64,192,45374,1,0,0:0:0:0:
448,192,45585,1,0,0:0:0:0:
192,192,45797,1,0,0:0:0:0:
320,192,46008,1,0,0:0:0:0:
448,192,46219,1,8,0:0:0:0:
192,192,46219,1,0,0:0:0:0:
64,192,46430,1,0,0:0:0:0:
320,192,46642,1,4,0:0:0:0:
448,192,46642,1,0,0:0:0:0:
192,192,46642,128,0,48332:0:0:0:0:
320,192,46853,1,0,0:0:0:0:
448,192,47064,1,8,0:0:0:0:
64,192,47064,1,0,0:0:0:0:
448,192,47276,1,0,0:0:0:0:
320,192,47487,1,0,0:0:0:0:
64,192,47698,1,0,0:0:0:0:
448,192,47909,1,0,0:0:0:0:
64,192,47909,1,8,0:0:0:0:
320,192,48121,1,0,0:0:0:0:
448,192,48332,128,0,50022:0:0:0:0:
320,192,48332,1,0,0:0:0:0:
192,192,48543,1,0,0:0:0:0:
192,192,48754,1,8,0:0:0:0:
64,192,48754,1,0,0:0:0:0:
320,192,48966,1,0,0:0:0:0:
192,192,49177,1,0,0:0:0:0:
64,192,49388,1,0,0:0:0:0:
192,192,49600,1,8,0:0:0:0:
320,192,49600,1,0,0:0:0:0:
64,192,49811,1,0,0:0:0:0:
320,192,50022,128,0,51712:0:0:0:0:
192,192,50022,1,0,0:0:0:0:
448,192,50233,1,0,0:0:0:0:
64,192,50445,1,0,0:0:0:0:
192,192,50445,1,8,0:0:0:0:
448,192,50656,1,0,0:0:0:0:
192,192,50867,1,0,0:0:0:0:
192,192,51078,1,0,0:0:0:0:
448,192,51290,1,0,0:0:0:0:
64,192,51290,1,8,0:0:0:0:
192,192,51501,1,0,0:0:0:0:
64,192,51712,128,0,53402:0:0:0:0:
448,192,51712,1,0,0:0:0:0:
320,192,51923,1,0,0:0:0:0:
448,192,52135,1,0,0:0:0:0:
192,192,52135,1,8,0:0:0:0:
320,192,52346,1,0,0:0:0:0:
320,192,52557,1,0,0:0:0:0:
192,192,52769,1,0,0:0:0:0:
448,192,52980,1,0,0:0:0:0:
320,192,52980,1,8,0:0:0:0:
320,192,53191,1,0,0:0:0:0:
192,192,53402,1,4,0:0:0:0:
448,192,53402,1,0,0:0:0:0:
320,192,53614,1,0,0:0:0:0:
192,192,53825,1,0,0:0:0:0:
64,192,53825,128,0,54247:0:0:0:0:
192,192,54247,128,0,54670:0:0:0:0:
320,192,54247,1,0,0:0:0:0:
448,192,54670,1,0,0:0:0:0:
320,192,54670,128,0,55092:0:0:0:0:
64,192,55092,128,0,55515:0:0:0:0:
192,192,55092,1,0,0:0:0:0:
320,192,55515,1,0,0:0:0:0:
192,192,55515,128,0,55938:0:0:0:0:
448,192,55938,1,0,0:0:0:0:
320,192,55938,128,0,56360:0:0:0:0:
192,192,56360,128,0,56783:0:0:0:0:
448,192,56360,1,0,0:0:0:0:
64,192,56571,1,0,0:0:0:0:
320,192,56783,128,8,58473:0:0:0:0:
448,192,56783,128,0,58473:0:0:0:0:
320,192,59740,128,8,60163:0:0:0:0:
64,192,60163,128,0,61853:0:0:0:0:
448,192,60163,1,0,0:0:0:0:
192,192,60163,1,4,0:0:0:0:
192,192,60374,1,0,0:0:0:0:
320,192,60585,1,8,0:0:0:0:
448,192,60585,1,0,0:0:0:0:
320,192,60797,1,0,0:0:0:0:
192,192,61008,1,0,0:0:0:0:
448,192,61219,1,0,0:0:0:0:
320,192,61430,1,8,0:0:0:0:
448,192,61430,1,0,0:0:0:0:
192,192,61642,1,0,0:0:0:0:
448,192,61853,128,0,63543:0:0:0:0:
320,192,61853,1,0,0:0:0:0:
192,192,62064,1,0,0:0:0:0:
192,192,62276,1,8,0:0:0:0:
320,192,62276,1,0,0:0:0:0:
64,192,62487,1,0,0:0:0:0:
64,192,62698,1,0,0:0:0:0:
192,192,62909,1,0,0:0:0:0:
320,192,63121,1,0,0:0:0:0:
64,192,63121,1,8,0:0:0:0:
64,192,63332,1,0,0:0:0:0:
320,192,63543,1,0,0:0:0:0:
192,192,63543,128,0,65233:0:0:0:0:
320,192,63754,1,0,0:0:0:0:
448,192,63966,1,8,0:0:0:0:
64,192,63966,1,0,0:0:0:0:
64,192,64177,1,0,0:0:0:0:
320,192,64388,1,0,0:0:0:0:
448,192,64600,1,0,0:0:0:0:
320,192,64811,1,8,0:0:0:0:
64,192,64811,1,0,0:0:0:0:
448,192,65022,1,0,0:0:0:0:
64,192,65233,1,0,0:0:0:0:
320,192,65233,128,0,66923:0:0:0:0:
448,192,65445,1,0,0:0:0:0:
448,192,65656,1,0,0:0:0:0:
192,192,65656,1,8,0:0:0:0:
64,192,65867,1,0,0:0:0:0:
448,192,66078,1,0,0:0:0:0:
192,192,66290,1,0,0:0:0:0:
448,192,66501,1,8,0:0:0:0:
64,192,66501,1,0,0:0:0:0:
192,192,66712,1,0,0:0:0:0:
448,192,66923,128,0,68614:0:0:0:0:
64,192,66923,1,0,0:0:0:0:
192,192,66923,1,4,0:0:0:0:
64,192,67135,1,0,0:0:0:0:
192,192,67346,1,8,0:0:0:0:
320,192,67346,1,0,0:0:0:0:
64,192,67557,1,0,0:0:0:0:
192,192,67769,1,0,0:0:0:0:
64,192,67980,1,0,0:0:0:0:
192,192,68191,1,8,0:0:0:0:
320,192,68191,1,0,0:0:0:0:
64,192,68402,1,0,0:0:0:0:
64,192,68614,1,0,0:0:0:0:
192,192,68614,128,0,70304:0:0:0:0:
320,192,68825,1,0,0:0:0:0:
448,192,69036,1,0,0:0:0:0:
320,192,69036,1,8,0:0:0:0:
64,192,69247,1,0,0:0:0:0:
64,192,69459,1,0,0:0:0:0:
448,192,69670,1,0,0:0:0:0:
320,192,69881,1,8,0:0:0:0:
64,192,69881,1,0,0:0:0:0:
448,192,70092,1,0,0:0:0:0:
64,192,70304,128,0,71994:0:0:0:0:
448,192,70304,1,0,0:0:0:0:
320,192,70515,1,0,0:0:0:0:
448,192,70726,1,0,0:0:0:0:
192,192,70726,1,8,0:0:0:0:
320,192,70938,1,0,0:0:0:0:
448,192,71149,1,0,0:0:0:0:
192,192,71360,1,0,0:0:0:0:
320,192,71571,1,8,0:0:0:0:
448,192,71571,1,0,0:0:0:0:
448,192,71783,1,0,0:0:0:0:
192,192,71994,1,0,0:0:0:0:
448,192,71994,1,0,0:0:0:0:
320,192,72205,1,0,0:0:0:0:
448,192,72416,1,0,0:0:0:0:
64,192,72416,1,8,0:0:0:0:
320,192,72628,1,0,0:0:0:0:
192,192,72839,1,0,0:0:0:0:
320,192,73050,1,0,0:0:0:0:
448,192,73261,1,8,0:0:0:0:
64,192,73261,1,0,0:0:0:0:
320,192,73473,1,0,0:0:0:0:
192,192,73684,1,0,0:0:0:0:
448,192,73684,1,4,0:0:0:0:
64,192,73895,1,0,0:0:0:0:
320,192,74107,1,8,0:0:0:0:
448,192,74107,1,0,0:0:0:0:
192,192,74318,1,0,0:0:0:0:
320,192,74529,1,0,0:0:0:0:
64,192,74740,1,0,0:0:0:0:
64,192,74952,1,8,0:0:0:0:
192,192,74952,128,0,75374:0:0:0:0:
448,192,75163,1,0,0:0:0:0:
320,192,75269,1,2,0:0:0:0:
448,192,75374,1,2,0:0:0:0:
320,192,75585,1,0,0:0:0:0:
64,192,75797,1,0,0:0:0:0:
192,192,75797,1,8,0:0:0:0:
448,192,76008,1,0,0:0:0:0:
320,192,76219,1,0,0:0:0:0:
192,192,76430,1,0,0:0:0:0:
320,192,76642,1,8,0:0:0:0:
448,192,76642,128,0,77064:0:0:0:0:
64,192,76853,1,0,0:0:0:0:
192,192,76959,1,2,0:0:0:0:
64,192,77064,1,2,0:0:0:0:
320,192,77276,1,0,0:0:0:0:
320,192,77487,1,0,0:0:0:0:
192,192,77487,1,8,0:0:0:0:
448,192,77698,1,0,0:0:0:0:
192,192,77909,1,0,0:0:0:0:
64,192,78121,1,0,0:0:0:0:
448,192,78332,1,8,0:0:0:0:
192,192,78332,128,0,78754:0:0:0:0:
64,192,78543,1,0,0:0:0:0:
448,192,78649,1,2,0:0:0:0:
320,192,78754,1,2,0:0:0:0:
192,192,78966,1,0,0:0:0:0:
64,192,79177,1,8,0:0:0:0:
320,192,79177,1,0,0:0:0:0:
448,192,79388,1,0,0:0:0:0:
192,192,79600,1,0,0:0:0:0:
64,192,79811,1,0,0:0:0:0:
192,192,80022,1,8,0:0:0:0:
448,192,80022,1,0,0:0:0:0:
320,192,80233,1,0,0:0:0:0:
448,192,80445,1,0,0:0:0:0:
64,192,80445,128,2,82135:0:0:0:0:
192,192,80445,1,4,0:0:0:0:
448,192,80867,1,0,0:0:0:0:
320,192,81290,1,0,0:0:0:0:
448,192,81712,1,0,0:0:0:0:
320,192,82135,128,2,83825:0:0:0:0:
192,192,82135,1,0,0:0:0:0:
448,192,82557,1,0,0:0:0:0:
192,192,82980,1,0,0:0:0:0:
64,192,83402,1,0,0:0:0:0:
192,192,83825,128,2,85515:0:0:0:0:
448,192,83825,1,0,0:0:0:0:
320,192,84247,1,0,0:0:0:0:
64,192,84670,1,0,0:0:0:0:
320,192,85092,1,0,0:0:0:0:
448,192,85515,128,2,87205:0:0:0:0:
64,192,85515,1,0,0:0:0:0:
192,192,85938,1,0,0:0:0:0:
320,192,86360,1,0,0:0:0:0:
192,192,86783,1,0,0:0:0:0:
320,192,87205,1,0,0:0:0:0:
64,192,87205,128,2,88895:0:0:0:0:
192,192,87205,1,4,0:0:0:0:
320,192,87416,1,0,0:0:0:0:
192,192,87628,1,8,0:0:0:0:
448,192,87628,1,0,0:0:0:0:
192,192,87839,1,0,0:0:0:0:
320,192,88050,1,0,0:0:0:0:
448,192,88261,1,0,0:0:0:0:
320,192,88473,1,8,0:0:0:0:
448,192,88473,1,0,0:0:0:0:
320,192,88684,1,0,0:0:0:0:
448,192,88895,128,2,90585:0:0:0:0:
192,192,88895,1,0,0:0:0:0:
320,192,89107,1,0,0:0:0:0:
64,192,89318,1,8,0:0:0:0:
320,192,89318,1,0,0:0:0:0:
192,192,89529,1,0,0:0:0:0:
64,192,89740,1,0,0:0:0:0:
320,192,89952,1,0,0:0:0:0:
64,192,90163,1,8,0:0:0:0:
192,192,90163,1,0,0:0:0:0:
192,192,90374,1,0,0:0:0:0:
320,192,90585,1,0,0:0:0:0:
64,192,90585,1,0,0:0:0:0:
64,192,90797,1,0,0:0:0:0:
192,192,91008,1,0,0:0:0:0:
320,192,91008,1,8,0:0:0:0:
192,192,91219,1,0,0:0:0:0:
448,192,91430,1,0,0:0:0:0:
192,192,91642,1,0,0:0:0:0:
320,192,91853,1,8,0:0:0:0:
448,192,91853,1,0,0:0:0:0:
64,192,92064,1,0,0:0:0:0:
448,192,92276,1,0,0:0:0:0:
192,192,92276,1,0,0:0:0:0:
448,192,92487,1,0,0:0:0:0:
192,192,92487,1,0,0:0:0:0:
320,192,92698,1,8,0:0:0:0:
192,192,92804,1,8,0:0:0:0:
320,192,92909,1,0,0:0:0:0:
64,192,93121,1,0,0:0:0:0:
320,192,93121,1,0,0:0:0:0:
64,192,93332,1,0,0:0:0:0:
320,192,93332,1,0,0:0:0:0:
192,192,93543,1,8,0:0:0:0:
320,192,93649,1,8,0:0:0:0:
192,192,93754,1,0,0:0:0:0:
448,192,93966,128,0,95656:0:0:0:0:
64,192,93966,1,0,0:0:0:0:
320,192,93966,1,4,0:0:0:0:
192,192,94177,1,0,0:0:0:0:
320,192,94388,1,8,0:0:0:0:
64,192,94388,1,0,0:0:0:0:
64,192,94600,1,0,0:0:0:0:
192,192,94811,1,0,0:0:0:0:
320,192,95022,1,0,0:0:0:0:
320,192,95233,1,8,0:0:0:0:
64,192,95233,1,0,0:0:0:0:
64,192,95445,1,0,0:0:0:0:
192,192,95656,128,0,97346:0:0:0:0:
320,192,95656,1,0,0:0:0:0:
64,192,95867,1,0,0:0:0:0:
320,192,96078,1,8,0:0:0:0:
448,192,96078,1,0,0:0:0:0:
64,192,96290,1,0,0:0:0:0:
320,192,96501,1,0,0:0:0:0:
448,192,96712,1,0,0:0:0:0:
448,192,96923,1,0,0:0:0:0:
64,192,96923,1,8,0:0:0:0:
64,192,97135,1,0,0:0:0:0:
320,192,97346,128,0,99036:0:0:0:0:
448,192,97346,1,0,0:0:0:0:
192,192,97557,1,0,0:0:0:0:
448,192,97769,1,0,0:0:0:0:
64,192,97769,1,8,0:0:0:0:
192,192,97980,1,0,0:0:0:0:
64,192,98191,1,0,0:0:0:0:
448,192,98402,1,0,0:0:0:0:
64,192,98614,1,0,0:0:0:0:
192,192,98614,1,8,0:0:0:0:
448,192,98825,1,0,0:0:0:0:
64,192,99036,128,0,100726:0:0:0:0:
192,192,99036,1,0,0:0:0:0:
448,192,99247,1,0,0:0:0:0:
192,192,99459,1,8,0:0:0:0:
320,192,99459,1,0,0:0:0:0:
320,192,99670,1,0,0:0:0:0:
448,192,99881,1,0,0:0:0:0:
320,192,100092,1,0,0:0:0:0:
320,192,100304,1,8,0:0:0:0:
192,192,100304,1,0,0:0:0:0:
448,192,100515,1,0,0:0:0:0:
448,192,100726,1,4,0:0:0:0:
192,192,100726,1,0,0:0:0:0:
320,192,100726,1,0,0:0:0:0:
64,192,101149,128,0,101571:0:0:0:0:
320,192,101149,1,0,0:0:0:0:
320,192,101571,128,0,101994:0:0:0:0:
448,192,101571,1,0,0:0:0:0:
192,192,101994,1,0,0:0:0:0:
448,192,101994,128,0,102416:0:0:0:0:
64,192,102416,1,0,0:0:0:0:
192,192,102416,128,0,102839:0:0:0:0:
320,192,102839,1,0,0:0:0:0:
448,192,102839,128,0,103261:0:0:0:0:
64,192,103261,1,0,0:0:0:0:
192,192,103261,128,0,103684:0:0:0:0:
320,192,103684,1,0,0:0:0:0:
320,192,103895,1,0,0:0:0:0:
64,192,104107,128,8,105797:0:0:0:0:
448,192,104107,128,0,105797:0:0:0:0:
64,192,107064,128,8,107487:0:0:0:0:
448,192,107487,128,0,109177:0:0:0:0:
192,192,107487,1,0,0:0:0:0:
320,192,107487,1,4,0:0:0:0:
192,192,107698,1,0,0:0:0:0:
320,192,107909,1,8,0:0:0:0:
64,192,107909,1,0,0:0:0:0:
192,192,108121,1,0,0:0:0:0:
64,192,108332,1,0,0:0:0:0:
320,192,108543,1,0,0:0:0:0:
64,192,108754,1,0,0:0:0:0:
192,192,108754,1,8,0:0:0:0:
320,192,108966,1,0,0:0:0:0:
64,192,109177,128,0,110867:0:0:0:0:
192,192,109177,1,0,0:0:0:0:
320,192,109388,1,0,0:0:0:0:
192,192,109600,1,8,0:0:0:0:
448,192,109600,1,0,0:0:0:0:
320,192,109811,1,0,0:0:0:0:
448,192,110022,1,0,0:0:0:0:
192,192,110233,1,0,0:0:0:0:
320,192,110445,1,8,0:0:0:0:
448,192,110445,1,0,0:0:0:0:
320,192,110656,1,0,0:0:0:0:
448,192,110867,128,0,112557:0:0:0:0:
192,192,110867,1,0,0:0:0:0:
320,192,111078,1,0,0:0:0:0:
192,192,111290,1,8,0:0:0:0:
64,192,111290,1,0,0:0:0:0:
320,192,111501,1,0,0:0:0:0:
192,192,111712,1,0,0:0:0:0:
64,192,111923,1,0,0:0:0:0:
320,192,112135,1,0,0:0:0:0:
192,192,112135,1,8,0:0:0:0:
64,192,112346,1,0,0:0:0:0:
192,192,112557,128,0,114247:0:0:0:0:
320,192,112557,1,0,0:0:0:0:
448,192,112769,1,0,0:0:0:0:
320,192,112980,1,0,0:0:0:0:
64,192,112980,1,8,0:0:0:0:
448,192,113191,1,0,0:0:0:0:
64,192,113402,1,0,0:0:0:0:
320,192,113614,1,0,0:0:0:0:
64,192,113825,1,8,0:0:0:0:
448,192,113825,1,0,0:0:0:0:
320,192,114036,1,0,0:0:0:0:
448,192,114247,128,0,115938:0:0:0:0:
64,192,114247,1,0,0:0:0:0:
320,192,114247,1,4,0:0:0:0:
192,192,114459,1,0,0:0:0:0:
320,192,114670,1,8,0:0:0:0:
64,192,114670,1,0,0:0:0:0:
192,192,114881,1,0,0:0:0:0:
64,192,115092,1,0,0:0:0:0:
320,192,115304,1,0,0:0:0:0:
192,192,115515,1,8,0:0:0:0:
64,192,115515,1,0,0:0:0:0:
64,192,115726,1,0,0:0:0:0:
192,192,115938,128,0,117628:0:0:0:0:
320,192,115938,1,0,0:0:0:0:
448,192,116149,1,0,0:0:0:0:
320,192,116360,1,8,0:0:0:0:
64,192,116360,1,0,0:0:0:0:
448,192,116571,1,0,0:0:0:0:
320,192,116783,1,0,0:0:0:0:
64,192,116994,1,0,0:0:0:0:
448,192,117205,1,0,0:0:0:0:
320,192,117205,1,8,0:0:0:0:
448,192,117416,1,0,0:0:0:0:
64,192,117628,128,0,119318:0:0:0:0:
320,192,117628,1,0,0:0:0:0:
192,192,117839,1,0,0:0:0:0:
448,192,118050,1,0,0:0:0:0:
320,192,118050,1,8,0:0:0:0:
192,192,118261,1,0,0:0:0:0:
320,192,118473,1,0,0:0:0:0:
448,192,118684,1,0,0:0:0:0:
320,192,118895,1,0,0:0:0:0:
192,192,118895,1,8,0:0:0:0:
448,192,119107,1,0,0:0:0:0:
320,192,119318,1,0,0:0:0:0:
192,192,119318,1,0,0:0:0:0:
64,192,119529,1,0,0:0:0:0:
448,192,119740,1,0,0:0:0:0:
192,192,119740,1,8,0:0:0:0:
320,192,119952,1,0,0:0:0:0:
192,192,120163,1,0,0:0:0:0:
448,192,120374,1,0,0:0:0:0:
320,192,120585,1,8,0:0:0:0:
64,192,120585,1,0,0:0:0:0:
192,192,120797,1,0,0:0:0:0:
192,192,121008,128,0,122698:0:0:0:0:
448,192,121008,1,0,0:0:0:0:
64,192,121008,1,4,0:0:0:0:
320,192,121219,1,0,0:0:0:0:
448,192,121430,1,8,0:0:0:0:
64,192,121430,1,0,0:0:0:0:
320,192,121642,1,0,0:0:0:0:
448,192,121853,1,0,0:0:0:0:
64,192,122064,1,0,0:0:0:0:
320,192,122276,1,8,0:0:0:0:
448,192,122276,1,0,0:0:0:0:
320,192,122487,1,0,0:0:0:0:
64,192,122698,128,0,124388:0:0:0:0:
448,192,122698,1,0,0:0:0:0:
320,192,122909,1,0,0:0:0:0:
448,192,123121,1,0,0:0:0:0:
192,192,123121,1,8,0:0:0:0:
320,192,123332,1,0,0:0:0:0:
192,192,123543,1,0,0:0:0:0:
448,192,123754,1,0,0:0:0:0:
320,192,123966,1,8,0:0:0:0:
448,192,123966,1,0,0:0:0:0:
192,192,124177,1,0,0:0:0:0:
320,192,124388,128,0,126078:0:0:0:0:
448,192,124388,1,0,0:0:0:0:
192,192,124600,1,0,0:0:0:0:
448,192,124811,1,0,0:0:0:0:
64,192,124811,1,8,0:0:0:0:
192,192,125022,1,0,0:0:0:0:
64,192,125233,1,0,0:0:0:0:
448,192,125445,1,0,0:0:0:0:
64,192,125656,1,0,0:0:0:0:
192,192,125656,1,8,0:0:0:0:
448,192,125867,1,0,0:0:0:0:
64,192,126078,128,0,127769:0:0:0:0:
192,192,126078,1,0,0:0:0:0:
320,192,126290,1,0,0:0:0:0:
448,192,126501,1,0,0:0:0:0:
320,192,126501,1,8,0:0:0:0:
192,192,126712,1,0,0:0:0:0:
320,192,126923,1,0,0:0:0:0:
192,192,127135,1,0,0:0:0:0:
320,192,127346,1,8,0:0:0:0:
448,192,127346,1,0,0:0:0:0:
192,192,127557,1,0,0:0:0:0:
448,192,127769,128,0,129459:0:0:0:0:
320,192,127769,1,0,0:0:0:0:
192,192,127769,1,4,0:0:0:0:
64,192,127980,1,0,0:0:0:0:
320,192,128191,1,8,0:0:0:0:
192,192,128191,1,0,0:0:0:0:
64,192,128402,1,0,0:0:0:0:
192,192,128614,1,0,0:0:0:0:
64,192,128825,1,0,0:0:0:0:
192,192,129036,1,8,0:0:0:0:
320,192,129036,1,0,0:0:0:0:
320,192,129247,1,0,0:0:0:0:
192,192,129459,128,0,131149:0:0:0:0:
64,192,129459,1,0,0:0:0:0:
320,192,129670,1,0,0:0:0:0:
448,192,129881,1,0,0:0:0:0:
64,192,129881,1,8,0:0:0:0:
320,192,130092,1,0,0:0:0:0:
64,192,130304,1,0,0:0:0:0:
320,192,130515,1,0,0:0:0:0:
64,192,130726,1,8,0:0:0:0:
448,192,130726,1,0,0:0:0:0:
448,192,130938,1,0,0:0:0:0:
320,192,131149,128,0,132839:0:0:0:0:
64,192,131149,1,0,0:0:0:0:
448,192,131360,1,0,0:0:0:0:
192,192,131571,1,8,0:0:0:0:
64,192,131571,1,0,0:0:0:0:
448,192,131783,1,0,0:0:0:0:
64,192,131994,1,0,0:0:0:0:
192,192,132205,1,0,0:0:0:0:
64,192,132416,1,8,0:0:0:0:
448,192,132416,1,0,0:0:0:0:
192,192,132628,1,0,0:0:0:0:
64,192,132839,1,0,0:0:0:0:
448,192,132839,1,0,0:0:0:0:
320,192,133050,1,0,0:0:0:0:
192,192,133261,1,8,0:0:0:0:
448,192,133261,1,0,0:0:0:0:
64,192,133473,1,0,0:0:0:0:
320,192,133684,1,0,0:0:0:0:
192,192,133895,1,0,0:0:0:0:
448,192,134107,1,8,0:0:0:0:
64,192,134107,1,0,0:0:0:0:
320,192,134318,1,0,0:0:0:0:
448,192,134529,128,8,136219:0:0:0:0:
64,192,134529,1,0,0:0:0:0:
192,192,134529,1,4,0:0:0:0:
192,192,134952,1,2,0:0:0:0:
64,192,135374,1,0,0:0:0:0:
192,192,135797,1,2,0:0:0:0:
320,192,136219,128,8,137909:0:0:0:0:
64,192,136219,1,0,0:0:0:0:
192,192,136642,1,2,0:0:0:0:
448,192,137064,1,0,0:0:0:0:
64,192,137487,1,2,0:0:0:0:
448,192,137909,128,8,139600:0:0:0:0:
192,192,137909,1,0,0:0:0:0:
320,192,138332,1,2,0:0:0:0:
64,192,138754,1,0,0:0:0:0:
192,192,139177,1,2,0:0:0:0:
64,192,139600,128,8,141290:0:0:0:0:
320,192,139600,1,0,0:0:0:0:
192,192,140022,1,2,0:0:0:0:
320,192,140445,1,0,0:0:0:0:
448,192,140867,1,2,0:0:0:0:
320,192,141290,128,8,142980:0:0:0:0:
448,192,141290,1,0,0:0:0:0:
192,192,141712,1,2,0:0:0:0:
64,192,142135,1,0,0:0:0:0:
192,192,142557,1,2,0:0:0:0:
192,192,142980,128,8,144670:0:0:0:0:
448,192,142980,1,0,0:0:0:0:
64,192,143402,1,2,0:0:0:0:
448,192,143825,1,0,0:0:0:0:
320,192,144247,1,2,0:0:0:0:
448,192,144670,128,8,146360:0:0:0:0:
64,192,144670,1,0,0:0:0:0:
320,192,145092,1,2,0:0:0:0:
192,192,145515,1,0,0:0:0:0:
64,192,145938,1,2,0:0:0:0:
64,192,146360,128,8,148050:0:0:0:0:
320,192,146360,1,0,0:0:0:0:
448,192,146783,1,2,0:0:0:0:
320,192,147205,1,0,0:0:0:0:
448,192,147628,1,2,0:0:0:0:
448,192,148050,128,8,149740:0:0:0:0:
192,192,148050,1,0,0:0:0:0:
64,192,148473,1,2,0:0:0:0:
192,192,148895,1,0,0:0:0:0:
64,192,149318,1,2,0:0:0:0:
320,192,149740,128,8,151430:0:0:0:0:
192,192,149740,1,0,0:0:0:0:
64,192,150163,1,2,0:0:0:0:
448,192,150585,1,0,0:0:0:0:
64,192,151008,1,2,0:0:0:0:
64,192,151430,128,8,153121:0:0:0:0:
448,192,151430,1,0,0:0:0:0:
320,192,151853,1,2,0:0:0:0:
448,192,152276,1,0,0:0:0:0:
320,192,152698,1,2,0:0:0:0:
192,192,153121,128,8,154388:0:0:0:0:
448,192,153121,1,0,0:0:0:0:
320,192,153543,1,2,0:0:0:0:
64,192,153966,1,0,0:0:0:0:
448,192,154811,1,0,0:0:0:0:
64,192,154811,128,0,156501:0:0:0:0:
320,192,154811,1,4,0:0:0:0:
320,192,155022,1,0,0:0:0:0:
192,192,155233,1,8,0:0:0:0:
448,192,155233,1,0,0:0:0:0:
320,192,155445,1,0,0:0:0:0:
448,192,155656,1,0,0:0:0:0:
192,192,155867,1,0,0:0:0:0:
448,192,156078,1,0,0:0:0:0:
320,192,156078,1,8,0:0:0:0:
192,192,156290,1,0,0:0:0:0:
448,192,156501,128,0,158191:0:0:0:0:
320,192,156501,1,0,0:0:0:0:
64,192,156712,1,0,0:0:0:0:
320,192,156923,1,0,0:0:0:0:
192,192,156923,1,8,0:0:0:0:
64,192,157135,1,0,0:0:0:0:
320,192,157346,1,0,0:0:0:0:
64,192,157557,1,0,0:0:0:0:
320,192,157769,1,0,0:0:0:0:
192,192,157769,1,8,0:0:0:0:
64,192,157980,1,0,0:0:0:0:
192,192,158191,128,0,159881:0:0:0:0:
320,192,158191,1,0,0:0:0:0:
448,192,158402,1,0,0:0:0:0:
64,192,158614,1,8,0:0:0:0:
448,192,158614,1,0,0:0:0:0:
64,192,158825,1,0,0:0:0:0:
320,192,159036,1,0,0:0:0:0:
448,192,159247,1,0,0:0:0:0:
64,192,159459,1,8,0:0:0:0:
320,192,159459,1,0,0:0:0:0:
448,192,159670,1,0,0:0:0:0:
320,192,159881,128,0,161571:0:0:0:0:
64,192,159881,1,0,0:0:0:0:
448,192,160092,1,0,0:0:0:0:
192,192,160304,1,0,0:0:0:0:
64,192,160304,1,8,0:0:0:0:
448,192,160515,1,0,0:0:0:0:
64,192,160726,1,0,0:0:0:0:
192,192,160938,1,0,0:0:0:0:
448,192,161149,1,0,0:0:0:0:
64,192,161149,1,8,0:0:0:0:
192,192,161360,1,0,0:0:0:0:
64,192,161571,1,0,0:0:0:0:
448,192,161571,128,0,163261:0:0:0:0:
192,192,161571,1,4,0:0:0:0:
320,192,161783,1,0,0:0:0:0:
192,192,161994,1,8,0:0:0:0:
64,192,161994,1,0,0:0:0:0:
192,192,162205,1,0,0:0:0:0:
320,192,162416,1,0,0:0:0:0:
64,192,162628,1,0,0:0:0:0:
192,192,162839,1,8,0:0:0:0:
320,192,162839,1,0,0:0:0:0:
320,192,163050,1,0,0:0:0:0:
192,192,163261,128,0,164952:0:0:0:0:
64,192,163261,1,0,0:0:0:0:
448,192,163473,1,0,0:0:0:0:
64,192,163684,1,0,0:0:0:0:
320,192,163684,1,8,0:0:0:0:
448,192,163895,1,0,0:0:0:0:
320,192,164107,1,0,0:0:0:0:
448,192,164318,1,0,0:0:0:0:
320,192,164529,1,0,0:0:0:0:
64,192,164529,1,8,0:0:0:0:
448,192,164740,1,0,0:0:0:0:
64,192,164952,128,0,166642:0:0:0:0:
320,192,164952,1,0,0:0:0:0:
448,192,165163,1,0,0:0:0:0:
320,192,165374,1,0,0:0:0:0:
192,192,165374,1,8,0:0:0:0:
448,192,165585,1,0,0:0:0:0:
320,192,165797,1,0,0:0:0:0:
192,192,166008,1,0,0:0:0:0:
320,192,166219,1,8,0:0:0:0:
448,192,166219,1,0,0:0:0:0:
320,192,166430,1,0,0:0:0:0:
192,192,166642,1,0,0:0:0:0:
448,192,166642,1,0,0:0:0:0:
320,192,166853,1,0,0:0:0:0:
448,192,167064,1,0,0:0:0:0:
64,192,167064,1,8,0:0:0:0:
320,192,167276,1,0,0:0:0:0:
192,192,167487,1,0,0:0:0:0:
320,192,167698,1,0,0:0:0:0:
64,192,167909,1,0,0:0:0:0:
448,192,167909,1,8,0:0:0:0:
192,192,168121,1,0,0:0:0:0:
64,192,168332,128,8,170656:0:0:0:0:
448,192,168332,128,0,170656:0:0:0:0:
320,192,168332,1,4,0:0:0:0:
