osu file format v8

[General]
AudioFilename: Alex C. feat. Yasmin K. - Angel of Darkness (Nightcore Mix).mp3
AudioLeadIn: 0
PreviewTime: 56538
Countdown: 0
SampleSet: Soft
StackLeniency: 0.3
Mode: 0
LetterboxInBreaks: 0
EpilepsyWarning: 1

[Editor]
DistanceSpacing: 1.2
BeatDivisor: 4
GridSize: 8

[Metadata]
Title:Angel of Darkness (Nightcore Mix)
Artist:Alex C. feat. Yasmin K.
Creator:osuplayer111
Version:Insane
Source:Nightcore III
Tags:Trance Techno deadbeat xxheroxx MarioBros777 Rokodo Roko-Don

[Difficulty]
HPDrainRate:7
CircleSize:4
OverallDifficulty:8
ApproachRate:8
SliderMultiplier:1.4
SliderTickRate:1

[Events]
//Background and Video events
0,0,"Angel of Darkness.jpg"
//Break Periods
//Storyboard Layer 0 (Background)
//Storyboard Layer 1 (Fail)
//Storyboard Layer 2 (Pass)
//Storyboard Layer 3 (Foreground)
//Storyboard Sound Samples
//Background Colour Transformations
3,100,0,0,0

[TimingPoints]
310,342.857142857143,4,2,1,80,1,0
26024,-100,4,1,1,80,0,0
37167,-100,4,2,1,80,0,0
55767,-100,4,1,1,80,0,0
56538,-100,4,2,1,80,0,1
67424,-100,4,2,1,80,0,0
67510,-100,4,2,1,80,0,1
77195,-100,4,1,1,80,0,1
77710,-100,4,2,1,80,0,1
77881,-100,4,1,1,80,0,1
78481,-100,4,2,1,50,0,0
79852,-100,4,2,1,80,0,0
101967,-100,4,1,1,80,0,0
112252,-100,4,2,1,80,0,0
132652,-100,4,1,1,80,0,0
132995,-100,4,2,1,80,0,0
133338,-100,4,2,1,80,0,1
144224,-100,4,2,1,80,0,0
144310,-100,4,2,1,80,0,1
153995,-100,4,1,1,80,0,1
154510,-100,4,2,1,80,0,1
154681,-100,4,1,1,80,0,1
155281,-100,4,2,1,80,0,0
166252,-100,4,2,1,0,0,0

[Colours]
Combo1 : 142,119,255
Combo2 : 255,164,255

[HitObjects]
256,328,3052,2,0,B|320:240|192:144|272:32,1,280,2|0
257,57,4081,1,0
144,64,4424,2,0,B|24:176|152:320,2,280,2|0|2
144,312,6481,5,0
256,328,6824,1,0
367,311,7167,2,0,B|488:176|368:64,2,280,2|0|2
256,328,8881,1,0
256,328,9052,1,0
200,232,9395,1,0
312,232,9738,1,2
256,56,11110,5,0
256,56,11281,1,2
176,136,11624,1,0
176,136,11795,1,0
200,240,12138,1,0
256,336,12481,1,0
312,240,12824,1,0
336,136,13167,1,2
200,240,14024,6,0,B|256:320|320:232,1,140,2|8
201,141,14710,2,0,B|256:64|312:142,1,140,0|8
416,96,15395,1,2
480,192,15738,1,8
480,192,15910,1,0
480,192,16081,1,0
416,288,16424,1,8
312,336,16767,6,0,B|224:336|184:264,1,140,2|8
112,192,17452,1,0
112,80,17795,1,8
112,80,17967,1,0
112,80,18138,2,0,B|168:48|192:120|256:72,2,140,0|8|2
40,168,19167,5,8
40,168,19338,1,0
40,168,19510,2,0,B|32:240|96:304,1,140,2|8
87,295,20024,1,0
184,352,20367,1,0
280,296,20710,1,2
448,72,22081,5,0
448,72,22252,2,0,B|384:32|320:96,1,140,2|8
352,160,22767,2,0,B|304:224|208:200,1,140
152,120,23452,1,0
64,192,23795,1,0
152,264,24138,1,2
360,120,26367,6,0,B|312:56,1,70
232,64,26710,1,0
160,104,26881,2,0,B|200:144,1,35
128,192,27138,2,0,B|176:192,1,35
216,264,27395,1,0
296,264,27567,1,0
256,192,27738,5,0
40,352,28081,1,0
472,352,28424,1,0
256,192,28767,6,0,B|256:40,1,140
176,80,29281,1,0
256,52,29452,1,0
336,80,29624,2,0,B|336:136,1,35
176,80,29881,2,0,B|176:132,1,35
256,52,30138,1,0
256,192,30481,5,0
40,32,30824,1,0
472,32,31167,1,0
256,192,31510,6,0,B|256:344,1,140
176,304,32024,1,0
256,332,32195,1,0
336,304,32367,2,0,B|336:248,1,35
176,304,32624,2,0,B|176:252,1,35
256,332,32881,1,0
48,192,33224,5,0
376,40,33567,1,0
136,40,33910,1,0
464,192,34252,1,0
360,264,34595,6,0,B|312:328,1,70
232,320,34938,1,0
160,280,35109,2,0,B|200:240,1,35
128,192,35366,2,0,B|176:192,1,35
216,120,35623,1,0
296,120,35795,1,0
256,192,35966,5,0
384,192,36310,1,0
352,280,36481,2,0,B|312:240,1,35
256,336,36738,2,0,B|256:288,1,35
160,280,36995,1,0
56,192,37338,5,0
456,192,38710,1,2
256,192,40081,12,4,42824
336,64,43167,5,8
336,64,43338,2,0,B|352:136|448:152,1,140
488,216,43852,1,8
416,264,44024,2,0,B|384:328|288:344,1,140
256,272,44538,1,8
207,340,44710,2,0,B|128:328|96:264,1,140
48,192,45224,1,8
48,192,45395,1,0
256,48,45910,5,8
256,48,46081,2,0,B|96:48,1,140
64,112,46595,1,8
48,192,46767,2,0,B|104:256|184:200,1,140
256,192,47281,1,8
338,206,47452,2,0,B|408:256|464:192,1,140
448,112,47967,1,8
448,112,48138,1,0
176,64,48652,5,8
176,64,48824,2,0,B|96:64|64:152,1,140
48,224,49338,1,8
96,296,49510,1,0
176,328,49681,1,0
336,320,50024,5,8
336,320,50196,2,0,B|416:320|448:232,1,140
464,160,50710,1,8
416,88,50882,1,0
336,56,51053,1,0
256,192,51395,5,8
256,192,51567,1,0
336,56,51910,1,0
312,133,52081,1,8
256,192,52252,1,0
176,56,52595,5,0
200,133,52767,1,8
256,192,52938,1,0
208,264,53110,2,0,B|136:312,1,70
304,264,53452,2,0,B|376:312,1,70,8|0
256,32,54138,5,8
256,352,54824,1,8
256,192,55167,1,2
256,32,55510,1,0
256,112,55681,1,0
184,144,55852,5,0
176,184,55938,1,0
184,224,56024,1,0
216,256,56110,1,0
256,280,56195,1,0
296,256,56281,1,0
328,224,56367,1,0
336,184,56452,1,0
328,144,56538,1,4
200,32,56881,5,8
328,144,57224,1,0
256,192,57395,1,0
184,144,57567,1,8
312,32,57910,1,2
256,192,58252,2,0,B|256:272,1,70,8|0
128,256,58595,2,0,B|192:312,1,70
384,256,58938,2,0,B|320:312,1,70,8|0
256,352,59281,5,2
256,32,59624,1,8
136,152,59967,1,0
184,224,60138,1,0
256,272,60310,1,8
328,224,60481,1,0
376,152,60652,1,2
256,32,60995,2,0,B|256:192,1,140,8|0
200,336,61681,5,8
256,272,61852,1,0
312,336,62024,1,2
256,192,62367,1,8
256,192,62538,2,0,B|160:152|160:64,1,140
256,56,63052,1,8
256,192,63224,2,0,B|352:152|352:64,1,140,2|0
256,56,63738,1,8
256,56,63910,1,0
256,56,64081,1,0
256,328,64424,5,8
256,328,64595,1,0
256,328,64767,2,0,B|336:328,1,70,2|0
408,328,65110,1,8
464,264,65281,2,0,B|440:200|504:184|472:128,1,140,2|0
432,56,65795,1,8
384,128,65967,2,0,B|320:152|304:88|248:120,1,140,2|0
168,128,66481,1,8
112,192,66652,1,0
168,256,66824,5,2
152,296,66910,1,0
176,328,66995,1,0
216,352,67081,1,0
256,360,67167,1,8
296,352,67252,1,0
336,328,67338,1,0
360,296,67424,1,0
344,256,67510,1,4
432,112,67852,5,8
360,64,68024,1,0
328,144,68195,1,0
256,288,68538,1,8
80,112,68881,1,2
152,64,69053,1,0
184,144,69224,1,8
152,64,69395,2,0,B|240:64,1,70,0|0
432,112,69910,1,8
80,112,70252,5,2
48,192,70424,1,0
80,272,70595,1,8
48,192,70767,2,0,B|144:192,1,70
256,192,71281,1,8
432,112,71624,5,2
464,192,71796,1,0
432,272,71967,1,8
464,192,72139,2,0,B|368:192,1,70,0|0
256,192,72653,1,8
256,112,72824,5,0
256,112,72995,1,2
256,272,73338,1,8
256,272,73510,1,0
104,344,73852,1,0
64,272,74024,1,8
32,192,74195,1,0
64,112,74367,1,2
104,40,74538,1,0
64,112,74710,6,0,B|152:112,1,70,8|0
64,272,75052,2,0,B|154:272,1,70,0|0
34,192,75395,2,0,B|104:192,1,70,8|0
104,192,75738,1,4
256,192,76081,5,8
304,120,76252,1,0
376,80,76424,1,4
448,120,76595,1,0
488,192,76767,1,8
448,264,76938,1,0
376,304,77110,1,4
304,264,77281,1,0
256,192,77452,6,0,B|176:192,1,70
128,128,77795,1,4
72,192,77967,1,0
128,256,78138,1,0
152,288,78224,1,0
184,312,78310,1,0
216,336,78395,1,0
256,352,78481,1,0
256,192,78567,12,4,79852
256,192,80024,5,0
200,256,80195,1,8
256,320,80367,1,0
256,320,80452,1,0
344,320,80624,1,0
344,320,80710,1,0
400,256,80881,6,0,B|448:192|392:112,1,140,8|0
256,40,81567,1,8
256,40,81738,1,0
256,40,81910,1,0
112,128,82252,1,8
256,216,82595,5,0
224,296,82767,1,0
152,336,82938,1,8
72,304,83110,1,0
72,304,83195,2,0,B|112:240,1,70
109,244,83452,1,0
152,168,83624,1,8
256,40,83967,5,0
256,40,84138,1,0
256,40,84310,2,0,B|296:112|392:96,2,140,8|0|8
200,200,85338,5,0
240,272,85510,1,0
280,344,85681,1,8
360,312,85852,2,0,B|400:288,1,35
472,280,86110,2,0,B|440:240,1,35
392,192,86367,1,8
256,88,86710,5,0
120,192,87052,1,8
256,296,87395,1,0
216,224,87567,1,0
296,224,87738,1,8
256,88,88081,6,0,B|176:48,1,70
112,24,88424,1,8
72,96,88595,1,0
72,96,88681,1,0
144,136,88852,1,0
144,136,88938,1,0
192,56,89110,1,8
344,128,89452,5,0
256,272,89795,1,8
192,336,89967,1,0
160,312,90052,1,0
168,224,90224,1,0
192,192,90310,1,0
216,112,90481,1,8
296,112,90652,1,0
320,192,90824,5,4
296,112,90995,1,0
352,56,91166,1,8
408,112,91338,1,0
408,112,91423,1,0
472,56,91595,1,0
472,56,91681,1,0
408,112,91852,6,0,B|456:176|400:256,1,140,8|0
256,344,92538,1,8
256,344,92709,1,0
256,344,92881,1,0
112,256,93223,1,8
256,168,93566,5,0
192,112,93738,1,0
109,139,93910,1,8
72,80,94081,1,0
72,80,94166,2,0,B|112:144,1,70
109,140,94423,1,0
152,216,94595,1,8
256,344,94938,5,0
256,344,95109,1,0
256,344,95281,2,0,B|296:272|392:288,2,140,8|0|8
200,184,96309,5,0
240,112,96481,1,0
320,112,96652,1,8
376,48,96823,2,0,B|416:80,1,35
480,112,97081,2,0,B|456:152,1,35
392,192,97338,1,8
256,296,97681,5,0
120,192,98023,1,8
216,56,98366,1,0
256,128,98538,1,0
296,56,98709,1,8
256,296,99052,6,0,B|176:336,1,70
112,360,99395,1,8
72,288,99566,1,0
72,288,99652,1,0
144,248,99823,1,0
144,248,99909,1,0
192,328,100081,1,8
344,256,100423,5,0
344,88,100766,1,8
272,40,100938,1,0
256,80,101023,1,0
200,144,101195,1,0
216,184,101281,1,0
256,264,101452,1,8
256,264,101623,1,0
256,264,101795,5,4
64,96,102310,1,0
64,96,102481,1,0
448,96,103167,2,0,B|488:144|448:208,2,105
368,96,103852,1,0
64,288,104538,5,0
256,192,105052,1,0
256,192,105224,1,0
448,288,105910,6,0,B|408:320|352:328,1,105
240,272,106424,1,0
256,192,106595,2,0,B|288:144|248:80,2,105
176,216,107281,1,0
368,56,107795,5,0
368,56,107967,1,0
168,328,108652,1,0
64,256,108910,1,0
104,136,109167,1,0
104,136,109338,1,0
352,192,109852,5,0
352,192,110024,1,0
104,136,110538,1,0
104,136,110710,1,0
176,328,111395,6,0,B|216:224,1,105
256,112,111910,1,0
256,112,112081,1,0
416,56,112424,2,0,B|440:56,7,17.5
368,192,113024,6,0,B|376:264|304:288,1,105
324,279,113452,1,2
144,192,114395,2,0,B|136:264|208:288,1,105
187,279,114823,1,2
256,192,115510,12,4,118252
104,136,118595,5,8
104,136,118767,2,0,B|136:72|224:48,1,140
280,104,119281,1,8
312,184,119452,2,0,B|288:248|208:280,1,140
152,216,119967,1,8
80,256,120138,1,0
80,336,120310,1,0
152,376,120481,1,0
224,336,120652,1,8
224,256,120824,1,0
424,104,121338,6,0,B|368:48,1,70,8|0
288,48,121681,1,0
208,48,121852,2,0,B|136:48,1,70,0|8
64,88,122195,1,0
32,168,122367,1,0
64,248,122538,1,0
64,248,122710,2,0,B|128:304,1,70,8|0
368,296,123395,2,0,B|448:296,2,70,8|0|0
256,192,124081,5,8
256,192,124252,1,0
136,64,124595,1,0
200,128,124767,1,8
256,64,124938,1,0
312,128,125110,1,0
376,64,125281,1,0
256,192,125452,6,0,B|256:264,1,70,8|0
136,352,125967,1,0
216,352,126138,1,8
296,352,126310,1,0
376,352,126481,1,0
136,352,126824,6,0,B|88:280,1,70,8|0
376,352,127167,2,0,B|424:280,1,70
256,264,127510,2,0,B|256:184,1,70,8|0
256,194,127852,1,0
192,136,128024,1,0
256,80,128195,1,8
320,136,128367,1,0
328,304,128710,5,0
256,352,128881,1,8
184,304,129052,1,0
256,256,129224,2,0,B|256:200,7,35,0|0|0|0|8|0|0|0
176,224,129910,6,0,B|120:224,7,35,0|0|0|0|8|0|0|0
184,144,130595,2,0,B|152:104,7,35,0|0|0|0|8|0|0|0
256,104,131281,2,0,B|256:56,7,35,0|0|0|0|8|0|0|0
328,144,131967,2,0,B|360:104,7,35,2|0|0|0|0|0|0|0
336,224,132652,1,0
336,224,132738,1,0
336,224,132824,1,0
336,224,132910,1,0
336,224,132995,2,0,B|368:224,8,17.5,2|0|0|0|0|0|0|0|4
400,72,133681,5,8
320,48,133852,1,0
256,104,134024,2,0,B|256:184|160:208,2,140,0|8|2
320,48,134881,1,0
400,72,135052,1,8
472,120,135224,1,0
424,192,135395,1,0
472,264,135567,1,0
400,312,135738,1,8
320,336,135910,1,0
256,280,136081,5,2
256,104,136424,1,8
96,56,136767,1,0
40,120,136938,1,0
80,192,137110,1,8
40,264,137281,1,0
96,328,137452,1,2
256,192,137795,1,8
416,328,138138,5,0
472,264,138309,1,0
432,192,138480,1,8
472,120,138652,1,0
416,56,138823,1,2
256,192,139167,1,8
256,192,139338,1,0
152,56,139681,6,0,B|80:80,1,70,0|8
144,144,140024,1,0
80,192,140195,1,2
144,240,140367,1,0
152,328,140538,2,0,B|80:304,1,70,8|0
80,192,140881,5,0
144,144,141052,2,0,B|216:112,1,70,0|8
144,240,141395,2,0,B|216:272,1,70,0|2
360,192,141910,2,0,B|280:192,1,70,8|0
256,24,142424,5,0
336,40,142595,1,8
408,88,142767,1,2
464,152,142938,1,0
464,232,143110,1,0
408,296,143281,1,8
336,344,143452,1,0
256,360,143624,5,2
216,352,143710,1,0
184,328,143795,1,0
160,296,143881,1,0
144,256,143967,1,8
160,216,144052,1,0
184,184,144138,1,0
216,160,144224,1,0
256,144,144310,1,4
368,256,144652,5,8
288,280,144824,1,0
256,360,144995,1,2
88,328,145338,1,8
40,168,145681,2,0,B|112:144,1,70,2|0
200,48,146024,2,0,B|120:80,1,70,8|0
106,145,146367,1,2
152,304,146710,1,8
312,264,147052,5,2
360,192,147224,1,0
312,120,147395,1,8
200,264,147738,1,0
152,192,147910,1,0
200,120,148081,1,8
200,264,148424,2,0,B|160:328,1,70,2|0
312,264,148767,2,0,B|352:328,1,70,8|0
256,184,149110,1,0
104,120,149452,5,8
136,40,149624,1,0
216,40,149795,1,2
408,120,150138,1,8
376,40,150310,1,0
256,184,150652,5,0
312,120,150824,1,8
296,40,150995,1,0
216,40,151167,1,2
200,120,151338,1,0
256,184,151510,1,8
208,256,151681,2,0,B|176:288|176:328,1,70
304,256,152024,2,0,B|336:288|336:328,1,70,0|8
256,352,152367,1,0
256,184,152538,5,4
256,160,153224,1,4
256,120,153910,5,4
184,80,154081,1,0
256,40,154252,1,0
328,80,154424,1,0
256,120,154595,1,4
296,192,154767,1,0
216,192,154938,5,0
208,232,155024,1,0
200,272,155110,1,0
216,312,155195,1,0
256,336,155281,1,4
336,336,155452,5,0
400,280,155624,1,8
464,224,155795,1,0
464,224,155881,1,0
392,176,156052,1,0
392,176,156138,1,0
464,128,156310,1,8
256,64,156652,6,0,B|168:64|136:160,1,140,0|8
256,320,157338,2,0,B|344:320|376:224,1,140,0|8
256,192,158024,1,0
184,144,158195,1,0
112,192,158367,1,8
112,272,158538,1,0
112,272,158624,1,0
184,320,158795,1,0
184,320,158881,1,0
256,272,159052,1,8
384,192,159395,6,0,B|384:104|288:72,1,140,0|8
128,192,160081,2,0,B|128:280|224:312,1,140,0|8
256,192,160767,1,0
328,144,160938,1,0
400,192,161110,1,8
400,272,161281,1,0
400,272,161367,1,0
328,320,161538,1,0
328,320,161624,1,0
256,272,161795,1,8
256,64,162138,6,0,B|208:120|256:192,1,140,0|8
256,321,162824,2,0,B|305:265|256:192,1,140,0|8
256,192,163510,12,0,166252
