osu file format v9

[General]
AudioFilename: Nightcore - Sweetest Ass In The World_New.mp3
AudioLeadIn: 0
PreviewTime: 33927
Countdown: 0
SampleSet: Soft
StackLeniency: 0.7
Mode: 0
LetterboxInBreaks: 1

[Editor]
DistanceSpacing: 0.9
BeatDivisor: 2
GridSize: 4

[Metadata]
Title:Sweetest Ass In The World (Nightcore Mix)
Artist:Alex C. Feat Y-Ass
Creator:selimsrm
Version:Normal
Source:
Tags:trance Tony Tonoicutzu eldnl

[Difficulty]
HPDrainRate:2
CircleSize:4
OverallDifficulty:3
ApproachRate:5
SliderMultiplier:0.8
SliderTickRate:1

[Events]
//Background and Video events
0,0,"1201447611_anime_4.jpg"
//Break Periods
2,67303,77903
//Storyboard Layer 0 (Background)
//Storyboard Layer 1 (Fail)
//Storyboard Layer 2 (Pass)
//Storyboard Layer 3 (Foreground)
//Storyboard Sound Samples
//Background Colour Transformations
3,100,163,162,255

[TimingPoints]
5692,352.941176470588,4,2,0,100,1,0
113007,-100,4,2,0,100,0,1
135221,-100,4,2,0,100,0,0

[Colours]
Combo1 : 255,169,135
Combo2 : 255,135,248
Combo3 : 135,183,255
Combo4 : 135,255,172

[HitObjects]
448,248,5691,2,0,B|432:328|368:344|304:328|288:248,1,240,2|0
272,176,7103,1,0
320,120,7456,2,0,B|352:96|392:88,1,80,0|2
260,36,8515,6,0,B|196:36|148:52|108:92,1,160,2|0
72,148,9574,2,0,B|40:188|40:244,1,80
44,292,10280,1,0
100,340,10633,1,2
244,336,11339,6,0,B|292:336|324:304,1,80,2|0
264,260,12044,1,0
192,260,12397,2,0,B|192:220|224:188,1,80
296,188,13103,2,0,B|376:188,1,80,0|2
232,188,14162,6,0,B|232:140|264:108,1,80,2|0
312,64,14868,2,0,B|344:40|400:40,1,80
432,96,15574,2,0,B|464:120|480:160,1,80
480,232,16280,1,2
344,280,16986,6,0,B|256:280,1,80,2|0
264,352,17691,2,0,B|184:352,1,80,2|0
180,280,18397,2,0,B|100:280,1,80,2|0
28,280,19103,1,2
104,156,19809,6,0,B|104:76,2,80,2|0|2
104,228,20868,1,0
176,228,21221,2,0,B|256:228,1,80,2|0
328,228,21927,1,2
444,312,22633,6,0,B|464:268|464:204|444:156,1,160,2|2
400,100,23691,2,0,B|312:100,1,80,0|2
248,100,24397,2,0,B|192:100,2,40,0|0|2
116,100,25456,5,2
148,164,25809,1,0
220,164,26162,2,0,B|260:236,1,80,2|0
208,288,26868,2,0,B|232:328|320:328|352:288,1,160,2|2
248,188,28280,6,0,B|248:76,1,80
248,36,28986,1,2
104,36,29691,5,0
104,108,30044,2,0,B|104:204,1,80,0|2
36,316,31103,5,0
108,316,31456,1,0
180,316,31809,1,2
324,312,32515,5,0
372,256,32868,2,0,B|412:208,2,40,0|0|4
396,116,33927,6,0,B|316:116,1,80,0|8
244,116,34633,1,0
172,116,34986,1,8
172,116,35339,2,0,B|60:116,1,80,0|8
20,116,36044,1,0
120,220,36750,5,0
148,288,37103,2,8,B|172:352|244:360|316:352,1,160,8|8
352,344,38162,1,0
416,312,38515,1,8
448,248,38868,1,0
444,104,39574,6,0,B|356:104,1,80,0|8
292,104,40280,1,0
292,176,40633,1,8
364,176,40986,1,0
364,248,41339,2,0,B|284:248,1,80,8|0
144,244,42397,6,0,B|144:160,1,80,0|8
144,92,43103,1,0
72,92,43456,1,8
72,168,43809,2,0,B|72:252,1,80,0|8
72,320,44515,1,0
216,320,45221,6,0,B|296:320,1,80,0|8
368,320,45927,1,0
420,272,46280,1,8
420,272,46633,2,0,B|452:240|452:184,1,80,0|8
452,128,47339,1,4
344,36,48044,6,0,B|296:36|296:36|264:68,1,80,0|8
328,108,48750,2,0,B|328:140|328:140|296:180,1,80,0|8
248,124,49456,2,0,B|208:124|208:124|168:156,1,80,0|8
232,196,50162,1,0
260,336,50868,6,0,B|180:336,1,80,0|8
180,264,51574,2,0,B|100:264,1,80,0|8
100,192,52280,2,0,B|188:192,1,80,0|8
180,120,52986,1,4
324,120,53691,6,0,B|324:40,1,80,0|8
396,40,54397,2,0,B|396:120,1,80,0|8
396,192,55103,2,0,B|396:280,2,80,0|8|0
288,288,56515,6,0,B|208:264,1,80,0|8
144,240,57221,2,0,B|104:212|104:164,1,80,0|8
108,100,57927,1,0
152,40,58280,1,8
224,24,58633,1,0
368,28,59339,5,0
428,64,59691,1,8
428,68,60044,2,0,B|428:148,1,80,0|8
428,220,60750,2,0,B|364:276,1,80,0|8
367,272,61456,1,0
236,216,62162,6,0,B|236:264|260:296,1,80,0|8
316,332,62868,1,0
388,336,63221,1,8
452,300,63574,1,0
452,300,63927,1,8
452,300,64280,1,0
452,156,64986,6,0,B|452:108|412:84,1,80,0|8
352,56,65691,2,0,B|304:56|264:80,1,80,0|8
216,112,66397,1,0
168,168,66750,1,8
168,168,67103,1,0
456,240,79103,6,0,B|400:312,1,80,0|2
336,304,79809,1,0
336,232,80162,2,0,B|336:136,1,80,2|0
336,80,80868,2,0,B|336:24,2,40,2|0|2
404,208,81927,6,0,B|444:208|484:184,1,80,0|2
480,116,82633,2,0,B|480:68|456:28,1,80,0|2
388,36,83339,1,0
316,36,83692,2,0,B|252:36,2,40,2|0|2
172,32,84750,6,0,B|100:104,1,80,0|8
176,128,85456,2,0,B|104:200,1,80,0|8
48,192,86162,2,0,B|48:240|76:268,1,80,0|8
140,300,86868,1,4
264,224,87574,5,0
264,224,87927,1,8
264,224,88280,2,0,B|312:296,1,80,0|8
356,344,88986,1,0
424,324,89339,1,8
464,264,89692,1,0
472,120,90397,5,0
400,120,90750,1,8
400,120,91103,2,0,B|352:120|312:144,1,80,0|8
260,176,91809,1,0
260,176,92162,1,8
260,176,92515,1,0
360,280,93221,5,0
296,312,93574,2,0,B|224:328|168:312|136:248,1,160,8|8
112,212,94633,1,0
124,140,94986,2,0,B|140:100|180:68,1,80,0|0
308,36,96044,5,0
380,36,96397,1,8
380,36,96750,2,0,B|428:36|464:64,1,80,0|8
484,124,97456,1,0
480,196,97809,1,8
432,252,98162,1,0
288,232,98868,6,0,B|288:144,1,80,0|8
232,104,99574,1,0
160,104,99927,1,8
104,152,100280,2,0,B|104:264,1,80,0|8
160,280,100986,1,0
296,324,101692,6,0,B|240:268,1,80,0|2
296,224,102397,2,0,B|240:168,1,80,0|2
232,96,103103,1,0
176,52,103456,1,2
104,52,103809,1,0
40,180,104515,5,0
84,236,104868,1,2
132,288,105221,1,0
188,332,105574,1,2
224,272,105927,2,0,B|184:240|184:240|176:192,2,80,0|0|2
356,332,107339,6,0,B|412:332|444:300,1,80,0|2
380,260,108044,1,0
308,248,108397,1,2
308,176,108750,2,0,B|372:112,1,80,0|0
356,48,109456,1,2
212,40,110162,6,0,B|164:40|132:56,1,80,0|2
176,116,110868,2,0,B|176:148|144:196,1,80,0|2
88,232,111574,1,0
36,280,111927,1,2
36,280,112280,1,0
172,332,112986,5,10
244,324,113339,1,8
244,324,113692,2,0,B|308:260,1,80,0|8
372,264,114397,1,8
372,264,114750,1,8
164,212,115809,6,0,B|244:212,1,80,8|8
280,148,116515,1,0
352,148,116868,2,0,B|352:100,2,40,8|0|8
424,148,117574,1,8
344,348,118633,6,0,B|296:348|296:348|256:316,1,80,8|8
260,256,119339,2,0,B|180:256,1,80,0|8
108,256,120044,1,8
108,184,120397,1,8
288,64,121456,5,8
288,64,121809,1,8
360,64,122162,1,0
432,64,122515,2,0,B|480:64,2,40,8|0|8
432,136,123221,1,8
256,264,124280,6,0,B|216:352|128:352,1,160,0|8
60,348,125339,2,0,B|20:304|20:264,1,80,8|0
28,208,126044,1,8
56,144,126397,1,8
132,264,127103,6,0,B|168:348|260:348,1,160,0|8
328,344,128162,2,0,B|384:344|412:316,1,80,8|0
444,264,128868,1,8
468,196,129221,1,8
432,56,129927,6,0,B|368:56|328:88|328:160,1,160,0|8
324,224,130986,1,8
252,224,131339,2,0,B|172:224,1,80,0|8
172,152,132044,1,8
168,296,132750,6,0,B|88:296,2,80,0|0|8
240,296,133809,1,8
312,288,134162,2,0,B|344:288|360:272|360:232,1,80,0|8
360,164,134868,1,4
452,52,135574,6,0,B|364:52,1,80,0|8
300,56,136280,2,0,B|268:56|236:72|220:96,1,80,0|8
176,136,136986,1,0
136,196,137339,2,0,B|116:232|124:280,1,80,8|0
268,280,138397,5,0
264,208,138750,1,8
272,136,139103,2,0,B|272:88|304:40,1,80,0|8
364,68,139809,2,0,B|364:116|332:160,1,80,0|8
328,216,140515,1,0
396,344,141221,6,0,B|348:344|316:324,1,80,0|8
256,288,141927,2,0,B|220:260|208:220,1,80,0|8
192,156,142633,2,0,B|184:112|200:76,1,80,0|8
256,32,143339,1,0
400,40,144044,5,0
448,96,144397,1,8
400,152,144750,1,0
356,96,145103,2,0,B|268:96,1,80,8|0
204,96,145809,1,8
204,96,146162,1,0
100,196,146868,6,0,B|100:276,1,80,0|2
40,316,147574,1,0
100,352,147927,1,2
160,312,148280,1,0
208,260,148633,2,0,B|304:260,1,80,2|2
432,240,149692,5,0
432,240,150044,1,2
432,240,150397,2,0,B|368:192,1,80,0|2
308,152,151103,1,0
236,152,151456,1,2
236,152,151809,2,0,B|152:152,1,80,0|2
