osu file format v9

[General]
AudioFilename: Nightcore - Sweetest Ass In The World_New.mp3
AudioLeadIn: 0
PreviewTime: 33927
Countdown: 0
SampleSet: Soft
StackLeniency: 0.7
Mode: 0
LetterboxInBreaks: 1

[Editor]
DistanceSpacing: 0.9
BeatDivisor: 2
GridSize: 4

[Metadata]
Title:Sweetest Ass In The World (Nightcore Mix)
Artist:Alex C. Feat Y-Ass
Creator:selimsrm
Version:Hard
Source:
Tags:trance Tony Tonoicutzu eldnl

[Difficulty]
HPDrainRate:7
CircleSize:4
OverallDifficulty:8
ApproachRate:7
SliderMultiplier:1.1
SliderTickRate:1

[Events]
//Background and Video events
0,0,"1201447611_anime_4.jpg"
//Break Periods
2,67656,78203
//Storyboard Layer 0 (Background)
//Storyboard Layer 1 (Fail)
//Storyboard Layer 2 (Pass)
//Storyboard Layer 3 (Foreground)
//Storyboard Sound Samples
//Background Colour Transformations
3,100,163,162,255

[TimingPoints]
5692,352.941176470588,4,2,0,100,1,0
112986,-100,4,2,0,100,0,1
135221,-100,4,2,0,100,0,0

[Colours]
Combo1 : 255,169,135
Combo2 : 255,135,248
Combo3 : 135,183,255
Combo4 : 135,255,172

[HitObjects]
288,96,5691,2,2,B|360:96|368:168,1,110,4|2
272,188,6397,1,2
268,288,6750,2,0,B|196:288|188:216,1,110,0|2
144,136,7456,2,0,B|80:136,2,55,0|0|2
328,56,8515,6,0,B|384:84|408:140,1,110,2|0
304,144,9221,1,2
208,164,9574,2,0,B|236:216|292:244,1,110,0|2
188,252,10280,1,0
100,204,10633,1,2
284,280,11339,6,0,B|340:280|340:280|364:216,1,110,2|0
268,192,12044,1,2
168,176,12397,2,0,B|168:120|168:120|232:96,1,110,2|0
316,100,13103,2,0,B|380:100,2,55,0|0|2
488,200,14162,6,0,B|416:200|376:168,1,110,2|0
368,76,14868,2,0,B|312:76|264:108,1,110,2|0
248,204,15574,2,0,B|184:204|144:172,1,110,2|0
84,92,16280,1,4
276,56,16986,6,0,B|276:168,1,110,2|0
208,96,17691,2,0,B|160:208,1,110,2|0
260,232,18397,1,2
184,296,18750,1,0
84,296,19103,1,2
144,216,19456,1,0
212,144,19809,6,0,B|212:32,2,110,2|0|2
124,188,20868,1,0
128,288,21221,2,0,B|240:288,1,110,2|0
320,232,21927,1,2
380,156,22280,1,0
444,80,22633,5,2
380,156,22986,1,0
316,80,23339,1,2
252,156,23691,2,0,B|124:156,1,110,0|2
140,56,24397,1,0
92,64,24574,1,0
52,92,24750,1,2
140,136,25103,1,0
232,176,25456,5,2
292,256,25809,1,0
348,176,26162,2,0,B|420:264,1,110,2|0
464,172,26868,1,2
488,76,27221,1,0
452,40,27397,1,0
404,32,27574,1,2
304,48,27927,1,0
208,48,28280,6,0,B|208:160,1,110
208,158,28809,1,0
208,158,28986,1,2
64,292,29691,1,0
64,292,30044,2,0,B|128:292,2,55,0|0|2
264,292,31103,5,0
352,292,31456,1,0
352,292,31633,1,0
352,292,31809,1,2
460,128,32515,1,0
380,88,32868,2,0,B|420:40,2,55,0|0|2
188,44,33927,6,0,B|76:44,1,110,0|8
60,140,34633,1,0
92,176,34809,1,0
124,212,34986,1,8
184,292,35339,2,0,B|72:292,1,110,0|8
184,292,36044,1,0
284,292,36397,1,8
384,292,36750,5,0
456,224,37103,1,8
460,124,37456,1,0
444,76,37633,1,0
404,44,37809,1,8
356,128,38162,1,0
296,48,38515,1,8
240,128,38868,1,0
156,76,39221,1,8
68,32,39574,6,0,B|68:152,1,110,0|8
68,240,40280,1,0
68,240,40456,1,0
68,240,40633,1,8
168,240,40986,2,0,B|256:312,1,110,0|8
168,240,41691,1,0
264,212,42044,1,8
356,180,42397,5,0
356,180,42750,1,8
424,104,43103,1,0
408,56,43280,1,0
360,40,43456,1,8
260,44,43809,2,0,B|196:44,2,55,0|0|8
316,128,44515,1,0
216,128,44868,1,8
116,128,45221,6,0,B|116:240,1,110,0|8
216,236,45927,1,0
316,236,46280,1,8
416,232,46633,2,0,B|416:96,1,110,0|8
416,72,47162,1,0
416,24,47339,1,0
316,24,47691,1,8
220,32,48044,6,0,B|164:32|164:32|116:72,1,110,0|8
220,32,48750,2,0,B|220:80|220:80|172:128,1,110,0|8
88,172,49456,2,0,B|88:220|88:220|136:268,1,110,0|8
172,296,49986,1,0
212,324,50162,1,0
288,260,50515,1,8
312,156,50868,6,0,B|192:156,1,110,0|8
312,156,51574,2,0,B|234:78,1,110,0|8
312,156,52280,2,0,B|311:20,1,110,0|8
311,46,52809,1,0
311,46,52986,1,0
404,84,53339,1,8
472,160,53691,6,0,B|472:280,1,110,0|8
472,160,54397,2,0,B|352:160,1,110,0|8
264,160,55103,1,0
264,60,55456,1,8
228,92,55633,1,0
192,128,55809,1,0
254,190,56162,1,8
332,268,56515,6,0,B|252:188,1,110,0|8
200,108,57221,2,0,B|200:52,2,55,0|0|8
144,188,57927,2,0,B|48:284,1,110,0|8
132,340,58633,1,0
84,252,58986,1,8
92,144,59339,5,0
92,144,59691,1,8
92,244,60044,2,0,B|36:244,2,55,0|0|8
192,244,60750,2,0,B|312:244,1,110,0|8
302,244,61456,1,0
372,172,61809,1,8
416,80,62162,5,0
416,80,62515,1,8
316,80,62868,2,0,B|244:80,2,55,0|0|8
416,80,63574,1,0
472,164,63927,1,8
416,248,64280,1,0
320,216,64633,1,8
252,140,64986,6,0,B|260:68|188:68,1,110,0|8
156,160,65691,2,0,B|116:200,2,55,0|0|8
80,100,66397,1,0
36,188,66750,1,8
84,276,67103,1,0
180,252,67456,1,8
440,200,79103,6,0,B|376:288,1,110,0|2
276,288,79809,1,0
228,200,80162,2,0,B|300:112,1,110,2|0
396,112,80868,2,0,B|452:112,2,55,2|0|2
328,296,81927,6,0,B|384:296|440:256,1,110,0|2
348,208,82633,2,0,B|348:152|372:96,1,110,0|2
444,36,83339,1,0
484,128,83691,1,2
484,176,83868,1,0
484,224,84044,1,2
324,108,84750,6,0,B|244:188,1,110,0|8
244,284,85456,2,0,B|332:196,1,110,0|8
420,204,86162,2,0,B|340:284,1,110,0|8
376,316,86691,1,0
424,316,86868,1,0
484,240,87221,1,8
384,236,87574,5,0
384,236,87927,1,8
384,236,88280,2,0,B|304:148,1,110,0|8
212,156,88986,1,0
176,64,89339,1,8
216,36,89515,1,0
264,32,89692,1,0
360,52,90044,1,8
436,128,90397,5,0
436,128,90750,1,8
436,228,91103,1,0
436,228,91280,1,0
436,228,91456,1,8
336,228,91809,1,0
336,228,92162,1,8
336,228,92515,1,0
272,304,92868,1,8
176,348,93221,6,0,B|96:268,1,110,0|8
100,172,93927,2,0,B|60:132,2,55,0|0|8
172,244,94633,1,0
172,244,94986,1,8
272,244,95339,1,0
360,196,95691,1,8
428,120,96044,5,0
428,120,96397,1,8
428,120,96750,2,0,B|484:120,2,55,0|0|8
428,220,97456,1,0
428,220,97809,1,8
328,220,98162,1,0
228,220,98515,1,8
128,216,98868,6,0,B|128:104,1,110,0|8
196,36,99574,1,0
244,36,99750,1,0
292,36,99927,1,8
364,104,100280,2,0,B|364:216,1,110,0|8
296,288,100986,1,0
196,288,101339,1,8
120,228,101692,6,0,B|35:143,1,110,0|2
120,228,102397,2,0,B|200:148,1,110,0|2
296,152,103103,1,0
244,68,103456,1,2
200,44,103633,1,0
152,40,103809,1,2
80,224,104515,5,0
148,296,104868,1,2
248,296,105221,1,0
320,228,105574,1,2
240,168,105927,2,0,B|192:128|192:128|192:80,2,110,0|2|2
352,340,107339,5,0
424,272,107692,1,2
348,208,108044,1,0
420,140,108397,1,2
324,116,108750,2,0,B|244:36,1,110,0|2
246,38,109280,1,0
246,38,109456,1,2
176,224,110162,6,0,B|176:160|224:96,1,110,0|2
132,56,110868,2,0,B|132:120|100:176,1,110,0|2
56,248,111574,1,0
132,308,111927,1,2
132,308,112103,1,0
132,308,112280,1,2
328,312,112986,5,10
328,312,113339,1,8
428,308,113692,2,0,B|428:196,1,110,0|8
424,100,114397,1,8
340,48,114750,2,0,B|220:48,1,110,8|0
142,48,115456,1,4
32,48,115809,6,0,B|152:48,1,110,8|8
240,48,116515,1,0
340,48,116868,2,8,B|340:120,2,55,8|0|8
440,48,117574,2,0,B|440:176,1,110,8|0
376,232,118280,1,4
340,328,118633,6,0,B|396:328,2,55,8|0|8
240,328,119339,2,0,B|120:328,1,110,0|8
60,256,120044,1,8
136,192,120397,2,0,B|256:192,1,110,8|0
320,124,121103,1,4
388,52,121456,5,8
388,52,121809,1,8
456,124,122162,1,0
384,192,122515,2,0,B|328:192,2,55,8|0|8
456,260,123221,1,8
456,260,123574,1,0
384,192,123927,1,4
300,140,124280,6,0,B|284:200|244:244,2,110,0|0|8
300,40,125339,1,8
200,40,125692,1,0
200,140,126044,1,8
100,144,126397,1,8
164,220,126750,1,8
260,260,127103,6,0,B|268:200|312:148,2,110,0|0|8
360,260,128162,1,8
460,260,128515,1,0
460,160,128868,1,8
360,164,129221,1,8
276,216,129574,1,8
192,268,129927,6,0,B|140:260|92:212,2,110,0|0|8
240,180,130986,1,8
148,148,131339,2,0,B|212:44,1,110,0|8
268,132,132044,1,8
240,228,132397,1,8
216,324,132750,6,0,B|104:324,2,110,0|0|0
316,324,133809,1,8
416,320,134162,2,0,B|416:288|384:256|336:256,1,110,0|8
240,260,134868,1,8
296,180,135221,1,4
340,92,135574,6,0,B|220:92,1,110,0|8
132,96,136280,1,0
84,100,136456,1,0
48,132,136633,1,8
68,228,136986,1,0
68,228,137339,1,8
68,228,137692,1,0
132,300,138044,1,8
240,324,138397,5,0
340,316,138750,1,8
420,256,139103,1,0
448,216,139280,1,0
464,168,139456,1,8
416,80,139809,2,0,B|352:80|296:104,1,110,0|8
220,140,140515,1,0
220,140,140868,1,8
164,56,141221,6,0,B|228:56|292:88,1,110,0|8
328,160,141927,1,0
328,208,142103,1,0
296,248,142280,1,8
232,172,142633,2,0,B|200:220|224:276,1,110,0|8
304,336,143339,1,0
304,336,143691,1,8
404,336,144044,5,0
452,248,144397,1,8
456,148,144750,1,0
440,100,144927,1,0
408,60,145103,2,0,B|296:60,1,110,8|0
200,60,145809,1,8
200,60,146162,1,0
252,144,146515,1,8
196,224,146868,6,0,B|124:128,1,110,0|2
76,52,147574,1,0
176,52,147927,1,2
244,124,148280,1,0
308,200,148633,1,2
332,244,148809,1,0
328,292,148986,1,2
244,112,149692,5,0
244,112,150044,1,2
160,164,150397,2,0,B|160:300,1,110,0|2
252,312,151103,1,0
352,312,151456,1,2
400,312,151633,1,0
448,308,151809,2,4,B|448:196,1,110,0|2
