osu file format v9

[General]
AudioFilename: stop checking my files.mp3
AudioLeadIn: 2007
PreviewTime: 3901
Countdown: 0
SampleSet: Soft
StackLeniency: 0.7
Mode: 0
LetterboxInBreaks: 1

[Editor]
Bookmarks: 100887
DistanceSpacing: 0.7
BeatDivisor: 2
GridSize: 4

[Metadata]
Title:Mi Corazon Encantado
Artist:Alejandro Arnais
Creator:ErufenRito
Version:Easy
Source:Dragon Ball GT
Tags:DBGT Gonzvlo Dan Dan Kokoro Hikareteku

[Difficulty]
HPDrainRate:1
CircleSize:4
OverallDifficulty:1
ApproachRate:2
SliderMultiplier:1.1
SliderTickRate:1

[Events]
//Background and Video events
Video,-920,"Dan Dan ErufenRito is Sexy.flv"
0,0,"krisom did it with a tree.png"
//Break Periods
//Storyboard Layer 0 (Background)
//Storyboard Layer 1 (Fail)
//Storyboard Layer 2 (Pass)
//Storyboard Layer 3 (Foreground)
//Storyboard Sound Samples
//Background Colour Transformations
3,100,163,162,255

[TimingPoints]
448,448.698773556686,4,1,1,61,1,0
3084,-100,4,1,1,49,0,0
3196,-100,4,2,1,61,0,0
3532,-100,4,1,1,40,0,0
3644,-100,4,2,1,61,0,0
4037,-100,4,2,1,61,0,1
5327,-100,4,2,1,79,0,1
5439,-100,4,2,1,61,0,1
7122,-100,4,2,1,61,0,1
7234,-100,4,2,1,61,0,1
9814,-100,4,2,1,61,0,1
9926,-100,4,2,1,61,0,1
10711,-100,4,2,1,61,0,1
10823,-100,4,2,1,61,0,1
12955,-100,4,2,1,61,0,1
13067,-100,4,2,1,61,0,1
16545,-100,4,2,1,41,0,1
16657,-100,4,2,1,60,0,1
17442,-100,4,2,1,61,0,1
17554,-100,4,2,1,61,0,1
18339,-100,4,2,1,39,0,1
18395,-100,4,2,1,39,0,0
18452,-100,4,2,1,71,0,0
20134,-100,4,2,1,41,0,0
20246,-100,4,2,1,59,0,0
21985,-100,4,2,1,61,0,0
24453,-100,4,2,1,61,0,0
24621,-100,4,1,1,61,0,0
24733,-100,4,2,1,61,0,0
25070,-100,4,1,1,61,0,0
25182,-100,4,2,1,61,0,0
25350,-100,4,2,1,61,0,0
25518,-100,4,1,1,40,0,0
25630,-100,4,1,1,61,0,0
26023,-100,4,2,1,61,0,0
50590,-100,4,2,1,40,0,0
50814,-100,4,2,1,61,0,0
53282,-100,4,2,1,50,0,0
53506,-100,4,2,1,61,0,0
53730,-100,4,2,1,48,0,0
53955,-100,4,2,1,61,0,0
55974,-100,4,2,1,48,0,0
56198,-100,4,2,1,59,0,0
59563,-100,4,2,1,52,0,0
59788,-100,4,2,1,61,0,0
63209,-100,4,2,1,41,0,0
63321,-100,4,2,1,61,0,0
66182,-100,4,2,1,61,0,0
68089,-100,4,1,1,61,0,0
68313,-100,4,2,1,61,0,0
68663,448.900194523418,4,1,1,61,1,0
68663,-100,4,2,1,61,0,1
72198,-100,4,2,1,41,0,1
72310,-100,4,2,1,60,0,1
81176,-100,4,2,1,41,0,1
81288,-100,4,2,1,60,0,1
82073,-100,4,2,1,39,0,1
82186,-100,4,2,1,60,0,1
95540,-100,4,2,1,42,0,1
95653,-100,4,2,1,61,0,1
97336,-100,4,2,1,41,0,1
97448,-100,4,2,1,59,0,1
99132,-100,4,2,1,39,0,1
99244,-100,4,2,1,61,0,1
100983,-100,4,2,1,61,0,0
102498,-100,4,2,1,41,0,0
102611,-100,4,2,1,60,0,0

[Colours]
Combo1 : 223,218,21
Combo2 : 33,131,211
Combo3 : 249,105,19
Combo4 : 137,30,234

[HitObjects]
124,316,448,6,0,B|124:276|156:248|196:252,1,110,8|0
204,328,1345,2,0,B|257:356|309:328,1,110,8|0
388,316,2242,2,0,B|388:276|356:248|315:252,1,110,8|0
256,204,3140,1,2
256,204,3588,1,2
180,156,4037,6,0,B|192:88|256:72|320:88|332:156,1,220,4|0
408,144,5383,2,0,B|404:76|340:4|256:-20|172:4|108:76|104:148,1,440,8|2
103,239,7627,6,0,B|108:308|172:380|256:404|340:380|404:308|408:235,1,440,4|0
332,228,9870,2,0,B|320:296|256:312|192:296|180:228,1,220,2|2
256,216,11216,5,4
208,156,11665,1,8
256,96,12114,1,0
304,156,12562,1,8
364,204,13011,6,0,B|400:168|388:100|336:84|336:84|332:40|296:24,1,220,2|0
213,24,14357,2,0,B|180:40|176:84|176:84|124:100|112:168|148:204,1,220,8|8
180,272,15703,5,0
256,292,16152,1,8
332,272,16601,1,4
256,136,17498,1,2
136,232,18395,6,0,B|224:224|256:324|256:324|288:224|376:232,1,330,4|8
376,152,20190,2,0,B|288:160|256:60|256:60|224:160|136:152,1,330,4|8
148,228,21985,5,4
256,340,22882,1,2
364,228,23780,1,2
256,132,24677,2,0,B|256:56,2,55,8|8|8
256,208,25575,5,4
160,328,26472,2,0,B|188:368|256:392|324:368|352:328,1,220,2|2
380,256,27818,1,8
380,256,28042,2,0,B|340:208|256:192|172:208|132:256,1,275,0|2
144,140,29837,5,0
144,140,30062,2,0,B|184:144|220:112|216:72,1,110,0|8
295,75,30959,2,0,B|292:112|328:144|368:140,1,110,2|8
368,216,31856,2,0,B|312:208|272:236|256:312|256:312|236:236|196:208|144:216,2,330,0|8|2
256,172,35222,6,0,B|256:56,2,110,0|2|0
256,172,36343,1,2
256,248,36792,1,8
328,224,37241,2,0,B|352:304|304:356|256:368|208:356|160:304|184:224,1,330,0|8
148,112,39260,6,0,B|172:44|280:68|256:112|232:156|340:180|364:112,1,275,2|8
316,52,40830,1,0
392,44,41279,1,8
363,114,41728,2,0,B|399:130|443:118|459:86,2,110,2|8|0
292,88,43074,2,0,B|272:120|284:168|320:180,1,110,8|2
364,272,44196,6,0,B|340:340|232:316|256:272|280:228|172:204|148:272,1,275,2|2
196,332,45766,1,8
120,340,46215,1,0
149,270,46663,2,0,B|113:254|69:266|53:298,2,110,8|2|8
200,168,48234,6,0,B|152:148|148:104|164:60|220:56,1,165,0|2
311,168,49580,2,0,B|360:148|364:104|348:60|290:55,1,165,2|8
252,120,50702,1,4
136,220,51599,6,0,B|144:276|200:324|256:336|312:324|368:276|376:220,1,330,0|8
296,208,53394,1,4
216,208,53843,1,4
156,148,54291,5,2
256,32,55189,1,2
356,148,56086,1,4
156,236,57881,5,2
256,352,58778,1,2
356,236,59676,1,4
344,160,60124,6,0,B|364:60|256:-12|148:60|168:160,2,330,8|2|8
320,232,63265,2,0,B|304:276|256:288|208:276|192:232,1,165,4|2
172,116,64611,1,8
172,116,65060,1,4
75,179,65733,6,0,B|64:304|184:348|344:288|256:192|168:96|320:36|448:80|436:204,1,605,2|8
484,260,68663,6,0,B|488:320|452:376|368:380|332:340,1,220,4|2
384,284,70009,1,8
320,244,70458,2,0,B|336:184|292:140,1,110,2|8
244,200,71356,2,0,B|200:152|232:96,1,110,2|8
178,41,72254,6,0,B|144:4|60:8|22:69|43:134,1,220,4|2
118,119,73600,1,8
192,140,74049,2,0,B|176:200|220:244,1,110,2|8
268,184,74947,2,0,B|312:232|280:288,1,110,2|8
256,356,75845,5,4
183,379,76294,2,0,B|164:344|176:300|212:288,1,110,8|0
299,287,77192,2,0,B|336:300|348:344|328:379,1,110,8|0
256,356,78089,1,8
376,260,78987,6,0,B|308:272|148:208|136:80|256:40|376:80|364:208|204:272|136:260,1,550,8|4
256,360,82130,1,6
104,348,83027,6,0,B|128:284|104:188|28:160,1,220,4|2
76,96,84374,2,0,B|129:138|227:145|275:84,1,220,8|8
324,24,85721,1,2
324,24,86170,1,8
408,36,86619,6,0,B|384:100|408:196|484:224,1,220,4|2
436,288,87965,2,0,B|382:245|284:238|236:299,1,220,8|8
188,360,89312,1,2
188,360,89761,1,8
136,304,90210,5,4
136,304,90659,2,0,B|152:220|256:164|360:220|376:304,2,330,8|2|8
188,360,93801,5,4
256,324,94250,1,8
328,356,94699,1,0
320,280,95148,2,0,B|292:236|292:236|292:172,1,110,8|4
192,280,96494,2,0,B|220:236|220:236|220:172,1,110,2|8
144,152,97392,6,0,B|160:56|256:8|352:56|368:152,1,330,4|8
368,232,99188,2,0,B|352:328|256:376|160:328|144:232,1,330,4|8
256,192,100983,5,4
256,192,101208,12,4,102554
