osu file format v12

[General]
AudioFilename: Medley of Ytpmv + Ponies (500 Subs special).mp3
AudioLeadIn: 0
PreviewTime: 157968
Countdown: 1
SampleSet: Soft
StackLeniency: 0.7
Mode: 0
LetterboxInBreaks: 1
WidescreenStoryboard: 0

[Editor]
Bookmarks: 14853,27956,39432,51088,65185,77113,88679,100245,111811,121932,137098,147533,157968,168402,180141,191544,199696,212739,223174,238826,249261,259695,270130,280565,292304,302739,313174,323609,334043,344478,357522,369261,379695
DistanceSpacing: 1
BeatDivisor: 4
GridSize: 8

[Metadata]
Title:Medley of Ytpmv
TitleUnicode:Medley of Ytpmv
Artist:AleatoireMixes
ArtistUnicode:AleatoireMixes
Creator:ztrot
Version:Marathon
Source:
Tags:ChivaCookie MMzz CDFA Those 6 Luanny Nyanderson-kun vipto mlp red zone bloomin feeling take off and land night of nights louder and prouder
BeatmapID:263061
BeatmapSetID:98707

[Difficulty]
HPDrainRate:6
CircleSize:4
OverallDifficulty:8
ApproachRate:9
SliderMultiplier:1.8
SliderTickRate:1

[Events]
//Background and Video events
0,0,"BG.jpg",0,0
Video,0,"Medley of Ytpmv + MLP (500 Subscriber special)_xvid_002.avi"
//Break Periods
2,117794,123455
2,179037,180673
2,292423,302139
//Storyboard Layer 0 (Background)
//Storyboard Layer 1 (Fail)
//Storyboard Layer 2 (Pass)
//Storyboard Layer 3 (Foreground)
//Storyboard Sound Samples
//Background Colour Transformations
3,100,163,162,255

[TimingPoints]
10607,361.44578313253,4,2,0,77,1,0
124055,326.086956521739,4,2,0,77,1,0
181110,326.086956521739,4,2,0,77,1,0
199696,326.086956521739,4,2,0,77,1,0

[Colours]
Combo1 : 255,255,111
Combo2 : 184,113,255
Combo3 : 255,172,132
Combo4 : 255,147,201
Combo5 : 91,185,221
Combo6 : 255,255,255

[HitObjects]
440,72,14763,1,0,0:0:0:0:
424,88,14853,1,0,0:0:0:0:
408,104,14944,2,0,P|400:160|288:168,1,180,2|2,0:0|0:0,0:0:0:0:
64,320,15667,2,0,P|152:352|216:296,1,180
128,256,16209,5,2,0:0:0:0:
56,112,16390,1,0,0:0:0:0:
208,176,16570,1,2,0:0:0:0:
48,216,16751,1,0,0:0:0:0:
128,256,16932,1,2,0:0:0:0:
152,88,17113,2,0,P|232:48|296:136,1,180,2|0,0:0|0:0,0:0:0:0:
440,320,17655,5,2,0:0:0:0:
424,304,17745,1,0,0:0:0:0:
408,288,17835,1,2,0:0:0:0:
272,328,18016,1,0,0:0:0:0:
232,192,18197,1,2,0:0:0:0:
408,288,18378,1,0,0:0:0:0:
368,176,18558,6,0,P|328:80|280:80,2,135,2|0|2,0:0|0:0|0:0,0:0:0:0:
360,184,19191,1,0,0:0:0:0:
352,192,19281,1,0,0:0:0:0:
240,160,19462,1,2,0:0:0:0:
120,112,19643,1,2,0:0:0:0:
112,128,19733,1,0,0:0:0:0:
104,144,19823,1,2,0:0:0:0:
48,296,20004,2,0,B|128:248|136:320|224:288,1,180
408,240,20546,5,2,0:0:0:0:
400,216,20637,1,0,0:0:0:0:
392,192,20727,1,6,0:0:0:0:
184,80,20908,1,2,0:0:0:0:
328,80,21088,1,0,0:0:0:0:
256,200,21269,1,2,0:0:0:0:
128,280,21450,1,2,0:0:0:0:
384,280,21721,1,2,0:0:0:0:
256,128,21992,5,2,0:0:0:0:
248,136,22082,1,0,0:0:0:0:
240,144,22173,1,2,0:0:0:0:
64,120,22353,1,0,0:0:0:0:
152,256,22534,1,2,0:0:0:0:
360,256,22715,1,0,0:0:0:0:
448,120,22896,1,2,0:0:0:0:
64,120,23167,1,2,0:0:0:0:
256,368,23438,5,2,0:0:0:0:
256,352,23528,1,0,0:0:0:0:
256,336,23619,1,2,0:0:0:0:
368,216,23799,2,0,P|320:216|296:264,1,90,0|2,0:0|0:0,0:0:0:0:
144,216,24161,2,0,P|192:216|216:264,1,90,0|2,0:0|0:0,0:0:0:0:
256,32,24613,1,2,0:0:0:0:
48,192,24884,5,2,0:0:0:0:
80,192,24974,1,0,0:0:0:0:
112,192,25064,1,2,0:0:0:0:
144,192,25155,1,0,0:0:0:0:
176,192,25245,1,2,0:0:0:0:
80,96,25426,1,2,0:0:0:0:
112,96,25516,1,0,0:0:0:0:
144,96,25606,1,2,0:0:0:0:
240,288,25787,5,2,0:0:0:0:
208,288,25878,1,0,0:0:0:0:
176,288,25968,1,2,0:0:0:0:
144,288,26058,1,0,0:0:0:0:
112,288,26149,1,0,0:0:0:0:
80,288,26239,1,0,0:0:0:0:
256,192,26510,12,0,27594,0:0:0:0:
241,53,27956,6,0,P|156:28|82:74,1,180
68,231,28498,1,0,0:0:0:0:
208,152,28679,1,2,0:0:0:0:
120,160,28860,2,0,P|176:232|264:224,2,180,2|2|2,0:0|0:0|0:0,0:0:0:0:
184,72,29763,1,0,0:0:0:0:
336,72,29944,1,2,0:0:0:0:
256,176,30125,1,0,0:0:0:0:
184,72,30305,1,2,0:0:0:0:
88,328,30667,5,0,0:0:0:0:
88,328,30847,1,2,0:0:0:0:
424,328,31209,1,0,0:0:0:0:
256,32,31570,1,2,0:0:0:0:
256,352,31932,1,0,0:0:0:0:
88,56,32293,1,2,0:0:0:0:
424,56,32655,1,2,0:0:0:0:
424,56,32835,1,0,0:0:0:0:
256,272,33197,5,2,0:0:0:0:
200,200,33378,1,0,0:0:0:0:
312,200,33558,1,2,0:0:0:0:
184,304,33739,2,0,P|256:352|328:296,1,180,0|2,0:0|0:0,0:0:0:0:
432,64,34281,5,2,0:0:0:0:
352,144,34462,1,0,0:0:0:0:
312,48,34643,1,2,0:0:0:0:
240,128,34823,1,0,0:0:0:0:
192,40,35004,2,0,P|136:112|168:200,1,180,2|0,0:0|0:0,0:0:0:0:
272,136,35546,1,2,0:0:0:0:
256,248,35727,5,2,0:0:0:0:
392,232,35908,1,0,0:0:0:0:
336,336,36088,1,0,0:0:0:0:
317,197,36269,1,2,0:0:0:0:
256,328,36450,1,0,0:0:0:0:
416,312,36631,1,2,0:0:0:0:
144,288,36992,1,0,0:0:0:0:
384,200,37353,1,2,0:0:0:0:
128,200,37715,1,0,0:0:0:0:
368,112,38076,5,2,0:0:0:0:
256,240,38257,1,0,0:0:0:0:
144,112,38438,1,2,0:0:0:0:
323,218,38619,2,0,P|254:168|186:225,1,180,2|0,0:0|0:0,0:0:0:0:
320,328,39161,1,0,0:0:0:0:
192,328,39341,1,0,0:0:0:0:
88,248,39522,6,0,P|64:208|88:160,1,90,2|0,0:0|0:0,0:0:0:0:
176,48,39884,1,2,0:0:0:0:
176,72,39974,1,0,0:0:0:0:
176,96,40064,1,2,0:0:0:0:
256,192,40245,2,0,P|288:152|368:152,1,135,2|2,0:0|0:0,0:0:0:0:
344,288,40787,1,0,0:0:0:0:
200,328,40968,6,0,P|144:304|136:272,1,90,2|0,0:0|0:0,0:0:0:0:
48,176,41329,2,0,P|72:224|56:272,1,90,2|0,0:0|0:0,0:0:0:0:
160,160,41691,1,2,0:0:0:0:
168,144,41781,2,0,P|216:128|232:88,2,90,0|2|0,0:0|0:0|0:0,0:0:0:0:
152,120,42233,1,2,0:0:0:0:
136,296,42414,5,2,0:0:0:0:
152,304,42504,1,0,0:0:0:0:
176,312,42594,1,2,0:0:0:0:
272,224,42775,1,2,0:0:0:0:
312,344,42956,1,0,0:0:0:0:
160,216,43137,1,2,0:0:0:0:
384,272,43408,1,2,0:0:0:0:
384,272,43498,1,0,0:0:0:0:
304,120,43679,1,0,0:0:0:0:
104,64,43860,5,2,0:0:0:0:
96,80,43950,1,0,0:0:0:0:
88,96,44040,1,2,0:0:0:0:
40,304,44221,2,0,P|96:296|112:256,1,90,2|0,0:0|0:0,0:0:0:0:
232,320,44582,2,0,P|288:304|312:272,1,90,2|0,0:0|0:0,0:0:0:0:
384,168,44944,2,0,P|440:216|440:240,1,90,2|0,0:0|0:0,0:0:0:0:
216,208,45305,5,2,0:0:0:0:
192,200,45396,1,0,0:0:0:0:
168,192,45486,1,2,0:0:0:0:
128,112,45667,1,2,0:0:0:0:
296,144,45847,1,0,0:0:0:0:
160,280,46028,2,0,P|200:320|280:288,2,135,2|0|2,0:0|0:0|0:0,0:0:0:0:
304,224,46751,5,2,0:0:0:0:
320,232,46841,1,0,0:0:0:0:
336,240,46932,1,2,0:0:0:0:
392,352,47113,1,0,0:0:0:0:
472,280,47293,1,2,0:0:0:0:
432,160,47474,1,2,0:0:0:0:
432,160,47564,1,0,0:0:0:0:
344,64,47745,1,2,0:0:0:0:
240,144,47926,1,2,0:0:0:0:
240,144,48016,1,0,0:0:0:0:
96,312,48197,5,2,0:0:0:0:
104,296,48287,1,0,0:0:0:0:
112,280,48378,1,2,0:0:0:0:
64,176,48558,1,2,0:0:0:0:
64,176,48739,1,0,0:0:0:0:
208,216,48920,2,0,P|232:264|312:288,2,135,2|2|2,0:0|0:0|0:0,0:0:0:0:
336,144,49643,5,2,0:0:0:0:
328,160,49733,1,0,0:0:0:0:
320,176,49823,1,2,0:0:0:0:
192,144,50004,1,2,0:0:0:0:
256,48,50185,1,0,0:0:0:0:
384,48,50366,1,2,0:0:0:0:
448,144,50546,1,0,0:0:0:0:
320,256,50727,1,2,0:0:0:0:
320,256,50908,1,0,0:0:0:0:
112,336,51088,6,0,P|72:296|128:200,1,180,4|0,0:0|0:0,0:0:0:0:
192,272,51631,1,0,0:0:0:0:
272,336,51811,1,4,0:0:0:0:
272,208,51992,1,0,0:0:0:0:
122,202,52173,1,0,0:0:0:0:
304,88,52534,5,4,0:0:0:0:
400,208,52715,1,0,0:0:0:0:
464,128,52896,1,0,0:0:0:0:
304,184,53076,1,0,0:0:0:0:
392,48,53257,1,0,0:0:0:0:
120,40,53619,1,0,0:0:0:0:
72,248,53980,6,0,P|128:320|184:304,1,135,2|2,0:0|0:0,0:0:0:0:
160,224,54432,1,2,0:0:0:0:
240,264,54613,1,2,0:0:0:0:
240,264,54703,1,0,0:0:0:0:
424,248,55064,5,2,0:0:0:0:
496,200,55245,1,0,0:0:0:0:
440,136,55426,2,0,P|384:64|328:80,1,135,2|2,0:0|0:0,0:0:0:0:
352,160,55878,1,2,0:0:0:0:
272,120,56058,1,2,0:0:0:0:
272,120,56149,2,0,P|208:136|160:40,1,180,0|2,0:0|0:0,0:0:0:0:
80,304,56872,6,0,P|136:272|216:304,1,135,2|0,0:0|0:0,0:0:0:0:
147,354,57323,1,2,0:0:0:0:
232,369,57504,1,2,0:0:0:0:
232,369,57594,2,0,P|303:363|336:262,1,180
248,280,58137,1,2,0:0:0:0:
288,200,58317,2,0,P|360:176|408:224,1,135
472,152,58769,1,2,0:0:0:0:
408,88,58950,1,2,0:0:0:0:
408,88,59040,2,0,P|336:96|256:32,1,180,0|4,0:0|0:0,0:0:0:0:
168,40,59582,1,0,0:0:0:0:
216,120,59763,5,2,0:0:0:0:
80,216,60034,1,2,0:0:0:0:
32,304,60215,1,2,0:0:0:0:
128,304,60396,1,2,0:0:0:0:
128,304,60486,1,0,0:0:0:0:
480,232,60847,5,2,0:0:0:0:
432,144,61028,1,0,0:0:0:0:
384,232,61209,2,0,P|368:288|296:304,1,135,2|2,0:0|0:0,0:0:0:0:
304,224,61661,1,2,0:0:0:0:
208,224,61841,1,2,0:0:0:0:
208,224,61932,1,0,0:0:0:0:
256,48,62293,1,2,0:0:0:0:
48,160,62655,6,0,L|80:296,1,135,2|2,0:0|0:0,0:0:0:0:
160,336,63106,1,2,0:0:0:0:
200,256,63287,1,2,0:0:0:0:
200,256,63378,1,0,0:0:0:0:
440,288,63739,1,2,0:0:0:0:
376,224,63920,1,0,0:0:0:0:
352,312,64100,2,0,P|304:288|296:192,1,135,2|2,0:0|0:0,0:0:0:0:
336,136,64552,1,2,0:0:0:0:
424,152,64733,1,2,0:0:0:0:
424,152,64823,1,0,0:0:0:0:
208,40,65185,5,8,0:0:0:0:
304,96,65366,1,0,0:0:0:0:
416,80,65546,2,0,B|472:104|472:104|504:160|448:240,1,180,2|8,0:0|0:0,0:0:0:0:
400,312,66088,1,0,0:0:0:0:
304,360,66269,1,0,0:0:0:0:
64,240,66631,6,0,L|56:144,1,90,8|0,0:0|0:0,0:0:0:0:
72,128,66902,1,0,0:0:0:0:
88,96,66992,2,0,P|184:112|256:40,1,180,2|8,0:0|0:0,0:0:0:0:
384,80,67534,1,0,0:0:0:0:
453,192,67715,1,0,0:0:0:0:
186,345,68076,6,0,L|97:349,1,90,10|0,0:0|0:0,0:0:0:0:
257,293,68438,2,0,L|346:289,1,90,0|0,0:0|0:0,0:0:0:0:
453,192,68799,2,0,P|426:106|479:43,2,180,8|0|10,0:0|0:0|0:0,0:0:0:0:
424,316,69703,1,0,0:0:0:0:
294,345,69884,2,0,P|249:360|197:350,1,90,0|0,0:0|0:0,0:0:0:0:
103,325,70245,2,0,P|111:248|80:173,1,135,8|0,0:0|0:0,0:0:0:0:
90,186,70606,2,0,P|168:164|224:79,1,180,2|8,0:0|0:0,0:0:0:0:
324,27,71149,1,0,0:0:0:0:
459,51,71329,6,0,P|444:143|455:229,1,180,0|8,0:0|0:0,0:0:0:0:
483,338,71872,1,0,0:0:0:0:
373,356,72052,1,0,0:0:0:0:
139,356,72414,5,8,0:0:0:0:
29,338,72594,1,0,0:0:0:0:
80,226,72775,2,0,L|70:137,1,90,0|0,0:0|0:0,0:0:0:0:
179,180,73137,2,0,L|169:91,1,90,10|0,0:0|0:0,0:0:0:0:
279,131,73498,2,0,L|269:42,1,90
400,83,73860,1,2,0:0:0:0:
411,87,73950,1,0,0:0:0:0:
422,90,74040,1,0,0:0:0:0:
483,192,74221,6,0,P|467:235|487:287,1,90,2|0,0:0|0:0,0:0:0:0:
370,359,74582,2,0,P|386:316|366:264,2,90,0|0|0,0:0|0:0|0:0,0:0:0:0:
256,343,75125,1,0,0:0:0:0:
142,359,75305,1,0,0:0:0:0:
20,332,75486,1,0,0:0:0:0:
83,233,75667,1,2,0:0:0:0:
58,119,75847,1,0,0:0:0:0:
168,160,76028,1,2,0:0:0:0:
144,56,76209,1,0,0:0:0:0:
248,96,76390,2,0,L|272:120,12,22.5,0|0|0|0|0|0|0|0|0|0|0|0|0,0:0|0:0|0:0|0:0|0:0|0:0|0:0|0:0|0:0|0:0|0:0|0:0|0:0,0:0:0:0:
104,184,77113,5,0,0:0:0:0:
165,249,77293,1,0,0:0:0:0:
185,336,77474,2,0,P|256:272|224:192,1,180,2|2,0:0|0:0,0:0:0:0:
120,42,78197,1,0,0:0:0:0:
191,97,78378,1,2,0:0:0:0:
215,86,78468,1,0,0:0:0:0:
239,76,78558,1,0,0:0:0:0:
324,47,78739,1,0,0:0:0:0:
413,38,78920,2,0,P|393:108|280:124,1,180,0|2,0:0|0:0,0:0:0:0:
163,226,79643,6,0,P|98:240|95:322,1,135,2|0,0:0|0:0,0:0:0:0:
100,329,80004,1,0,0:0:0:0:
185,356,80185,1,0,0:0:0:0:
270,328,80366,1,0,0:0:0:0:
436,262,80727,2,0,P|454:182|370:108,1,180,2|0,0:0|0:0,0:0:0:0:
306,89,81269,1,2,0:0:0:0:
270,82,81360,1,0,0:0:0:0:
234,76,81450,1,0,0:0:0:0:
145,58,81631,5,0,0:0:0:0:
480,192,81992,1,0,0:0:0:0:
142,320,82353,1,0,0:0:0:0:
442,120,82715,2,0,P|403:158|408:216,1,90,2|0,0:0|0:0,0:0:0:0:
445,266,83076,1,0,0:0:0:0:
497,339,83257,2,0,P|527:243|467:187,1,180,0|2,0:0|0:0,0:0:0:0:
243,49,83980,1,0,0:0:0:0:
158,79,84161,1,2,0:0:0:0:
129,91,84251,1,0,0:0:0:0:
100,104,84341,1,0,0:0:0:0:
123,190,84522,5,0,0:0:0:0:
204,152,84703,2,0,P|205:217|103:282,1,180,0|2,0:0|0:0,0:0:0:0:
289,220,85426,1,0,0:0:0:0:
334,297,85606,1,2,0:0:0:0:
364,289,85697,1,0,0:0:0:0:
394,283,85787,1,0,0:0:0:0:
374,149,85968,1,0,0:0:0:0:
480,208,86149,1,0,0:0:0:0:
336,40,86510,1,2,0:0:0:0:
152,168,86872,1,0,0:0:0:0:
60,311,87052,5,2,0:0:0:0:
96,312,87143,1,0,0:0:0:0:
131,313,87233,1,0,0:0:0:0:
256,232,87414,1,0,0:0:0:0:
432,56,87775,1,0,0:0:0:0:
256,72,87956,1,0,0:0:0:0:
80,56,88137,1,0,0:0:0:0:
256,72,88317,1,4,0:0:0:0:
184,176,88498,1,0,0:0:0:0:
328,176,88679,5,4,0:0:0:0:
256,344,89040,1,0,0:0:0:0:
112,192,89402,1,0,0:0:0:0:
400,192,89763,1,0,0:0:0:0:
192,48,90125,5,0,0:0:0:0:
320,48,90306,1,0,0:0:0:0:
176,48,90486,1,0,0:0:0:0:
336,48,90667,1,0,0:0:0:0:
256,248,91028,2,0,B|256:200|256:200|256:144,1,90,0|2,0:0|0:0,0:0:0:0:
200,320,91571,6,0,B|136:256|136:256|56:272,1,180,2|0,0:0|0:0,0:0:0:0:
312,320,92294,2,0,B|376:256|376:256|456:272,1,180,0|2,0:0|0:0,0:0:0:0:
256,232,93016,1,2,0:0:0:0:
304,128,93197,1,0,0:0:0:0:
208,128,93378,1,0,0:0:0:0:
336,208,93559,1,0,0:0:0:0:
176,208,93739,2,0,P|128:176|144:64,1,180,0|2,0:0|0:0,0:0:0:0:
400,32,94462,5,2,0:0:0:0:
256,264,94824,1,0,0:0:0:0:
112,32,95185,1,0,0:0:0:0:
328,128,95547,1,2,0:0:0:0:
256,48,95727,1,0,0:0:0:0:
184,128,95908,5,2,0:0:0:0:
256,352,96269,1,0,0:0:0:0:
108,314,96631,2,0,P|92:266|108:226,1,90,2|0,0:0|0:0,0:0:0:0:
408,232,96992,2,0,P|420:274|404:315,1,90,2|0,0:0|0:0,0:0:0:0:
256,200,97354,5,2,0:0:0:0:
416,80,97715,1,0,0:0:0:0:
96,80,98077,1,0,0:0:0:0:
256,312,98438,1,2,0:0:0:0:
416,296,98800,5,2,0:0:0:0:
416,208,98980,2,0,P|368:216|336:264,1,90
328,336,99342,1,0,0:0:0:0:
248,296,99522,1,0,0:0:0:0:
248,208,99703,5,0,0:0:0:0:
328,168,99884,1,2,0:0:0:0:
120,88,100245,5,0,0:0:0:0:
392,88,100606,1,0,0:0:0:0:
160,192,100968,1,0,0:0:0:0:
352,192,101329,1,0,0:0:0:0:
192,336,101691,5,0,0:0:0:0:
256,240,101872,1,0,0:0:0:0:
320,336,102052,1,0,0:0:0:0:
160,248,102233,1,0,0:0:0:0:
352,248,102594,2,0,P|402:246|432:208,1,90,0|2,0:0|0:0,0:0:0:0:
200,64,103137,6,0,P|136:128|56:112,1,180,2|0,0:0|0:0,0:0:0:0:
312,64,103860,2,0,P|376:128|456:112,1,180,0|2,0:0|0:0,0:0:0:0:
256,152,104582,1,2,0:0:0:0:
304,256,104763,1,0,0:0:0:0:
208,256,104944,1,0,0:0:0:0:
336,176,105125,1,0,0:0:0:0:
176,176,105305,2,0,P|128:208|144:320,1,180,0|2,0:0|0:0,0:0:0:0:
400,352,106028,5,2,0:0:0:0:
256,120,106390,1,0,0:0:0:0:
112,352,106751,1,0,0:0:0:0:
328,256,107113,1,2,0:0:0:0:
256,336,107293,1,0,0:0:0:0:
184,256,107474,5,2,0:0:0:0:
384,80,107835,1,0,0:0:0:0:
128,80,108197,1,0,0:0:0:0:
256,104,108378,1,0,0:0:0:0:
256,200,108558,1,2,0:0:0:0:
328,256,108739,1,0,0:0:0:0:
184,256,108920,5,2,0:0:0:0:
384,304,109281,1,0,0:0:0:0:
128,80,109643,1,0,0:0:0:0:
384,304,110004,1,2,0:0:0:0:
416,88,110366,5,2,0:0:0:0:
416,176,110546,2,0,P|368:168|336:120,1,90
328,48,110908,1,0,0:0:0:0:
248,88,111088,1,0,0:0:0:0:
248,176,111269,1,0,0:0:0:0:
328,216,111450,1,2,0:0:0:0:
160,64,111811,5,2,0:0:0:0:
352,64,112173,1,0,0:0:0:0:
256,320,112534,1,2,0:0:0:0:
256,232,112715,2,0,P|200:256|184:368,2,180,0|2|0,0:0|0:0|0:0,0:0:0:0:
336,280,113619,2,0,P|341:195|255:144,1,180,2|2,0:0|0:0,0:0:0:0:
184,168,114161,1,0,0:0:0:0:
88,104,114341,1,2,0:0:0:0:
80,152,114432,1,0,0:0:0:0:
72,200,114522,2,0,P|88:240|96:296,1,90,0|2,0:0|0:0,0:0:0:0:
280,352,115064,6,0,P|336:336|344:224,1,180
285,274,115606,1,0,0:0:0:0:
168,304,115787,1,2,0:0:0:0:
200,200,115968,1,0,0:0:0:0:
320,160,116149,1,2,0:0:0:0:
232,80,116329,1,0,0:0:0:0:
112,120,116510,1,0,0:0:0:0:
352,48,116872,5,2,0:0:0:0:
440,72,117052,1,0,0:0:0:0:
440,160,117233,1,2,0:0:0:0:
456,200,117323,1,0,0:0:0:0:
472,240,117414,1,0,0:0:0:0:
384,312,117594,1,2,0:0:0:0:
40,40,124055,5,4,0:0:0:0:
472,40,124707,1,4,0:0:0:0:
256,368,125359,1,4,0:0:0:0:
160,216,125685,1,4,0:0:0:0:
352,216,126011,1,4,0:0:0:0:
256,288,126174,1,0,0:0:0:0:
256,144,126337,5,0,0:0:0:0:
232,128,126419,1,0,0:0:0:0:
224,96,126500,1,0,0:0:0:0:
232,64,126582,1,0,0:0:0:0:
256,48,126663,2,0,P|320:40|384:128,2,180,0|2|0,0:0|0:0|0:0,0:0:0:0:
312,120,127478,2,0,P|368:48|448:88,1,180,2|2,0:0|0:0,0:0:0:0:
448,304,128131,1,0,0:0:0:0:
368,264,128294,2,0,P|328:312|224:280,1,180,2|0,0:0|0:0,0:0:0:0:
288,216,128783,1,0,0:0:0:0:
192,200,128946,5,2,0:0:0:0:
176,216,129027,1,0,0:0:0:0:
160,232,129109,2,0,P|120:264|104:304,1,90,0|2,0:0|0:0,0:0:0:0:
56,48,129598,2,0,P|88:144|160:136,1,180,2|0,0:0|0:0,0:0:0:0:
118,82,130087,2,0,P|83:154|160:209,2,180,2|2|2,0:0|0:0|0:0,0:0:0:0:
200,64,130902,1,0,0:0:0:0:
392,288,131228,5,2,0:0:0:0:
296,352,131391,1,0,0:0:0:0:
296,256,131555,1,2,0:0:0:0:
256,272,131636,1,0,0:0:0:0:
216,288,131718,1,0,0:0:0:0:
192,112,131881,1,2,0:0:0:0:
56,248,132207,6,0,P|104:328|184:304,1,180,2|0,0:0|0:0,0:0:0:0:
128,256,132696,2,0,L|232:88,2,180,2|0|2,0:0|0:0|0:0,0:0:0:0:
88,176,133511,1,2,0:0:0:0:
424,176,133837,1,0,0:0:0:0:
400,264,134000,1,2,0:0:0:0:
336,200,134163,1,2,0:0:0:0:
312,240,134245,1,0,0:0:0:0:
288,280,134326,1,0,0:0:0:0:
160,352,134489,5,2,0:0:0:0:
352,352,134815,1,0,0:0:0:0:
208,112,135141,1,2,0:0:0:0:
304,112,135305,1,0,0:0:0:0:
256,328,135631,1,2,0:0:0:0:
72,96,135957,5,2,0:0:0:0:
72,96,136120,1,0,0:0:0:0:
256,64,136446,1,2,0:0:0:0:
256,64,136609,1,0,0:0:0:0:
376,80,136772,1,2,0:0:0:0:
392,120,136853,1,0,0:0:0:0:
416,160,136935,1,0,0:0:0:0:
440,248,137098,5,2,0:0:0:0:
416,288,137180,1,0,0:0:0:0:
376,312,137261,1,0,0:0:0:0:
336,328,137343,1,0,0:0:0:0:
288,320,137424,1,2,0:0:0:0:
256,296,137506,1,0,0:0:0:0:
224,320,137587,1,0,0:0:0:0:
176,328,137669,1,0,0:0:0:0:
136,312,137750,1,2,0:0:0:0:
96,288,137832,1,0,0:0:0:0:
72,248,137913,2,0,L|40:200,2,45,2|0|2,0:0|0:0|0:0,0:0:0:0:
80,80,138402,5,2,0:0:0:0:
120,56,138484,1,0,0:0:0:0:
160,40,138565,1,0,0:0:0:0:
208,32,138647,1,0,0:0:0:0:
256,40,138728,1,2,0:0:0:0:
304,32,138810,1,0,0:0:0:0:
344,40,138891,1,0,0:0:0:0:
392,56,138973,1,0,0:0:0:0:
432,80,139055,2,0,P|464:128|464:184,1,90
336,152,139381,5,2,0:0:0:0:
304,176,139462,1,0,0:0:0:0:
272,208,139544,1,0,0:0:0:0:
240,232,139625,2,0,P|184:272|112:304,1,135
80,224,140033,1,2,0:0:0:0:
96,184,140114,1,0,0:0:0:0:
112,144,140196,1,2,0:0:0:0:
144,112,140277,2,0,B|176:56|256:40,1,135
296,32,140603,1,0,0:0:0:0:
336,48,140685,1,2,0:0:0:0:
408,120,140848,1,2,0:0:0:0:
432,208,141011,5,2,0:0:0:0:
416,248,141093,1,0,0:0:0:0:
400,288,141174,1,2,0:0:0:0:
376,328,141256,1,0,0:0:0:0:
264,288,141419,2,0,L|280:232,1,45
168,240,141663,1,2,0:0:0:0:
144,280,141745,1,0,0:0:0:0:
120,320,141826,1,0,0:0:0:0:
96,360,141908,1,2,0:0:0:0:
32,280,142071,1,0,0:0:0:0:
56,240,142152,1,2,0:0:0:0:
72,136,142315,5,2,0:0:0:0:
96,96,142397,1,0,0:0:0:0:
128,64,142478,1,0,0:0:0:0:
168,48,142560,1,0,0:0:0:0:
208,32,142641,1,2,0:0:0:0:
256,24,142723,1,0,0:0:0:0:
304,32,142805,1,0,0:0:0:0:
344,48,142886,1,0,0:0:0:0:
384,64,142968,1,2,0:0:0:0:
408,104,143049,2,0,L|432:144,3,45,0|0|0|2,0:0|0:0|0:0|0:0,0:0:0:0:
432,304,143620,5,2,0:0:0:0:
392,328,143701,1,0,0:0:0:0:
352,344,143783,1,0,0:0:0:0:
304,352,143864,1,0,0:0:0:0:
256,352,143946,1,2,0:0:0:0:
208,352,144027,1,0,0:0:0:0:
168,344,144109,1,0,0:0:0:0:
120,328,144190,1,0,0:0:0:0:
80,304,144272,2,0,P|48:256|48:200,1,90
176,232,144598,5,2,0:0:0:0:
208,208,144680,1,0,0:0:0:0:
240,176,144761,1,0,0:0:0:0:
272,144,144843,2,0,P|328:104|392:64,1,135
432,160,145250,1,2,0:0:0:0:
408,200,145332,1,0,0:0:0:0:
384,232,145413,1,2,0:0:0:0:
360,272,145495,2,0,B|328:328|328:328|256:344,1,135
216,328,145821,1,0,0:0:0:0:
168,328,145902,1,2,0:0:0:0:
104,264,146065,1,2,0:0:0:0:
80,176,146228,5,2,0:0:0:0:
96,136,146310,1,0,0:0:0:0:
112,96,146391,1,2,0:0:0:0:
128,56,146473,1,0,0:0:0:0:
240,112,146636,2,0,L|224:160,1,45
344,144,146881,1,2,0:0:0:0:
368,104,146962,1,0,0:0:0:0:
392,64,147044,1,0,0:0:0:0:
416,24,147125,1,2,0:0:0:0:
296,40,147288,1,0,0:0:0:0:
296,40,147370,1,2,0:0:0:0:
88,32,147533,6,0,L|184:40,1,90
289,135,147859,2,0,L|199:127,1,90,8|0,0:0|0:0,0:0:0:0:
136,192,148185,1,0,0:0:0:0:
72,256,148348,2,0,P|64:304|80:344,1,90,0|8,0:0|0:0,0:0:0:0:
152,296,148674,6,0,B|208:304|208:304|256:352|256:352|320:360,1,180,0|8,0:0|0:0,0:0:0:0:
480,304,149326,1,8,0:0:0:0:
480,304,149489,2,0,B|424:296|424:296|376:248|376:248|312:240,1,180
74,74,150141,5,0,0:0:0:0:
160,192,150305,1,0,0:0:0:0:
160,46,150468,1,8,0:0:0:0:
74,164,150631,1,0,0:0:0:0:
212,119,150794,1,0,0:0:0:0:
438,74,151120,5,8,0:0:0:0:
352,192,151283,1,0,0:0:0:0:
352,46,151446,1,0,0:0:0:0:
438,164,151609,1,0,0:0:0:0:
300,119,151772,1,8,0:0:0:0:
200,344,152098,5,0,0:0:0:0:
256,272,152261,1,8,0:0:0:0:
312,344,152424,1,8,0:0:0:0:
128,260,152750,6,0,P|80:272|40:252,1,90
92,180,153076,2,0,P|64:140|68:100,1,90,8|0,0:0|0:0,0:0:0:0:
245,127,153402,1,0,0:0:0:0:
245,127,153565,2,0,L|156:120,1,90,0|8,0:0|0:0,0:0:0:0:
244,32,153891,6,0,B|296:36|296:36|324:68|324:68|408:76,1,180,0|8,0:0|0:0,0:0:0:0:
484,240,154544,1,8,0:0:0:0:
484,240,154707,2,0,B|432:236|432:236|404:204|404:204|320:196,1,180
74,310,155359,5,0,0:0:0:0:
160,192,155522,1,0,0:0:0:0:
160,338,155685,1,8,0:0:0:0:
74,220,155848,1,0,0:0:0:0:
212,265,156011,1,0,0:0:0:0:
438,310,156337,5,8,0:0:0:0:
352,192,156500,1,0,0:0:0:0:
352,338,156663,1,0,0:0:0:0:
438,220,156826,1,0,0:0:0:0:
300,265,156989,1,8,0:0:0:0:
200,40,157315,5,0,0:0:0:0:
256,112,157478,1,8,0:0:0:0:
312,40,157641,1,8,0:0:0:0:
116,194,157968,6,0,P|128:144|47:58,2,180,0|8|2,0:1|0:0|0:0,0:0:0:0:
32,152,158783,1,2,0:0:0:0:
24,240,158946,1,8,0:0:0:0:
104,288,159109,1,0,0:0:0:0:
184,248,159272,2,0,P|240:240|312:344,2,180,2|8|2,0:0|0:0|0:0,0:0:0:0:
136,168,160087,1,0,0:0:0:0:
96,88,160250,1,8,0:0:0:0:
96,88,160332,1,0,0:0:0:0:
96,88,160413,1,0,0:0:0:0:
96,88,160495,1,0,0:0:0:0:
96,88,160576,6,0,P|160:80|232:168,1,180,2|8,0:0|0:0,0:0:0:0:
256,248,161065,1,0,0:0:0:0:
304,320,161228,2,0,L|392:352,1,90,2|2,0:0|0:0,0:0:0:0:
400,264,161555,2,0,L|496:248,1,90,8|0,0:0|0:0,0:0:0:0:
432,176,161881,2,0,L|480:88,1,90,2|2,0:0|0:0,0:0:0:0:
384,96,162207,2,0,L|344:8,1,90,8|0,0:0|0:0,0:0:0:0:
272,64,162533,2,0,P|216:48|144:144,1,180,2|8,0:0|0:0,0:0:0:0:
136,312,163185,6,0,P|184:336|256:248,1,180,2|8,0:0|0:0,0:0:0:0:
176,216,163674,1,0,0:0:0:0:
88,192,163837,2,0,L|40:96,1,90,2|2,0:0|0:0,0:0:0:0:
112,48,164163,2,0,L|168:152,1,90,8|0,0:0|0:0,0:0:0:0:
200,208,164489,1,2,0:0:0:0:
256,280,164652,1,2,0:0:0:0:
312,208,164815,2,0,B|360:200|432:264|496:240,1,180,8|2,0:0|0:0,0:0:0:0:
496,152,165305,1,0,0:0:0:0:
472,64,165468,1,8,0:0:0:0:
472,64,165549,1,0,0:0:0:0:
472,64,165631,1,0,0:0:0:0:
384,80,165794,6,0,B|320:88|280:32|280:32|216:32,1,180,2|8,0:0|0:0,0:0:0:0:
128,40,166283,1,0,0:0:0:0:
48,88,166446,2,0,L|-8:176,1,90,2|2,0:0|0:0,0:0:0:0:
88,168,166772,2,0,L|72:264,1,90,8|0,0:0|0:0,0:0:0:0:
160,232,167098,2,0,L|192:320,1,90,2|0,0:0|0:0,0:0:0:0:
248,248,167424,2,0,B|296:304|296:304|352:304|400:240,2,180,8|2|8,0:0|0:0|0:0,0:0:0:0:
400,144,168402,5,0,0:0:0:0:
344,72,168565,1,0,0:0:0:0:
280,136,168728,2,0,P|248:96|264:48,1,90,2|0,0:0|0:0,0:0:0:0:
168,96,169055,1,0,0:0:0:0:
128,176,169218,2,2,L|80:168,1,45,2|0,0:0|0:0,0:0:0:0:
40,248,169462,5,0,0:0:0:0:
56,264,169544,1,0,0:0:0:0:
72,280,169625,1,0,0:0:0:0:
88,296,169707,2,0,P|128:328|176:320,1,90
208,216,170033,2,0,P|264:232|280:272,1,90,2|0,0:0|0:0,0:0:0:0:
424,288,170359,6,0,L|440:200,1,90,2|0,0:0|0:0,0:0:0:0:
440,184,170603,1,2,0:0:0:0:
368,96,170766,1,2,0:0:0:0:
344,88,170848,1,0,0:0:0:0:
320,80,170930,1,2,0:0:0:0:
296,72,171011,6,0,P|248:80|224:112,1,90
320,192,171337,2,0,P|288:232|248:240,2,90,2|0|0,0:0|0:0|0:0,0:0:0:0:
416,272,171826,1,0,0:0:0:0:
424,256,171908,1,2,0:0:0:0:
440,88,172071,5,0,0:0:0:0:
408,80,172152,1,0,0:0:0:0:
376,72,172234,1,0,0:0:0:0:
344,64,172315,1,2,0:0:0:0:
256,312,172560,1,2,0:0:0:0:
384,200,172805,1,0,0:0:0:0:
128,200,172968,1,2,0:0:0:0:
424,336,173212,1,2,0:0:0:0:
88,336,173457,1,0,0:0:0:0:
200,88,173620,5,2,0:0:0:0:
112,80,173783,1,0,0:0:0:0:
112,80,173864,2,0,P|56:120|56:152,1,90,2|0,0:0|0:0,0:0:0:0:
56,152,174109,2,0,P|58:200|26:240,1,90,2|0,0:0|0:0,0:0:0:0:
40,248,174353,2,0,P|36:302|60:342,1,90,2|0,0:0|0:0,0:0:0:0:
72,344,174598,1,2,0:0:0:0:
184,232,174761,1,2,0:0:0:0:
312,296,174924,5,0,0:0:0:0:
400,304,175087,1,0,0:0:0:0:
400,304,175168,2,0,P|456:264|456:232,1,90,2|0,0:0|0:0,0:0:0:0:
456,232,175413,2,0,P|453:183|485:143,1,90,2|0,0:0|0:0,0:0:0:0:
352,112,175739,2,0,L|328:72,1,45,0|2,0:0|0:0,0:0:0:0:
208,136,175984,2,0,L|232:184,1,45,0|2,0:0|0:0,0:0:0:0:
256,352,176228,5,2,0:0:0:0:
80,168,176473,1,0,0:0:0:0:
256,264,176718,1,2,0:0:0:0:
432,168,176962,1,0,0:0:0:0:
256,88,177207,5,2,0:0:0:0:
304,168,177370,1,0,0:0:0:0:
208,168,177533,2,0,B|192:216|192:216|160:256|112:240,2,135,2|0|2,0:0|0:0|0:0,0:0:0:0:
304,168,178185,1,0,0:0:0:0:
256,336,178348,1,2,0:0:0:0:
256,320,178429,1,0,0:0:0:0:
256,304,178511,1,0,0:0:0:0:
368,256,178674,1,0,0:0:0:0:
144,256,178837,1,4,0:0:0:0:
52,184,181273,5,2,0:0:0:0:
108,252,181436,1,0,0:0:0:0:
196,252,181599,1,0,0:0:0:0:
276,208,181762,2,0,P|280:152|192:72,1,180,2|2,0:0|0:0,0:0:0:0:
104,328,182577,2,0,L|20:368,2,90,2|0|2,0:0|0:0|0:0,0:0:0:0:
140,244,183066,2,2,P|212:256|284:160,1,180
28,96,183881,6,2,P|80:112|120:96,1,90
72,20,184207,1,0,0:0:0:0:
160,172,184370,2,0,P|200:216|316:204,1,180,2|2,0:0|0:0,0:0:0:0:
388,44,185023,2,0,P|348:20|296:28,1,90,2|0,0:0|0:0,0:0:0:0:
136,64,185349,2,0,P|176:88|228:80,1,90,2|0,0:0|0:0,0:0:0:0:
32,28,185675,2,0,B|52:88|52:88|48:120|48:120|72:136|48:172|80:200,1,180,2|2,0:0|0:0,0:0:0:0:
312,328,186490,5,2,0:0:0:0:
412,236,186653,1,0,0:0:0:0:
436,368,186816,1,0,0:0:0:0:
312,328,186979,2,0,P|272:264|296:160,1,180,2|2,0:0|0:0,0:0:0:0:
56,36,187794,1,2,0:0:0:0:
100,116,187957,1,0,0:0:0:0:
188,96,188120,1,0,0:0:0:0:
100,116,188283,2,0,P|144:172|248:160,1,180,2|2,0:0|0:0,0:0:0:0:
468,8,189099,5,2,0:0:0:0:
412,76,189262,1,0,0:0:0:0:
456,156,189425,1,2,0:0:0:0:
380,208,189588,2,0,P|440:284|464:368,1,180,2|2,0:0|0:0,0:0:0:0:
320,256,190240,2,0,L|236:296,1,90,2|0,0:0|0:0,0:0:0:0:
80,312,190566,2,0,L|164:352,1,90,2|0,0:0|0:0,0:0:0:0:
160,260,190892,1,0,0:0:0:0:
145,242,190974,1,0,0:0:0:0:
136,222,191055,1,0,0:0:0:0:
132,200,191137,1,0,0:0:0:0:
133,177,191218,2,0,P|152:128|188:104,1,90
272,108,191544,6,0,L|72:104,1,180,4|2,0:0|0:0,0:0:0:0:
8,136,192033,1,0,0:0:0:0:
72,200,192196,2,0,P|92:252|84:292,1,90,2|0,0:0|0:0,0:0:0:0:
12,336,192523,2,0,P|56:368|172:316,1,180,2|0,0:0|0:0,0:0:0:0:
220,256,193012,1,2,0:0:0:0:
220,256,193175,2,0,P|329:217|373:249,1,180
365,349,193664,2,0,P|321:336|299:300,2,90
452,320,194153,5,2,0:0:0:0:
480,236,194316,1,0,0:0:0:0:
464,148,194479,1,2,0:0:0:0:
412,76,194642,2,0,P|372:52|324:48,1,90,0|2,0:0|0:0,0:0:0:0:
244,80,194968,1,0,0:0:0:0:
236,236,195131,2,0,L|284:160,1,90,2|0,0:0|0:0,0:0:0:0:
136,224,195457,2,0,L|88:300,1,90,2|2,0:0|0:0,0:0:0:0:
64,168,195783,1,2,0:0:0:0:
87,300,195946,1,0,0:0:0:0:
56,132,196110,2,0,P|96:108|144:108,1,90,2|0,0:0|0:0,0:0:0:0:
276,156,196436,2,0,P|318:154|358:130,1,90,2|0,0:0|0:0,0:0:0:0:
236,24,196762,6,0,L|188:220,1,180
256,316,197251,2,0,L|280:216,2,90,0|2|0,0:0|0:0|0:0,0:0:0:0:
172,284,197740,2,0,P|92:280|36:368,1,180,2|0,0:0|0:0,0:0:0:0:
128,364,198229,1,2,0:0:0:0:
24,220,198392,2,0,L|64:132,1,90,0|2,0:0|0:0,0:0:0:0:
196,48,198718,2,0,L|156:136,2,90,2|0|2,0:0|0:0|0:0,0:0:0:0:
116,216,199207,5,0,0:0:0:0:
196,48,199370,2,0,P|248:28|288:36,1,90
257,140,199696,5,0,0:0:0:0:
210,216,199859,1,0,0:0:0:0:
299,216,200022,1,0,0:0:0:0:
343,294,200185,1,0,0:0:0:0:
163,294,200348,1,0,0:0:0:0:
257,321,200511,1,0,0:0:0:0:
257,294,200592,1,0,0:0:0:0:
257,266,200674,1,0,0:0:0:0:
257,140,200837,1,0,0:0:0:0:
256,192,201000,12,4,202304,0:0:0:0:
258,140,202630,5,8,0:0:0:0:
106,43,202956,2,0,P|66:137|99:222,1,180,0|8,0:0|0:0,0:0:0:0:
258,140,203446,1,0,0:0:0:0:
406,43,203609,2,0,P|446:137|413:222,1,180,0|8,0:0|0:0,0:0:0:0:
380,286,204098,2,0,P|327:314|281:320,1,90,0|0,0:0|0:0,0:0:0:0:
207,319,204424,2,0,P|177:313|124:285,1,90,0|8,0:0|0:0,0:0:0:0:
258,139,204750,2,0,L|258:111,4,22.5,0|0|0|0|8,0:0|0:0|0:0|0:0|0:0,0:0:0:0:
258,228,205076,1,0,0:0:0:0:
258,317,205239,6,0,P|320:296|336:248,1,90,8|0,0:0|0:0,0:0:0:0:
331,187,205565,1,0,0:0:0:0:
331,97,205728,1,0,0:0:0:0:
343,71,205810,1,0,0:0:0:0:
355,47,205891,1,8,0:0:0:0:
440,24,206054,6,0,L|408:136,1,90
432,248,206380,2,0,L|496:160,1,90,0|8,0:0|0:0,0:0:0:0:
352,208,206706,2,0,L|320:296,1,90
200,344,207032,1,0,0:0:0:0:
88,336,207196,1,8,0:0:0:0:
48,232,207359,1,0,0:0:0:0:
120,152,207522,6,0,P|168:232|120:304,1,180,0|8,0:0|0:0,0:0:0:0:
48,232,208011,1,0,0:0:0:0:
33,129,208174,2,0,L|142:158,1,90
223,184,208500,5,8,0:0:0:0:
324,220,208663,1,0,0:0:0:0:
429,242,208826,2,0,P|472:202|467:155,1,90
391,91,209152,1,8,0:0:0:0:
321,132,209315,2,0,P|358:167|422:163,2,90
317,30,209804,1,8,0:0:0:0:
236,102,209967,2,0,L|204:121,4,22.5,0|0|0|0|8,0:0|0:0|0:0|0:0|0:0,0:0:0:0:
320,304,210293,5,0,0:0:0:0:
448,272,210456,1,8,0:0:0:0:
360,184,210619,1,0,0:0:0:0:
296,80,210782,1,0,0:0:0:0:
212,175,210946,1,0,0:0:0:0:
212,175,211027,1,0,0:0:0:0:
212,175,211109,1,8,0:0:0:0:
360,184,211272,1,0,0:0:0:0:
256,192,211435,12,4,212739,0:0:0:0:
48,320,213065,6,0,P|144:352|184:296,1,180,2|0,0:0|0:0,0:0:0:0:
80,152,213717,1,0,0:0:0:0:
152,96,213880,2,0,P|184:176|112:240,1,180,2|0,0:0|0:0,0:0:0:0:
40,232,214369,1,2,0:0:0:0:
80,152,214532,1,0,0:0:0:0:
72,64,214696,2,0,P|112:24|224:48,1,180,2|0,0:0|0:0,0:0:0:0:
400,80,215348,5,2,0:0:0:0:
440,240,215511,1,0,0:0:0:0:
312,216,215674,1,2,0:0:0:0:
416,152,215837,2,0,P|360:144|336:112,2,90,2|0|2,0:0|0:0|0:0,0:0:0:0:
432,144,216244,1,0,0:0:0:0:
448,136,216326,1,2,0:0:0:0:
368,264,216489,1,0,0:0:0:0:
256,352,216652,5,2,0:0:0:0:
184,192,216815,1,0,0:0:0:0:
112,352,216978,1,2,0:0:0:0:
280,248,217141,1,0,0:0:0:0:
80,248,217304,1,2,0:0:0:0:
384,72,217630,1,2,0:0:0:0:
216,144,217956,5,2,0:0:0:0:
464,320,218282,2,0,P|368:352|328:296,1,180,2|0,0:0|0:0,0:0:0:0:
432,152,218935,1,2,0:0:0:0:
360,96,219098,2,0,P|328:176|400:240,1,180
472,232,219587,1,2,0:0:0:0:
432,152,219750,1,0,0:0:0:0:
440,64,219913,2,0,P|400:24|288:48,1,180,2|0,0:0|0:0,0:0:0:0:
112,80,220565,5,2,0:0:0:0:
72,240,220728,1,0,0:0:0:0:
200,216,220891,1,2,0:0:0:0:
96,152,221054,2,0,P|152:144|176:112,2,90,2|0|2,0:0|0:0|0:0,0:0:0:0:
80,144,221462,1,0,0:0:0:0:
64,136,221543,1,2,0:0:0:0:
144,264,221706,1,0,0:0:0:0:
256,192,221869,12,0,222848,0:0:0:0:
72,64,223174,5,4,0:0:0:0:
440,64,223826,1,4,0:0:0:0:
104,192,224478,1,4,0:0:0:0:
408,192,225130,1,4,0:0:0:0:
136,80,225619,6,0,L|208:144,1,90,2|0,0:0|0:0,0:0:0:0:
376,304,225946,2,0,L|304:240,1,90,2|0,0:0|0:0,0:0:0:0:
136,304,226272,2,0,L|208:240,1,90,2|0,0:0|0:0,0:0:0:0:
376,80,226598,2,0,L|304:144,1,90,2|0,0:0|0:0,0:0:0:0:
404,261,226924,2,0,L|316:222,1,90,2|0,0:0|0:0,0:0:0:0:
107,122,227250,2,0,L|195:161,1,90,2|0,0:0|0:0,0:0:0:0:
404,122,227576,2,0,L|316:161,1,90,2|0,0:0|0:0,0:0:0:0:
107,261,227902,2,0,L|195:222,1,90,2|0,0:0|0:0,0:0:0:0:
256,288,228228,1,2,0:0:0:0:
256,288,228391,1,4,0:0:0:0:
128,56,228717,5,0,0:0:0:0:
384,56,229043,2,0,P|416:96|400:152,1,90,0|2,0:0|0:0,0:0:0:0:
184,280,229532,1,0,0:0:0:0:
192,256,229614,1,0,0:0:0:0:
200,232,229696,1,2,0:0:0:0:
424,224,230022,1,0,0:0:0:0:
440,304,230185,2,0,P|384:296|352:184,1,180
416,128,230674,1,2,0:0:0:0:
328,112,230837,1,0,0:0:0:0:
192,40,231000,5,0,0:0:0:0:
128,104,231163,1,0,0:0:0:0:
216,128,231326,2,0,P|192:168|144:192,1,90,2|0,0:0|0:0,0:0:0:0:
64,184,231652,1,0,0:0:0:0:
104,264,231815,1,0,0:0:0:0:
120,272,231897,1,0,0:0:0:0:
136,280,231978,1,2,0:0:0:0:
192,344,232141,1,2,0:0:0:0:
320,344,232304,5,0,0:0:0:0:
384,280,232467,1,0,0:0:0:0:
296,256,232630,2,0,P|320:216|368:192,1,90,2|0,0:0|0:0,0:0:0:0:
448,200,232956,1,0,0:0:0:0:
408,120,233119,1,0,0:0:0:0:
392,112,233201,1,0,0:0:0:0:
376,104,233282,1,2,0:0:0:0:
320,40,233446,1,2,0:0:0:0:
296,134,233609,6,0,P|256:199|218:132,2,180,0|2|0,0:0|0:0|0:0,0:0:0:0:
360,208,234424,2,0,P|312:256|204:261,1,180,2|0,0:0|0:0,0:0:0:0:
184,248,234831,1,0,0:0:0:0:
168,232,234913,1,2,0:0:0:0:
312,56,235239,1,2,0:0:0:0:
200,56,235402,1,0,0:0:0:0:
160,352,235728,1,0,0:0:0:0:
352,352,235891,1,2,0:0:0:0:
256,272,236054,1,0,0:0:0:0:
256,192,236217,12,0,238500,0:0:0:0:
56,96,238826,5,0,0:0:0:0:
256,280,239315,1,2,0:0:0:0:
456,96,239804,5,0,0:0:0:0:
256,160,240130,2,0,P|144:176|144:344,1,270,0|2,0:0|0:0,0:0:0:0:
416,272,241109,5,0,0:0:0:0:
392,176,241272,1,0,0:0:0:0:
408,160,241353,1,0,0:0:0:0:
424,144,241435,1,2,0:0:0:0:
72,72,241924,1,2,0:0:0:0:
80,344,242413,6,0,P|144:352|176:256,2,180,0|2|0,0:0|0:0|0:0,0:0:0:0:
88,256,243228,1,0,0:0:0:0:
136,176,243391,1,2,0:0:0:0:
40,176,243554,1,0,0:0:0:0:
88,96,243717,5,4,0:0:0:0:
224,144,243880,1,0,0:0:0:0:
184,32,244043,1,4,0:0:0:0:
360,48,244369,5,0,0:0:0:0:
440,80,244532,1,0,0:0:0:0:
368,136,244696,1,2,0:0:0:0:
288,96,244859,1,0,0:0:0:0:
448,176,245022,1,2,0:0:0:0:
336,352,245348,5,2,0:0:0:0:
248,320,245511,1,0,0:0:0:0:
320,264,245674,1,0,0:0:0:0:
400,296,245837,1,0,0:0:0:0:
240,232,246000,1,2,0:0:0:0:
360,176,246163,1,0,0:0:0:0:
400,296,246326,1,2,0:0:0:0:
480,208,246489,5,0,0:0:0:0:
480,184,246571,1,0,0:0:0:0:
480,160,246652,1,2,0:0:0:0:
336,56,246978,1,0,0:0:0:0:
272,120,247141,1,0,0:0:0:0:
232,40,247304,2,0,P|192:72|184:112,1,90,2|0,0:0|0:0,0:0:0:0:
216,192,247630,2,0,P|152:200|128:176,2,90,2|0|0,0:0|0:0|0:0,0:0:0:0:
304,344,248282,5,4,0:0:0:0:
208,344,248446,1,0,0:0:0:0:
256,272,248609,1,4,0:0:0:0:
344,272,248772,1,0,0:0:0:0:
168,272,248935,1,4,0:0:0:0:
56,56,249261,6,0,P|112:32|152:48,1,90,4|0,0:0|0:0,0:0:0:0:
112,128,249587,1,2,0:0:0:0:
120,136,249668,1,0,0:0:0:0:
128,144,249750,1,0,0:0:0:0:
208,96,249913,2,0,P|256:120|304:96,1,90,2|0,0:0|0:0,0:0:0:0:
256,24,250239,1,2,0:0:0:0:
264,32,250320,1,0,0:0:0:0:
272,40,250402,1,0,0:0:0:0:
368,56,250565,2,0,P|400:112|440:120,1,90,2|0,0:0|0:0,0:0:0:0:
480,48,250891,1,2,0:0:0:0:
480,64,250973,1,0,0:0:0:0:
480,80,251054,1,0,0:0:0:0:
488,184,251217,5,2,0:0:0:0:
392,208,251380,1,0,0:0:0:0:
456,272,251543,1,2,0:0:0:0:
448,280,251625,1,0,0:0:0:0:
440,288,251706,1,2,0:0:0:0:
432,296,251788,1,0,0:0:0:0:
424,304,251869,2,0,P|384:344|344:336,1,90,2|0,0:0|0:0,0:0:0:0:
280,288,252195,1,2,0:0:0:0:
272,296,252277,1,0,0:0:0:0:
264,304,252359,1,0,0:0:0:0:
168,352,252522,5,2,0:0:0:0:
88,312,252685,1,0,0:0:0:0:
128,232,252848,1,2,0:0:0:0:
120,216,252929,1,0,0:0:0:0:
112,200,253011,1,2,0:0:0:0:
104,184,253092,1,0,0:0:0:0:
96,168,253174,1,2,0:0:0:0:
48,88,253337,1,0,0:0:0:0:
136,88,253500,1,2,0:0:0:0:
160,104,253581,1,0,0:0:0:0:
184,88,253663,1,2,0:0:0:0:
208,104,253744,1,0,0:0:0:0:
232,88,253826,5,2,0:0:0:0:
320,72,253989,1,0,0:0:0:0:
384,136,254152,2,0,L|400:200,1,45,2|0,0:0|0:0,0:0:0:0:
424,208,254315,2,0,L|448:280,1,45,2|0,0:0|0:0,0:0:0:0:
456,328,254478,6,0,P|400:352|360:336,1,90,4|0,0:0|0:0,0:0:0:0:
400,256,254804,1,2,0:0:0:0:
392,248,254886,1,0,0:0:0:0:
384,240,254967,1,0,0:0:0:0:
304,288,255130,2,0,P|256:264|208:288,1,90,2|0,0:0|0:0,0:0:0:0:
256,360,255456,1,2,0:0:0:0:
248,352,255538,1,0,0:0:0:0:
240,344,255619,1,0,0:0:0:0:
144,328,255782,2,0,P|112:272|72:264,1,90,2|0,0:0|0:0,0:0:0:0:
32,336,256109,1,2,0:0:0:0:
32,320,256190,1,0,0:0:0:0:
32,304,256272,1,0,0:0:0:0:
24,200,256435,5,2,0:0:0:0:
120,176,256598,1,0,0:0:0:0:
56,112,256761,1,2,0:0:0:0:
64,104,256842,1,0,0:0:0:0:
72,96,256924,1,2,0:0:0:0:
80,88,257005,1,0,0:0:0:0:
88,80,257087,2,0,P|128:40|168:48,1,90,2|0,0:0|0:0,0:0:0:0:
232,96,257413,1,2,0:0:0:0:
240,88,257494,1,0,0:0:0:0:
248,80,257576,1,0,0:0:0:0:
344,32,257739,5,2,0:0:0:0:
424,72,257902,1,0,0:0:0:0:
384,152,258065,1,2,0:0:0:0:
392,168,258147,1,0,0:0:0:0:
400,184,258228,1,2,0:0:0:0:
408,200,258310,1,0,0:0:0:0:
416,216,258391,1,2,0:0:0:0:
464,296,258554,1,0,0:0:0:0:
384,336,258717,1,2,0:0:0:0:
360,320,258799,1,0,0:0:0:0:
336,336,258880,1,2,0:0:0:0:
312,320,258962,1,0,0:0:0:0:
288,336,259043,5,2,0:0:0:0:
200,352,259206,1,0,0:0:0:0:
120,312,259369,2,0,L|104:248,4,45,2|0|2|0|2,0:0|0:0|0:0|0:0|0:0,0:0:0:0:
200,264,259859,5,0,0:0:0:0:
152,192,260022,2,0,P|120:160|72:152,1,90,2|0,0:0|0:0,0:0:0:0:
88,64,260348,1,2,0:0:0:0:
176,80,260511,1,0,0:0:0:0:
192,80,260592,1,2,0:0:0:0:
280,144,260755,1,2,0:0:0:0:
296,144,260837,1,0,0:0:0:0:
312,144,260918,1,0,0:0:0:0:
328,144,261000,6,0,P|384:144|408:120,1,90,2|0,0:0|0:0,0:0:0:0:
432,216,261326,2,0,P|384:232|368:272,2,90,2|0|2,0:0|0:0|0:0,0:0:0:0:
440,304,261815,1,0,0:0:0:0:
432,312,261897,1,2,0:0:0:0:
336,344,262060,1,2,0:0:0:0:
320,344,262141,1,0,0:0:0:0:
304,344,262223,1,0,0:0:0:0:
288,344,262304,6,0,P|248:304|248:272,1,90,2|0,0:0|0:0,0:0:0:0:
328,200,262630,2,0,P|344:152|312:104,1,90
208,104,262956,1,2,0:0:0:0:
152,176,263119,1,0,0:0:0:0:
144,184,263201,2,0,P|80:208|56:272,1,135,2|0,0:0|0:0,0:0:0:0:
136,312,263609,5,2,0:0:0:0:
160,320,263690,1,0,0:0:0:0:
184,328,263772,1,0,0:0:0:0:
208,336,263853,1,0,0:0:0:0:
232,344,263935,2,0,P|288:368|336:368,1,90,2|0,0:0|0:0,0:0:0:0:
416,296,264261,1,2,0:0:0:0:
400,288,264342,1,0,0:0:0:0:
384,280,264424,1,2,0:0:0:0:
288,240,264587,1,2,0:0:0:0:
168,240,264750,1,0,0:0:0:0:
224,136,264913,5,0,0:0:0:0:
312,112,265076,1,0,0:0:0:0:
360,192,265239,2,0,P|392:224|440:232,1,90,2|0,0:0|0:0,0:0:0:0:
424,320,265565,1,2,0:0:0:0:
336,304,265728,1,0,0:0:0:0:
320,304,265810,1,2,0:0:0:0:
232,240,265973,1,2,0:0:0:0:
216,240,266054,1,0,0:0:0:0:
200,240,266136,1,0,0:0:0:0:
184,240,266217,6,0,P|128:240|104:264,1,90,2|0,0:0|0:0,0:0:0:0:
80,168,266543,2,0,P|128:152|144:112,2,90,2|0|2,0:0|0:0|0:0,0:0:0:0:
72,80,267032,1,0,0:0:0:0:
80,72,267114,1,2,0:0:0:0:
176,40,267277,1,2,0:0:0:0:
192,40,267359,1,0,0:0:0:0:
208,40,267440,1,0,0:0:0:0:
224,40,267522,6,0,P|264:80|264:112,1,90,2|0,0:0|0:0,0:0:0:0:
184,184,267848,2,0,P|168:232|200:280,1,90
304,280,268174,1,2,0:0:0:0:
360,208,268337,1,0,0:0:0:0:
368,200,268418,2,0,P|432:176|456:112,1,135,2|0,0:0|0:0,0:0:0:0:
376,72,268826,5,2,0:0:0:0:
352,64,268907,1,0,0:0:0:0:
328,56,268989,1,0,0:0:0:0:
304,48,269071,1,0,0:0:0:0:
280,40,269152,2,0,P|224:16|176:16,1,90,2|0,0:0|0:0,0:0:0:0:
96,88,269478,1,2,0:0:0:0:
112,96,269560,1,0,0:0:0:0:
128,104,269641,1,2,0:0:0:0:
208,360,270130,5,2,0:0:0:0:
296,336,270293,1,0,0:0:0:0:
232,280,270456,1,2,0:0:0:0:
320,248,270619,1,0,0:0:0:0:
320,248,270701,2,0,P|384:248|400:232,1,90,2|0,0:0|0:0,0:0:0:0:
344,168,271027,1,0,0:0:0:0:
344,168,271109,2,0,P|296:160|272:120,1,90,2|0,0:0|0:0,0:0:0:0:
184,136,271435,5,2,0:0:0:0:
96,152,271598,1,0,0:0:0:0:
112,64,271761,1,2,0:0:0:0:
112,64,271842,2,0,P|152:40|200:40,1,90
208,48,272087,2,0,P|262:74|302:66,1,90,2|0,0:0|0:0,0:0:0:0:
296,56,272331,2,0,P|344:40|424:72,1,135,2|0,0:0|0:0,0:0:0:0:
440,160,272739,5,2,0:0:0:0:
368,216,272902,1,0,0:0:0:0:
448,248,273065,1,2,0:0:0:0:
360,136,273228,1,2,0:0:0:0:
360,136,273310,2,0,P|304:136|272:104,2,90
360,136,273717,1,2,0:0:0:0:
240,40,274043,5,2,0:0:0:0:
224,48,274125,1,0,0:0:0:0:
208,56,274206,1,0,0:0:0:0:
192,64,274288,1,0,0:0:0:0:
176,72,274369,1,2,0:0:0:0:
160,80,274451,1,0,0:0:0:0:
144,88,274532,1,0,0:0:0:0:
128,96,274614,1,0,0:0:0:0:
112,104,274696,1,2,0:0:0:0:
96,112,274777,1,0,0:0:0:0:
80,120,274859,1,0,0:0:0:0:
64,128,274940,1,0,0:0:0:0:
48,136,275022,1,2,0:0:0:0:
32,144,275103,1,0,0:0:0:0:
40,280,275348,5,2,0:0:0:0:
104,216,275511,1,0,0:0:0:0:
128,304,275674,1,2,0:0:0:0:
192,240,275837,1,0,0:0:0:0:
192,240,275918,2,2,P|240:272|280:256,1,90
248,176,276244,1,0,0:0:0:0:
248,176,276326,2,0,P|296:160|344:176,1,90,2|0,0:0|0:0,0:0:0:0:
296,64,276652,5,2,0:0:0:0:
312,72,276734,1,0,0:0:0:0:
328,80,276815,1,0,0:0:0:0:
344,88,276897,1,0,0:0:0:0:
360,96,276978,1,2,0:0:0:0:
376,104,277060,1,0,0:0:0:0:
392,112,277141,1,0,0:0:0:0:
408,120,277223,1,0,0:0:0:0:
424,128,277304,1,2,0:0:0:0:
440,136,277386,1,0,0:0:0:0:
456,144,277467,1,0,0:0:0:0:
472,152,277549,1,0,0:0:0:0:
488,160,277630,1,2,0:0:0:0:
424,280,277793,5,2,0:0:0:0:
408,288,277875,1,0,0:0:0:0:
392,296,277956,1,2,0:0:0:0:
128,328,278282,1,0,0:0:0:0:
256,128,278609,1,0,0:0:0:0:
384,328,278935,1,0,0:0:0:0:
136,192,279261,1,0,0:0:0:0:
376,192,279587,1,0,0:0:0:0:
256,352,279913,2,0,P|288:312|376:320,2,135,0|0|0,0:0|0:0|0:0,0:0:0:0:
192,288,280565,5,0,0:0:0:0:
145,154,280891,1,0,0:0:0:0:
304,80,281217,1,0,0:0:0:0:
365,217,281543,1,0,0:0:0:0:
216,296,281869,6,0,P|176:256|144:216,1,90,2|0,0:0|0:0,0:0:0:0:
296,296,282196,2,0,P|336:256|368:216,1,90
256,104,282522,1,2,0:0:0:0:
256,216,282685,1,0,0:0:0:0:
256,328,282848,1,2,0:0:0:0:
216,336,282929,1,0,0:0:0:0:
168,336,283011,1,2,0:0:0:0:
128,320,283092,1,0,0:0:0:0:
96,288,283174,6,0,L|72:248,2,45,2|0|0,0:0|0:0|0:0,0:0:0:0:
160,224,283500,1,0,0:0:0:0:
352,224,283663,1,0,0:0:0:0:
416,288,283826,2,0,L|440:248,2,45,2|0|0,0:0|0:0|0:0,0:0:0:0:
352,352,284152,1,2,0:0:0:0:
256,256,284315,1,2,0:0:0:0:
160,352,284478,6,0,P|128:312|112:256,1,90,2|2,0:0|0:0,0:0:0:0:
352,352,284804,2,0,P|384:312|400:256,1,90,8|0,0:0|0:0,0:0:0:0:
208,160,285130,2,2,P|192:208|184:272,1,90
304,160,285456,2,0,P|320:208|328:272,1,90,8|0,0:0|0:0,0:0:0:0:
256,80,285782,1,2,0:0:0:0:
216,64,285864,1,0,0:0:0:0:
168,72,285946,1,0,0:0:0:0:
136,96,286027,1,0,0:0:0:0:
120,136,286109,2,0,P|112:160|112:184,3,45,2|0|0|0,0:0|0:0|0:0|0:0,0:0:0:0:
120,224,286435,2,0,P|144:264|208:296,1,90,2|0,0:0|0:0,0:0:0:0:
392,224,286761,2,0,P|368:264|304:296,1,90,2|0,0:0|0:0,0:0:0:0:
160,352,287087,6,0,L|112:312,1,45,2|0,0:0|0:0,0:0:0:0:
208,248,287250,2,0,L|192:184,1,45,2|0,0:0|0:0,0:0:0:0:
309,207,287413,2,0,L|317:151,2,45,0|0|4,0:0|0:0|0:0,0:0:0:0:
101,287,287739,2,0,L|95:224,1,45,2|0,0:0|0:0,0:0:0:0:
209,248,287902,2,0,L|242:191,1,45,2|0,0:0|0:0,0:0:0:0:
309,290,288065,2,0,L|354:256,2,45,0|0|4,0:0|0:0|0:0,0:0:0:0:
112,200,288391,5,2,0:0:0:0:
136,160,288473,1,0,0:0:0:0:
176,144,288554,1,0,0:0:0:0:
224,144,288636,1,0,0:0:0:0:
256,160,288717,2,0,L|280:264,1,90,2|0,0:0|0:0,0:0:0:0:
432,216,289043,2,0,L|408:112,1,90,2|0,0:0|0:0,0:0:0:0:
256,160,289369,1,2,0:0:0:0:
100,128,289532,1,0,0:0:0:0:
228,83,289696,5,0,0:0:0:0:
192,109,289777,1,0,0:0:0:0:
177,151,289859,1,8,0:0:0:0:
183,195,289940,1,8,0:0:0:0:
212,228,290022,2,0,L|164:348,1,90,0|4,0:0|0:0,0:0:0:0:
280,80,290348,1,0,0:0:0:0:
316,106,290429,1,0,0:0:0:0:
331,148,290511,1,2,0:0:0:0:
325,192,290592,1,2,0:0:0:0:
296,225,290674,2,0,L|344:345,1,90,0|4,0:0|0:0,0:0:0:0:
440,288,291000,6,0,L|400:192,1,90,2|0,0:0|0:0,0:0:0:0:
256,160,291326,2,0,L|256:56,1,90,2|0,0:0|0:0,0:0:0:0:
256,208,291652,5,2,0:0:0:0:
224,240,291734,1,2,0:0:0:0:
176,248,291815,1,2,0:0:0:0:
136,224,291897,1,2,0:0:0:0:
112,184,291978,1,0,0:0:0:0:
120,136,292060,1,0,0:0:0:0:
152,104,292141,1,0,0:0:0:0:
200,96,292223,1,0,0:0:0:0:
72,128,302739,6,0,L|24:48,1,90
112,24,303065,5,4,0:0:0:0:
128,40,303147,1,0,0:0:0:0:
144,48,303228,1,0,0:0:0:0:
168,40,303310,1,0,0:0:0:0:
184,24,303391,2,0,P|232:16|264:48,1,90,2|0,0:0|0:0,0:0:0:0:
288,128,303717,2,0,P|304:176|344:184,1,90,8|0,0:0|0:0,0:0:0:0:
424,176,304043,6,0,P|432:232|384:272,1,90,2|0,0:0|0:0,0:0:0:0:
328,288,304369,1,8,0:0:0:0:
304,288,304451,1,0,0:0:0:0:
280,296,304532,1,2,0:0:0:0:
264,312,304614,1,0,0:0:0:0:
248,328,304695,6,0,L|144:344,1,90,2|0,0:0|0:0,0:0:0:0:
96,272,305022,2,0,L|208:256,1,90,8|0,0:0|0:0,0:0:0:0:
136,184,305348,6,0,L|32:200,1,90,2|0,0:0|0:0,0:0:0:0:
8,120,305674,1,8,0:0:0:0:
0,96,305755,1,0,0:0:0:0:
8,72,305837,1,0,0:0:0:0:
24,56,305918,1,0,0:0:0:0:
48,48,306000,6,0,P|96:40|136:64,1,90,2|0,0:0|0:0,0:0:0:0:
192,120,306326,1,8,0:0:0:0:
208,136,306407,1,0,0:0:0:0:
224,152,306489,1,0,0:0:0:0:
240,168,306570,1,0,0:0:0:0:
256,184,306652,6,0,P|304:208|344:184,1,90,2|0,0:0|0:0,0:0:0:0:
392,128,306978,1,8,0:0:0:0:
408,112,307060,1,0,0:0:0:0:
424,104,307141,1,0,0:0:0:0:
448,112,307223,1,0,0:0:0:0:
464,128,307304,6,0,P|464:176|432:224,1,90,2|2,0:0|0:0,0:0:0:0:
352,208,307630,2,0,P|352:256|384:304,1,90,8|0,0:0|0:0,0:0:0:0:
456,320,307956,6,0,P|424:352|368:376,1,90,2|2,0:0|0:0,0:0:0:0:
296,344,308282,1,8,0:0:0:0:
280,328,308364,1,0,0:0:0:0:
256,320,308445,1,0,0:0:0:0:
232,328,308527,1,0,0:0:0:0:
216,344,308609,6,2,P|168:360|128:312,1,90
88,264,308935,2,0,P|64:216|8:208,1,90,8|0,0:0|0:0,0:0:0:0:
32,112,309261,6,0,P|88:96|104:40,1,90,2|0,0:0|0:0,0:0:0:0:
184,24,309587,1,8,0:0:0:0:
199,39,309668,1,0,0:0:0:0:
215,55,309750,1,0,0:0:0:0:
230,70,309831,1,0,0:0:0:0:
248,88,309913,2,0,B|290:114|290:114|330:106,1,90,2|0,0:0|0:0,0:0:0:0:
352,104,310157,1,0,0:0:0:0:
376,104,310239,2,0,B|424:96|424:96|464:128,1,90,8|0,0:0|0:0,0:0:0:0:
472,208,310565,6,0,P|456:256|416:272,1,90,2|0,0:0|0:0,0:0:0:0:
376,264,310810,2,0,P|328:264|296:336,1,135,8|2,0:0|0:0,0:0:0:0:
208,336,311217,2,0,P|208:288|160:256,1,90,2|0,0:0|0:0,0:0:0:0:
136,248,311462,2,0,P|80:224|50:133,1,135,8|2,0:0|0:0,0:0:0:0:
40,72,311869,5,2,0:0:0:0:
120,24,312032,1,0,0:0:0:0:
120,24,312114,1,2,0:0:0:0:
120,24,312195,2,0,P|168:48|216:40,1,90,8|0,0:0|0:0,0:0:0:0:
288,24,312522,2,0,P|344:16|400:120,1,180,2|8,0:0|0:0,0:0:0:0:
312,264,313174,5,0,0:0:0:0:
256,192,313337,1,2,0:0:0:0:
200,264,313500,1,8,0:0:0:0:
184,280,313581,1,0,0:0:0:0:
160,288,313663,1,0,0:0:0:0:
136,280,313744,1,0,0:0:0:0:
120,264,313826,2,0,P|99:220|55:221,1,90,0|2,0:0|0:0,0:0:0:0:
8,288,314152,1,8,0:0:0:0:
16,312,314234,1,0,0:0:0:0:
32,328,314315,1,0,0:0:0:0:
48,344,314397,1,0,0:0:0:0:
64,352,314478,2,0,P|112:384|160:376,1,90,0|2,0:0|0:0,0:0:0:0:
232,360,314804,5,8,0:0:0:0:
240,336,314886,1,0,0:0:0:0:
272,320,314967,1,0,0:0:0:0:
296,336,315049,1,0,0:0:0:0:
312,360,315130,2,0,P|360:360|392:328,1,90,2|0,0:0|0:0,0:0:0:0:
392,248,315456,2,0,P|424:216|472:208,1,90,8|0,0:0|0:0,0:0:0:0:
472,120,315782,6,0,P|424:120|376:80,1,90,0|2,0:0|0:0,0:0:0:0:
320,40,316109,1,8,0:0:0:0:
320,40,316190,1,0,0:0:0:0:
320,40,316272,1,2,0:0:0:0:
320,40,316353,1,0,0:0:0:0:
320,40,316435,2,0,P|280:72|224:64,1,90,0|2,0:0|0:0,0:0:0:0:
160,40,316761,1,8,0:0:0:0:
160,40,316842,1,0,0:0:0:0:
160,40,316924,1,0,0:0:0:0:
160,40,317005,1,2,0:0:0:0:
160,40,317087,2,0,P|128:80|144:152,1,90,0|2,0:0|0:0,0:0:0:0:
152,200,317413,5,8,0:0:0:0:
168,216,317494,1,0,0:0:0:0:
184,232,317576,1,0,0:0:0:0:
200,248,317657,1,0,0:0:0:0:
216,264,317739,2,0,P|264:280|312:264,1,90,2|0,0:0|0:0,0:0:0:0:
360,200,318065,2,0,P|304:184|256:200,1,90,8|0,0:0|0:0,0:0:0:0:
208,128,318391,5,0,0:0:0:0:
120,112,318554,1,2,0:0:0:0:
64,184,318717,1,8,0:0:0:0:
56,208,318799,1,0,0:0:0:0:
40,224,318880,1,0,0:0:0:0:
24,240,318962,1,0,0:0:0:0:
16,264,319043,6,0,P|16:320|56:344,1,90,0|2,0:0|0:0,0:0:0:0:
128,360,319369,1,8,0:0:0:0:
152,360,319451,1,0,0:0:0:0:
176,352,319532,1,0,0:0:0:0:
192,336,319614,1,0,0:0:0:0:
200,320,319695,6,0,P|216:272|192:216,1,90,0|2,0:0|0:0,0:0:0:0:
168,152,320022,1,8,0:0:0:0:
160,128,320103,1,0,0:0:0:0:
168,104,320185,1,0,0:0:0:0:
184,88,320266,1,0,0:0:0:0:
204,78,320348,2,0,B|237:75|237:75|256:91|256:91|296:89,1,90,2|0,0:0|0:0,0:0:0:0:
310,86,320592,1,0,0:0:0:0:
332,84,320674,2,0,B|366:81|366:81|387:101|379:136,1,90,8|2,0:0|0:0,0:0:0:0:
345,215,321000,6,0,P|310:258|259:255,1,90,2|0,0:0|0:0,0:0:0:0:
238,241,321244,2,0,P|190:244|163:335,1,135,2|0,0:0|0:0,0:0:0:0:
233,361,321652,2,0,P|281:363|317:338,1,90,2|0,0:0|0:0,0:0:0:0:
340,303,321897,2,0,P|396:287|432:218,1,135,2|0,0:0|0:0,0:0:0:0:
444,134,322304,6,0,P|454:84|406:55,1,90,2|0,0:0|0:0,0:0:0:0:
384,62,322549,1,0,0:0:0:0:
341,77,322630,2,0,P|290:92|250:60,1,90,8|0,0:0|0:0,0:0:0:0:
178,37,322956,2,0,P|128:42|86:150,1,180,2|8,0:0|0:0,0:0:0:0:
180,304,323609,5,0,0:0:0:0:
262,339,323772,1,0,0:0:0:0:
337,290,323935,1,8,0:0:0:0:
357,298,324016,1,0,0:0:0:0:
378,306,324098,1,0,0:0:0:0:
452,255,324261,2,0,P|464:211|453:165,1,90
371,133,324587,5,8,0:0:0:0:
348,130,324668,1,0,0:0:0:0:
325,127,324750,1,0,0:0:0:0:
302,125,324831,1,0,0:0:0:0:
279,127,324913,2,0,P|227:141|183:124,1,90
104,49,325239,5,8,0:0:0:0:
107,71,325320,1,0,0:0:0:0:
105,93,325402,1,0,0:0:0:0:
95,113,325484,1,0,0:0:0:0:
80,129,325565,2,0,P|55:166|67:224,1,90
120,308,325891,1,8,0:0:0:0:
215,240,326054,1,0,0:0:0:0:
300,319,326217,6,0,B|346:329|346:329|392:313,1,90
439,241,326543,1,8,0:0:0:0:
435,218,326625,1,0,0:0:0:0:
431,195,326706,1,0,0:0:0:0:
348,159,326869,1,0,0:0:0:0:
386,77,327032,1,0,0:0:0:0:
296,73,327195,5,8,0:0:0:0:
274,64,327277,1,0,0:0:0:0:
251,60,327359,1,0,0:0:0:0:
228,61,327440,1,0,0:0:0:0:
206,66,327522,2,0,P|155:77|117:69,1,90
143,183,327848,5,8,0:0:0:0:
146,205,327929,1,0,0:0:0:0:
144,227,328011,1,0,0:0:0:0:
137,248,328092,1,0,0:0:0:0:
125,267,328174,2,0,P|175:255|217:279,1,90
309,211,328500,1,8,0:0:0:0:
405,276,328663,1,0,0:0:0:0:
472,180,328826,6,0,L|487:88,1,90
420,30,329152,1,8,0:0:0:0:
420,30,329234,1,0,0:0:0:0:
420,30,329315,1,0,0:0:0:0:
351,88,329478,2,0,L|240:111,1,90
297,189,329804,5,8,0:0:0:0:
297,189,329886,1,0,0:0:0:0:
297,189,329967,1,0,0:0:0:0:
297,189,330049,1,0,0:0:0:0:
297,189,330130,2,0,L|186:212,1,90
211,324,330456,5,8,0:0:0:0:
211,324,330538,1,0,0:0:0:0:
211,324,330619,1,0,0:0:0:0:
211,324,330701,1,0,0:0:0:0:
211,324,330782,2,0,L|322:301,1,90
334,326,331027,1,0,0:0:0:0:
367,348,331109,2,0,L|478:325,1,90,8|0,0:0|0:0,0:0:0:0:
498,250,331435,6,0,P|508:185|464:132,2,135
431,205,332087,2,0,P|390:153|400:88,2,135
332,267,332739,5,0,0:0:0:0:
238,196,332902,1,0,0:0:0:0:
238,196,332984,1,0,0:0:0:0:
238,196,333065,1,0,0:0:0:0:
127,297,333228,1,0,0:0:0:0:
25,163,333391,2,0,P|5:99|97:34,1,180
261,47,334043,5,0,0:0:0:0:
328,105,334206,1,0,0:0:0:0:
410,69,334369,1,8,0:0:0:0:
430,79,334451,1,0,0:0:0:0:
449,89,334532,1,0,0:0:0:0:
433,177,334695,1,0,0:0:0:0:
479,254,334859,1,0,0:0:0:0:
413,315,335022,5,8,0:0:0:0:
390,318,335103,1,0,0:0:0:0:
367,321,335185,1,0,0:0:0:0:
345,325,335266,1,0,0:0:0:0:
322,329,335348,1,0,0:0:0:0:
275,252,335511,1,0,0:0:0:0:
228,174,335674,5,8,0:0:0:0:
205,177,335755,1,0,0:0:0:0:
182,180,335837,1,0,0:0:0:0:
160,184,335918,1,0,0:0:0:0:
137,188,336000,1,0,0:0:0:0:
79,118,336163,1,0,0:0:0:0:
104,31,336326,1,8,0:0:0:0:
189,57,336489,1,0,0:0:0:0:
272,23,336652,5,0,0:0:0:0:
346,74,336815,1,0,0:0:0:0:
317,159,336978,1,8,0:0:0:0:
323,180,337060,1,0,0:0:0:0:
328,201,337141,1,0,0:0:0:0:
289,282,337304,1,0,0:0:0:0:
200,264,337467,1,0,0:0:0:0:
125,313,337630,5,8,0:0:0:0:
125,313,337712,1,0,0:0:0:0:
125,313,337793,1,0,0:0:0:0:
125,313,337875,1,0,0:0:0:0:
125,313,337956,1,0,0:0:0:0:
62,248,338119,1,0,0:0:0:0:
115,175,338282,5,8,0:0:0:0:
112,152,338364,1,0,0:0:0:0:
109,129,338445,1,0,0:0:0:0:
107,106,338527,1,0,0:0:0:0:
105,83,338609,1,0,0:0:0:0:
205,142,338772,1,0,0:0:0:0:
270,42,338935,1,8,0:0:0:0:
322,190,339098,1,0,0:0:0:0:
441,41,339261,6,4,P|405:98|457:193,1,180,4|0,0:0|0:0,0:0:0:0:
405,267,339750,1,0,0:0:0:0:
384,276,339831,1,0,0:0:0:0:
363,285,339913,2,0,L|253:266,1,90,0|0,0:0|0:0,0:0:0:0:
248,183,340239,1,8,0:0:0:0:
162,156,340402,2,0,L|81:199,1,90
130,274,340728,5,0,0:0:0:0:
130,274,340810,1,0,0:0:0:0:
130,274,340891,1,8,0:0:0:0:
219,274,341054,1,0,0:0:0:0:
241,268,341136,1,0,0:0:0:0:
263,265,341217,1,0,0:0:0:0:
285,267,341299,1,0,0:0:0:0:
305,275,341380,1,0,0:0:0:0:
376,330,341543,1,8,0:0:0:0:
458,293,341706,1,0,0:0:0:0:
479,205,341869,6,0,L|487:106,1,90,0|0,0:0|0:0,0:0:0:0:
471,98,342114,1,8,0:0:0:0:
347,42,342359,1,0,0:0:0:0:
271,90,342522,1,8,0:0:0:0:
160,51,342685,1,0,0:0:0:0:
160,51,342766,1,0,0:0:0:0:
160,51,342848,1,0,0:0:0:0:
157,167,343011,1,0,0:0:0:0:
67,242,343174,1,8,0:0:0:0:
256,192,343255,12,0,344315,0:0:0:0:
110,101,344478,6,0,P|163:99|199:94,1,90,4|0,0:0|0:0,0:0:0:0:
402,101,344804,2,0,P|349:99|312:94,1,90,8|0,0:0|0:0,0:0:0:0:
199,213,345130,1,2,0:0:0:0:
256,310,345293,1,0,0:0:0:0:
313,213,345456,1,8,0:0:0:0:
178,332,345619,6,2,P|95:319|0:325,1,180
36,222,346109,2,0,L|124:238,1,90,10|0,0:0|0:0,0:0:0:0:
178,332,346435,1,2,0:0:0:0:
256,47,346761,2,0,P|205:46|167:43,1,90,10|0,0:0|0:0,0:0:0:0:
346,43,347087,6,0,P|362:90|371:130,1,90
313,225,347413,1,8,0:0:0:0:
256,128,347576,1,0,0:0:0:0:
199,225,347739,1,2,0:0:0:0:
313,225,347902,1,0,0:0:0:0:
178,225,348065,1,8,0:0:0:0:
334,225,348228,6,2,P|417:212|512:218,1,180
476,115,348717,2,0,L|388:131,1,90,10|0,0:0|0:0,0:0:0:0:
334,225,349043,1,2,0:0:0:0:
256,143,349206,1,0,0:0:0:0:
256,143,349288,1,0,0:0:0:0:
256,143,349369,1,10,0:0:0:0:
178,225,349532,1,0,0:0:0:0:
86,159,349695,6,0,P|77:118|86:72,1,90
199,72,350022,2,0,P|208:118|199:159,1,90,8|0,0:0|0:0,0:0:0:0:
313,159,350348,2,0,P|304:118|313:72,1,90,2|0,0:0|0:0,0:0:0:0:
426,72,350674,1,8,0:0:0:0:
453,181,350837,6,2,B|453:270|453:270|389:334,1,180
256,334,351326,2,0,L|321:271,1,90,10|0,0:0|0:0,0:0:0:0:
191,271,351652,1,2,0:0:0:0:
386,62,351978,2,0,L|321:125,1,90,10|0,0:0|0:0,0:0:0:0:
256,32,352304,5,4,0:0:0:0:
191,125,352467,1,0,0:0:0:0:
321,125,352630,1,0,0:0:0:0:
256,32,352793,1,4,0:0:0:0:
256,310,353119,1,0,0:0:0:0:
199,213,353282,1,4,0:0:0:0:
313,213,353445,1,0,0:0:0:0:
178,332,353609,5,2,0:0:0:0:
334,332,353772,1,0,0:0:0:0:
199,213,353935,1,2,0:0:0:0:
313,213,354098,1,0,0:0:0:0:
256,310,354261,1,6,0:0:0:0:
256,192,354913,12,0,357195,0:0:0:0:
72,64,357522,5,0,0:0:0:0:
40,144,357685,2,0,P|88:152|136:112,1,90,2|0,0:0|0:0,0:0:0:0:
168,56,358011,1,2,0:0:0:0:
216,136,358174,2,0,P|256:104|264:64,1,90,0|2,0:0|0:0,0:0:0:0:
344,104,358500,1,0,0:0:0:0:
296,184,358663,2,0,P|352:200|432:112,2,180,2|0|2,0:0|0:0|0:0,0:0:0:0:
280,272,359478,1,2,0:0:0:0:
264,288,359560,1,0,0:0:0:0:
248,304,359641,2,0,P|208:344|168:344,1,90,2|2,0:0|0:0,0:0:0:0:
168,256,359967,1,2,0:0:0:0:
96,208,360130,5,0,0:0:0:0:
184,168,360293,2,0,P|152:128|104:112,1,90,2|0,0:0|0:0,0:0:0:0:
32,144,360619,1,2,0:0:0:0:
8,232,360782,2,0,P|32:272|72:296,1,90,0|2,0:0|0:0,0:0:0:0:
160,312,361109,2,0,P|208:336|248:328,1,90,0|2,0:0|0:0,0:0:0:0:
456,152,361598,5,2,0:0:0:0:
408,232,361761,1,0,0:0:0:0:
360,152,361924,1,2,0:0:0:0:
312,232,362087,1,0,0:0:0:0:
312,232,362250,2,0,P|264:160|304:72,1,180,2|2,0:0|0:0,0:0:0:0:
208,48,362739,5,0,0:0:0:0:
120,72,362902,1,2,0:0:0:0:
184,136,363065,1,0,0:0:0:0:
96,160,363228,1,2,0:0:0:0:
24,104,363391,5,0,0:0:0:0:
16,192,363554,1,2,0:0:0:0:
88,248,363717,1,0,0:0:0:0:
168,216,363880,2,0,P|168:288|72:344,2,180,2|0|2,0:0|0:0|0:0,0:0:0:0:
192,128,364695,5,0,0:0:0:0:
216,128,364777,1,0,0:0:0:0:
240,128,364859,1,2,0:0:0:0:
312,80,365022,1,0,0:0:0:0:
392,112,365185,1,2,0:0:0:0:
320,168,365348,6,0,P|376:208|472:160,1,180,2|0,0:0|0:0,0:0:0:0:
464,296,365918,1,0,0:0:0:0:
448,312,366000,1,2,0:0:0:0:
336,352,366163,1,2,0:0:0:0:
312,264,366326,1,0,0:0:0:0:
248,328,366489,1,2,0:0:0:0:
40,296,366815,1,2,0:0:0:0:
120,344,366978,1,0,0:0:0:0:
120,256,367141,1,2,0:0:0:0:
48,200,367304,2,0,P|128:168|216:240,1,180,2|2,0:0|0:0,0:0:0:0:
328,80,367956,5,0,0:0:0:0:
336,96,368038,1,0,0:0:0:0:
344,112,368119,1,0,0:0:0:0:
256,112,368282,1,0,0:0:0:0:
184,80,368445,1,0,0:0:0:0:
176,96,368527,1,0,0:0:0:0:
168,112,368609,1,0,0:0:0:0:
144,248,368772,1,0,0:0:0:0:
128,240,368853,1,0,0:0:0:0:
112,232,368935,1,0,0:0:0:0:
24,144,369098,1,0,0:0:0:0:
80,64,369261,6,0,P|112:112|72:224,2,180,4|0|0,0:0|0:0|0:0,0:0:0:0:
200,56,370076,1,2,0:0:0:0:
200,176,370239,1,0,0:0:0:0:
304,112,370402,2,0,P|320:168|432:200,2,180,2|0|2,0:0|0:0|0:0,0:0:0:0:
392,120,371217,5,2,0:0:0:0:
400,104,371299,1,0,0:0:0:0:
408,88,371380,1,2,0:0:0:0:
344,24,371543,1,2,0:0:0:0:
256,32,371706,1,0,0:0:0:0:
200,104,371869,2,0,P|144:144|64:80,1,180
144,224,372440,5,2,0:0:0:0:
160,232,372522,2,0,P|216:240|240:216,1,90,0|2,0:0|0:0,0:0:0:0:
336,280,372848,2,2,P|360:240|408:232,1,90,2|2,0:0|0:0,0:0:0:0:
408,48,373337,5,2,0:0:0:0:
368,128,373500,2,0,P|336:96|288:96,1,90,0|2,0:0|0:0,0:0:0:0:
304,184,373826,1,0,0:0:0:0:
224,144,373989,1,2,0:0:0:0:
208,56,374152,6,0,P|160:72|136:120,2,90,0|2|0,0:0|0:0|0:0,0:0:0:0:
208,288,374804,1,2,0:0:0:0:
384,304,375130,1,0,0:0:0:0:
464,192,375293,1,0,0:0:0:0:
344,200,375456,1,2,0:0:0:0:
384,304,375619,2,0,P|320:336|232:272,2,180
416,216,376435,5,2,0:0:0:0:
416,192,376516,1,0,0:0:0:0:
416,168,376598,1,2,0:0:0:0:
384,80,376761,1,2,0:0:0:0:
288,160,376924,1,0,0:0:0:0:
248,48,377087,2,0,P|128:56|104:120,1,180,2|0,0:0|0:0,0:0:0:0:
216,184,377657,1,2,0:0:0:0:
208,192,377739,1,0,0:0:0:0:
216,304,377902,2,0,P|256:328|304:312,2,90,2|0|2,0:0|0:0|0:0,0:0:0:0:
48,152,378554,5,0,0:0:0:0:
96,64,378717,1,2,0:0:0:0:
152,144,378880,1,0,0:0:0:0:
208,64,379043,2,2,P|248:96|232:216,1,180
432,320,379695,6,0,P|400:272|440:160,2,180,0|2|0,0:0|0:0|0:0,0:0:0:0:
312,328,380511,1,0,0:0:0:0:
312,208,380674,1,2,0:0:0:0:
208,272,380837,2,0,P|192:216|80:184,2,180,0|2|0,0:0|0:0|0:0,0:0:0:0:
120,264,381652,5,2,0:0:0:0:
112,280,381734,1,0,0:0:0:0:
104,296,381815,1,2,0:0:0:0:
168,360,381978,1,0,0:0:0:0:
256,352,382141,1,2,0:0:0:0:
312,280,382304,2,0,P|368:240|448:304,1,180,0|2,0:0|0:0,0:0:0:0:
368,160,382875,5,2,0:0:0:0:
352,152,382956,2,0,P|296:144|272:168,1,90
176,104,383282,2,0,P|152:144|104:152,1,90,2|0,0:0|0:0,0:0:0:0:
104,336,383772,5,0,0:0:0:0:
144,256,383935,2,0,P|176:288|224:288,1,90,2|0,0:0|0:0,0:0:0:0:
208,200,384261,1,2,0:0:0:0:
288,240,384424,1,0,0:0:0:0:
304,328,384587,6,0,P|352:312|376:264,2,90,2|0|2,0:0|0:0|0:0,0:0:0:0:
304,96,385239,1,2,0:0:0:0:
128,80,385565,1,2,0:0:0:0:
48,192,385728,1,0,0:0:0:0:
168,184,385891,1,0,0:0:0:0:
128,80,386054,2,2,P|192:48|280:112,2,180
96,168,386869,5,2,0:0:0:0:
96,192,386951,1,0,0:0:0:0:
96,216,387032,1,2,0:0:0:0:
128,304,387195,1,0,0:0:0:0:
224,224,387359,1,2,0:0:0:0:
264,336,387522,2,0,P|384:328|408:264,1,180,2|2,0:0|0:0,0:0:0:0:
296,200,388092,1,2,0:0:0:0:
304,192,388174,1,0,0:0:0:0:
296,80,388337,2,0,P|256:56|208:72,1,90
256,192,388663,12,0,389804,0:0:0:0:
256,192,389967,12,0,391109,0:0:0:0:
256,192,391272,12,0,392413,0:0:0:0:
256,200,392576,5,0,0:0:0:0:
112,96,392902,1,4,0:0:0:0:
256,104,393065,1,4,0:0:0:0:
400,96,393228,1,4,0:0:0:0:
256,288,393391,1,4,0:0:0:0:
