osu file format v5

[General]
AudioFilename: Albatrosicks - Sunfish runs away.mp3
AudioLeadIn: 2000
PreviewTime: -1
Countdown: 0
SampleSet: Normal
StackLeniency: 0.7
Mode: 0
LetterboxInBreaks: 1

[Metadata]
Title:Sunfish runs away
Artist:Albatrosicks
Creator:Nharox
Version:Normal
Source:
Tags:

[Difficulty]
HPDrainRate:4
CircleSize:3
OverallDifficulty:5
SliderMultiplier:1.4
SliderTickRate:0.5

[Events]
//Background and Video events
0,0,"albatrosicks.png"
//Break Periods
2,70562,73526
2,86380,86644
//Storyboard Layer 0 (Background)
//Storyboard Layer 1 (Failing)
//Storyboard Layer 2 (Passing)
//Storyboard Layer 3 (Foreground)
//Storyboard Sound Samples
//Background Colour Transformations
3,100,163,162,255

[TimingPoints]
-7,545.454545454545,4,1,0,100,1

[Colours]
Combo1 : 255,128,192
Combo2 : 0,255,128
Combo3 : 128,128,255

[HitObjects]
120,61,1083,1,0
184,125,2311,1,0
248,189,3538,1,0
312,253,4629,1,0
376,317,5856,1,0
256,192,7083,12,8,15538
96,64,15811,5,0
160,64,16083,1,0
160,128,16356,1,0
160,224,16765,2,0,B|64:224,1,70
106,289,17311,2,0,B|170:289,1,35
288,288,17992,6,0,B|288:192,2,70
352,288,18811,1,0
352,224,19083,2,0,B|352:160,1,35
352,128,19492,1,0
192,128,20174,5,0
128,128,20447,1,0
160,192,20720,1,0
160,288,21129,2,0,B|160:192,1,70
224,237,21674,2,0,B|224:301,1,35
352,256,22356,6,0,B|416:192,2,70
336,190,23174,1,0
285,145,23447,2,0,B|253:113,1,35
212,72,23856,1,0
64,128,24538,5,0
96,192,24811,1,0
128,256,25083,1,0
224,256,25492,2,0,B|320:256,1,70
352,256,26038,2,0,B|416:256,1,35
416,128,26720,6,0,B|416:32,2,70
416,192,27538,1,0
416,256,27811,2,0,B|416:352,1,70
416,320,28220,1,0
256,352,28902,5,0
256,288,29174,1,0
256,224,29447,1,0
256,128,29856,2,0,B|352:128,1,70
296,67,30402,2,0,B|360:67,1,35
192,128,31083,6,0,B|160:32,2,70
192,192,31902,1,0
256,192,32174,2,0,B|352:192,1,70
352,192,32583,1,0
258,211,33265,6,0,B|258:275,6,35
258,179,34220,6,0,B|258:115,5,35
256,64,35174,5,4
192,64,35447,6,0,B|128:64,6,35
192,96,36402,6,0,B|128:96,5,35
177,160,37356,5,4
177,227,37629,6,0,B|177:291,5,35
224,256,38447,6,0,B|224:212,5,35
256,224,39265,6,0,B|256:288,5,35
287,246,40083,1,4
352,288,40356,5,0
352,224,40629,1,4
416,256,40902,1,0
416,192,41174,1,0
352,160,41447,1,0
416,128,41720,5,4
352,96,41993,5,0
288,96,42265,1,0
288,160,42538,1,0
192,160,42947,2,0,B|96:160,1,70
64,160,43493,2,0,B|0:160,1,35
96,256,44174,6,0,B|96:160,2,70
160,288,44993,1,0
224,288,45265,2,0,B|224:224,1,35
224,192,45674,1,0
160,32,46356,6,0,B|256:32,1,70
288,64,46902,1,0
192,96,47311,2,0,B|96:96,1,70
64,96,47856,2,0,B|0:96,1,35
96,192,48538,6,0,B|96:96,2,70
160,160,49356,1,0
224,160,49629,2,0,B|288:160,1,35
320,160,50038,1,0
384,320,50720,5,0
320,288,50993,1,0
256,256,51265,1,0
160,192,51674,2,0,B|82:142,1,70
168,151,52220,2,0,B|121:122,1,35
256,160,52902,6,0,B|320:192,2,70
288,96,53720,1,0
352,96,53993,2,0,B|352:192,1,70
352,192,54402,1,0
256,320,55083,5,0
320,288,55356,1,0
256,256,55629,1,0
160,288,56038,2,0,B|64:288,1,70
112,224,56583,2,0,B|176:224,1,35
256,128,57265,6,0,B|256:32,2,70
256,192,58083,1,0
256,256,58356,2,0,B|256:352,1,70
258,325,58765,1,0
96,128,59447,5,0
96,224,59720,1,0
288,128,60265,1,0
288,224,60538,1,0
480,128,61083,1,0
480,224,61356,1,0
384,192,61629,1,0
160,192,62174,5,0
256,192,62447,1,0
448,192,62993,1,0
352,192,63265,1,0
209,309,63811,1,0
305,309,64083,1,0
401,309,64356,1,0
320,128,64902,5,0
224,64,65174,1,0
320,256,65720,1,0
224,288,65993,1,0
32,192,66538,1,0
128,192,66811,1,0
224,192,67083,1,0
416,192,67629,5,0
384,96,67902,1,0
160,96,68447,1,0
128,192,68720,1,0
288,352,69265,1,0
288,256,69538,1,0
288,160,69811,2,0,B|288:0,1,140
192,192,74720,6,0,B|192:288,4,70
261,166,76083,2,0,B|261:262,4,70
320,128,77447,2,0,B|320:224,4,70
256,128,78811,6,0,B|256:32,1,70
352,64,79493,1,0
352,160,79902,2,0,B|352:256,1,70
288,288,80583,1,0
192,224,80993,6,0,B|96:224,1,70
160,128,81674,1,0
256,128,82083,1,0
320,128,82356,1,0
416,128,82765,1,0
416,224,83174,6,0,B|320:224,1,70
224,224,83856,2,0,B|96:224,3,105
96,157,85356,2,0,B|160:93|160:93|237:175|237:175|224:157,1,210
286,47,87538,6,0,B|190:79,1,70
286,143,88220,1,0
222,239,88629,2,0,B|318:271,1,70,0|0
222,335,89311,1,0
116,336,89720,6,0,B|52:272,1,70
64,192,90402,1,0
64,96,90811,1,0
128,96,91083,1,0
224,96,91492,1,0
320,96,91902,6,0,B|384:160,1,70
256,192,92583,2,0,B|128:192,1,105
160,288,93402,2,0,B|288:288,1,105
320,288,94083,1,0
320,256,94220,2,0,B|448:256|448:256|448:160|448:160|320:160|352:160,1,315
256,176,95992,6,2,B|256:240,4,35,2|2|2|2|2
128,192,97083,6,8,B|174:192,3,35
192,192,97629,5,0
192,256,97902,1,0
256,256,98174,1,0
320,192,98583,2,0,B|224:192,1,70
302,145,99129,2,0,B|238:145,1,35
160,224,99811,6,0,B|160:128,3,70
212,200,100902,2,0,B|212:136,1,35
279,185,101311,1,0
416,64,101992,5,0
448,128,102265,1,0
384,128,102538,1,0
416,224,102947,2,0,B|416:320,1,70
351,264,103492,2,0,B|287:264,1,35
160,256,104174,6,0,B|256:256,2,70
96,256,104992,1,0
96,192,105265,2,0,B|96:128,1,35
96,96,105674,1,0
256,96,106356,5,0
320,96,106629,1,0
384,128,106902,1,0
288,160,107311,2,0,B|192:160,1,70
241,226,107856,2,0,B|305:226,1,35
160,160,108538,6,0,B|160:64,2,70
224,128,109356,1,0
288,128,109629,2,0,B|288:224,1,70
288,198,110038,1,0
128,128,110720,5,0
160,192,110992,1,0
224,160,111265,1,0
320,128,111674,2,0,B|384:192,1,70
413,122,112220,2,0,B|381:90,1,35
256,128,112902,5,0
256,128,113174,1,0
256,128,113447,1,0
256,128,113720,1,0
256,192,113992,2,0,B|256:288,1,70
257,261,114402,1,0
201,40,115083,6,4,B|329:40,2,105,4|4|4
