osu file format v5

[General]
AudioFilename: someiosyspv.mp3
AudioLeadIn: 0
PreviewTime: 61814
Countdown: 3
SampleSet: Normal
StackLeniency: 0.7
Mode: 0
LetterboxInBreaks: 1
EditorBookmarks: 10214

[Metadata]
Title:Hoshi Wo Koete
Artist:Albatrosicks
Creator:Zerostarry
Version:Normal
Source:Planet Liberation
Tags:Albatrosicks Hoshi wo Koete

[Difficulty]
HPDrainRate:5
CircleSize:4
OverallDifficulty:5
SliderMultiplier:1.5
SliderTickRate:2

[Events]
//Background and Video events
1,-200,"IOSYS PV.avi"
0,0,"IOSYS PV bg image.JPG"
//Break Periods
2,55414,57314
//Storyboard Layer 0 (Background)
//Storyboard Layer 1 (Failing)
//Storyboard Layer 2 (Passing)
//Storyboard Layer 3 (Foreground)
//Storyboard Sound Samples
//Background Colour Transformations
3,100,163,162,255

[TimingPoints]
11400,600,4,1,0,100,1,0
39600,-100,4,2,0,100,0,0
40050,-100,4,1,0,100,0,0
49350,-100,4,2,0,100,0,0
49664,-100,4,1,0,100,0,0
55050,-100,4,2,0,100,0,0
55350,-100,4,1,0,100,0,0
57900,-200,4,2,0,100,0,0
60000,-200,4,2,0,100,0,1
60600,-100,4,1,0,100,0,1
71414,-100,4,1,0,100,0,1
88200,-200,4,1,0,100,0,0
89400,-100,4,1,0,100,0,0

[Colours]
Combo1 : 255,128,192
Combo2 : 0,255,128
Combo3 : 128,128,255

[HitObjects]
184,64,11400,1,0
256,64,11700,2,0,B|256:152,3,75
328,136,12900,1,0
384,88,13200,1,2
440,136,13500,1,2
440,208,13800,5,0
440,280,14100,2,0,B|440:360,3,75
368,360,15300,1,0
320,296,15600,1,2
280,360,15900,1,2
232,296,16200,5,0
232,224,16500,2,0,B|136:224,3,75
160,152,17700,1,0
160,80,18000,1,2
224,112,18300,1,2
256,192,18600,12,0,20700
72,304,21000,5,0
144,304,21300,1,0
216,304,21600,1,0
288,304,21900,1,0
288,304,22050,2,2,B|488:304|464:64,1,337.5
392,72,23700,5,0
320,72,24000,1,0
248,72,24300,1,0
176,72,24600,1,0
104,72,24900,1,0
32,72,25200,1,0
32,72,25350,1,0
72,136,25650,1,0
32,200,25950,1,0
32,200,26100,2,2,B|208:384|376:192,1,375
408,160,27900,5,4
464,112,28200,1,4
256,192,28500,12,0,30000
448,48,30600,5,0
448,120,30900,1,0
448,192,31200,1,0
448,264,31500,1,0
448,264,31650,2,2,B|288:368|112:256,1,337.5
64,224,33300,5,0
64,152,33600,1,0
64,80,33900,1,0
128,112,34200,1,0
128,184,34500,1,0
192,152,34800,1,0
192,152,34950,1,0
256,112,35250,1,0
256,184,35550,1,0
256,184,35700,2,2,B|248:344|416:336|400:176,2,300
256,192,38400,12,0,39900
200,192,40200,5,2
256,136,40500,1,2
304,192,40800,1,2
304,264,41100,6,0,B|384:264,1,75
456,264,41700,1,0
456,192,42000,1,0
376,192,42300,1,0
304,192,42600,5,2
256,136,42900,1,2
208,192,43200,1,2
208,264,43500,6,0,B|104:264,1,75
56,264,44100,1,0
56,192,44400,1,0
128,192,44700,1,0
200,192,45000,5,2
256,144,45300,1,2
312,192,45600,1,2
384,192,45900,6,0,B|480:192,1,75
456,120,46500,1,0
384,120,46800,1,0
312,120,47100,1,0
312,192,47400,5,2
256,144,47700,1,2
200,192,48000,1,2
256,192,48300,12,0,49500
320,192,49800,5,2
256,232,50100,1,2
192,192,50400,1,2
120,192,50700,6,0,B|24:192,1,75
40,120,51300,1,0
120,120,51600,1,0
192,120,51900,1,0
192,192,52200,5,2
256,232,52500,1,2
320,192,52800,1,2
256,232,53100,6,0,B|256:312,1,75
328,304,53700,1,0
256,304,54000,1,0
184,304,54300,1,0
256,192,54600,12,0,55200
184,192,58500,5,0
256,192,58800,1,0
328,192,59100,1,0
328,264,59400,2,0,B|256:296|168:256,1,150
104,256,60900,6,0,B|24:256,1,75
32,184,61500,1,0
32,112,61800,1,0
96,152,62100,1,0
168,152,62400,1,0
224,104,62700,5,0
280,152,63000,1,0
352,152,63300,1,0
408,104,63600,1,8
464,152,63900,2,8,B|464:240,1,75,8|0
416,288,64500,5,0
352,240,64800,1,0
296,288,65100,1,0
224,288,65400,2,0,B|144:288,1,75
72,288,66000,1,8
72,216,66300,6,0,B|72:136,1,75,8|0
72,64,66900,1,0
144,64,67200,1,0
216,64,67500,1,0
288,64,67800,2,2,B|288:160|416:144,1,150
392,224,68700,1,0
320,224,69000,2,2,B|320:320|192:304,1,150
144,304,69900,1,0
72,304,70200,2,2,B|72:208|200:224,1,150
256,224,71100,5,4
336,224,71400,6,0,B|408:272|488:216,1,150
480,144,72300,1,0
480,72,72600,2,0,B|412:24|340:72,1,150
344,144,73500,1,0
272,144,73800,2,0,B|120:144,1,150
64,192,74700,1,0
120,240,75000,2,0,B|288:240,1,150
328,192,75900,1,0
328,120,76200,6,2,B|256:88|176:120,1,150
176,192,77100,1,0
176,263,77400,2,2,B|256:296|323:261,1,150
320,192,78300,1,0
392,192,78600,2,2,B|480:192,1,75
464,120,79200,1,0
464,48,79500,2,2,B|376:48,1,75
392,120,80100,1,2
320,120,80400,1,2
168,128,81000,6,0,B|96:88|24:128,1,150,0|2
24,128,81750,1,2
31,199,82050,2,0,B|-48:287|40:391,1,187.5
88,328,83100,1,0
144,280,83400,2,0,B|224:320|296:280,1,150,0|2
288,284,84150,1,2
344,232,84450,2,0,B|448:152|328:72,1,187.5
256,72,85500,5,0
176,72,85800,2,0,B|16:72,1,150,0|2
26,72,86550,1,2
24,144,86850,1,0
296,120,87600,5,0
224,120,87900,1,0
232,192,88200,2,2,B|232:280|296:272|296:184,1,150
256,64,90600,5,4
256,64,90900,1,4
256,288,91350,5,6
256,288,91500,1,6
256,288,91650,1,6
256,192,93000,12,0,96000
176,96,96600,6,0,B|352:96,1,150
400,96,97500,2,0,B|400:184,1,75
400,248,98100,1,0
400,248,98400,1,6
400,248,98700,1,6
328,248,99000,6,0,B|160:248,1,150
104,248,99900,2,0,B|104:160,1,75
104,96,100500,1,0
104,96,100800,1,6
104,96,101100,1,6
