osu file format v14

[General]
AudioFilename: Alan Walker - Faded.mp3
AudioLeadIn: 0
PreviewTime: -1
Countdown: 1
SampleSet: None
StackLeniency: 0.7
Mode: 0
LetterboxInBreaks: 1
WidescreenStoryboard: 0

[Editor]
DistanceSpacing: 1.3
BeatDivisor: 4
GridSize: 8
TimelineZoom: 1

[Metadata]
Title:Faded
TitleUnicode:Faded
Artist:Alan Walker
ArtistUnicode:Alan Walker
Creator:PumpkinSasha
Version:Insane
Source:
Tags:alan walker faded pop song
BeatmapID:1001881
BeatmapSetID:468398

[Difficulty]
HPDrainRate:5
CircleSize:5
OverallDifficulty:5
ApproachRate:10
SliderMultiplier:1.7
SliderTickRate:3

[Events]
//Background and Video events
//Break Periods
//Storyboard Layer 0 (Background)
//Storyboard Layer 1 (Fail)
//Storyboard Layer 2 (Pass)
//Storyboard Layer 3 (Foreground)
//Storyboard Sound Samples

[TimingPoints]
0,240,4,1,0,100,1,0

[HitObjects]
104,88,11760,5,0,0:0:0:0:
96,200,11880,2,0,P|264:280|272:272,1,212.5
416,80,12480,1,0,0:0:0:0:
288,264,12720,2,0,P|400:160|400:144,1,170
80,80,13440,1,0,0:0:0:0:
304,80,13680,2,0,L|304:264,1,170
136,248,14100,2,0,L|136:40,1,170
136,78,14880,1,0,0:0:0:0:
229,84,15900,2,0,B|283:300|386:67|408:356,1,340
397,29,18360,1,0,0:0:0:0:
420,78,18420,1,0,0:0:0:0:
378,296,18660,1,0,0:0:0:0:
416,256,18720,1,0,0:0:0:0:
139,304,19200,2,0,P|72:239|74:236,1,127.5
101,77,19920,1,0,0:0:0:0:
143,50,20280,2,0,P|444:44|466:51,1,297.5
88,281,21000,2,0,P|445:276|473:258,1,382.5
449,230,22320,2,0,L|346:340,1,127.5
283,244,22620,2,0,L|390:137,1,127.5
374,56,23040,1,0,0:0:0:0:
208,57,23220,2,0,P|80:82|69:175,1,212.5
62,147,23760,1,0,0:0:0:0:
349,300,24180,2,0,P|465:215|427:127,1,255
105,332,25200,1,0,0:0:0:0:
108,276,25260,1,0,0:0:0:0:
163,271,25320,1,0,0:0:0:0:
166,215,25380,1,0,0:0:0:0:
259,200,25800,2,0,B|260:128|311:177|349:102|324:54,1,170
418,58,26640,1,0,0:0:0:0:
257,205,27840,5,0,0:0:0:0:
51,65,28800,2,0,B|280:95|379:283|482:264,1,467.5
454,67,29760,2,0,B|241:114|44:292|28:209,1,467.5
71,81,31680,1,0,0:0:0:0:
123,64,31740,1,0,0:0:0:0:
89,169,31860,1,0,0:0:0:0:
51,209,31920,1,0,0:0:0:0:
140,326,32400,2,0,B|230:190|273:152|300:176,1,212.5
138,30,33300,2,0,P|70:217|92:240,1,255
136,134,33780,1,0,0:0:0:0:
224,138,34140,2,0,P|200:350|173:362,1,255
43,89,35520,1,0,0:0:0:0:
471,90,36000,1,0,0:0:0:0:
472,304,36480,1,0,0:0:0:0:
76,120,37440,2,0,B|317:26|145:68|30:26,1,297.5
388,145,38400,2,0,B|238:81|300:93|446:33,1,255
56,84,39360,1,0,0:0:0:0:
102,77,39420,1,0,0:0:0:0:
86,129,39480,1,0,0:0:0:0:
131,106,39540,1,0,0:0:0:0:
127,143,39600,1,0,0:0:0:0:
163,126,39660,1,0,0:0:0:0:
163,169,39720,1,0,0:0:0:0:
200,146,39780,1,0,0:0:0:0:
183,195,39900,1,0,0:0:0:0:
228,180,39960,1,0,0:0:0:0:
220,226,40020,1,0,0:0:0:0:
264,206,40080,1,0,0:0:0:0:
249,257,40140,1,0,0:0:0:0:
287,238,40200,1,0,0:0:0:0:
284,279,40260,1,0,0:0:0:0:
324,263,40320,1,0,0:0:0:0:
311,307,40380,1,0,0:0:0:0:
351,292,40440,1,0,0:0:0:0:
351,332,40500,1,0,0:0:0:0:
388,316,40560,1,0,0:0:0:0:
389,270,40620,1,0,0:0:0:0:
428,284,40680,1,0,0:0:0:0:
420,234,40740,1,0,0:0:0:0:
385,216,40800,1,0,0:0:0:0:
420,192,40860,1,0,0:0:0:0:
387,170,40920,1,0,0:0:0:0:
415,148,40980,1,0,0:0:0:0:
374,128,41040,1,0,0:0:0:0:
414,111,41100,1,0,0:0:0:0:
372,97,41160,1,0,0:0:0:0:
404,77,41220,1,0,0:0:0:0:
358,53,41280,1,0,0:0:0:0:
394,35,41340,1,0,0:0:0:0:
334,78,41400,1,0,0:0:0:0:
309,43,41460,1,0,0:0:0:0:
292,89,41520,1,0,0:0:0:0:
273,49,41580,1,0,0:0:0:0:
250,85,41640,1,0,0:0:0:0:
231,49,41700,1,0,0:0:0:0:
207,88,41760,1,0,0:0:0:0:
188,42,41820,1,0,0:0:0:0:
159,86,41880,1,0,0:0:0:0:
140,37,41940,1,0,0:0:0:0:
116,76,42000,1,0,0:0:0:0:
88,42,42060,1,0,0:0:0:0:
83,95,42120,1,0,0:0:0:0:
58,67,42180,1,0,0:0:0:0:
43,112,42240,1,0,0:0:0:0:
73,242,42720,2,0,P|333:286|368:270,1,297.5
327,248,43920,1,0,0:0:0:0:
353,226,43980,1,0,0:0:0:0:
328,208,44040,1,0,0:0:0:0:
360,188,44100,1,0,0:0:0:0:
330,158,44160,1,0,0:0:0:0:
364,138,44220,1,0,0:0:0:0:
328,111,44280,1,0,0:0:0:0:
361,92,44340,1,0,0:0:0:0:
322,76,44400,1,0,0:0:0:0:
346,51,44460,1,0,0:0:0:0:
311,37,44520,1,0,0:0:0:0:
281,57,44580,1,0,0:0:0:0:
264,24,44640,1,0,0:0:0:0:
241,63,44700,1,0,0:0:0:0:
220,31,44760,1,0,0:0:0:0:
195,67,44820,1,0,0:0:0:0:
179,34,44880,1,0,0:0:0:0:
157,71,44940,1,0,0:0:0:0:
141,34,45000,1,0,0:0:0:0:
117,80,45060,1,0,0:0:0:0:
106,33,45120,1,0,0:0:0:0:
71,66,45180,1,0,0:0:0:0:
58,37,45240,1,0,0:0:0:0:
37,81,45300,1,0,0:0:0:0:
66,108,45360,1,0,0:0:0:0:
45,124,45480,1,0,0:0:0:0:
71,152,45540,1,0,0:0:0:0:
43,169,45600,1,0,0:0:0:0:
66,191,45720,1,0,0:0:0:0:
47,205,45780,1,0,0:0:0:0:
65,289,46080,2,0,L|129:330,1,42.5
98,241,46200,2,0,L|164:288,1,42.5
149,307,46320,2,0,L|195:330,1,42.5
252,317,46620,2,0,P|305:277|309:274,1,42.5
233,251,46800,2,0,L|281:212,1,42.5
311,241,46920,2,0,L|352:203,1,42.5
447,318,47040,1,0,0:0:0:0:
434,120,48000,1,0,0:0:0:0:
357,69,48180,2,0,P|247:44|237:48,1,127.5
150,128,48480,1,0,0:0:0:0:
92,48,48600,2,0,P|46:212|48:221,1,170
76,290,49200,1,0,0:0:0:0:
117,295,49260,1,0,0:0:0:0:
161,301,49320,1,0,0:0:0:0:
204,303,49380,1,0,0:0:0:0:
246,303,49440,1,0,0:0:0:0:
292,298,49500,1,0,0:0:0:0:
334,296,49560,1,0,0:0:0:0:
363,290,49620,1,0,0:0:0:0:
384,66,50400,5,0,0:0:0:0:
340,66,50460,1,0,0:0:0:0:
303,60,50520,1,0,0:0:0:0:
273,60,50580,1,0,0:0:0:0:
227,57,50640,1,0,0:0:0:0:
193,56,50700,1,0,0:0:0:0:
164,60,50760,1,0,0:0:0:0:
132,65,50820,1,0,0:0:0:0:
101,81,50880,1,0,0:0:0:0:
252,167,51360,1,0,0:0:0:0:
402,272,51720,1,0,0:0:0:0:
362,276,51780,1,0,0:0:0:0:
314,284,51840,1,0,0:0:0:0:
270,288,51900,1,0,0:0:0:0:
226,289,51960,1,0,0:0:0:0:
183,281,52020,1,0,0:0:0:0:
139,277,52080,1,0,0:0:0:0:
105,264,52140,1,0,0:0:0:0:
256,192,52560,12,0,53340,0:0:0:0:
256,192,53760,12,0,55200,0:0:0:0:
72,91,55680,5,0,0:0:0:0:
101,73,55740,1,0,0:0:0:0:
89,114,55800,1,0,0:0:0:0:
132,100,55860,1,0,0:0:0:0:
117,143,55920,1,0,0:0:0:0:
157,129,55980,1,0,0:0:0:0:
138,172,56040,1,0,0:0:0:0:
178,158,56100,1,0,0:0:0:0:
370,65,56400,5,0,0:0:0:0:
402,89,56460,1,0,0:0:0:0:
351,94,56520,1,0,0:0:0:0:
374,128,56580,1,0,0:0:0:0:
328,123,56640,1,0,0:0:0:0:
352,157,56700,1,0,0:0:0:0:
307,150,56760,1,0,0:0:0:0:
322,182,56820,1,0,0:0:0:0:
102,297,57120,5,0,0:0:0:0:
134,327,57180,1,0,0:0:0:0:
134,273,57240,1,0,0:0:0:0:
160,300,57360,1,0,0:0:0:0:
159,252,57420,1,0,0:0:0:0:
191,280,57480,1,0,0:0:0:0:
195,233,57540,1,0,0:0:0:0:
225,255,57600,1,0,0:0:0:0:
438,268,57900,1,0,0:0:0:0:
387,270,57960,1,0,0:0:0:0:
407,232,58020,1,0,0:0:0:0:
357,244,58080,1,0,0:0:0:0:
381,212,58140,1,0,0:0:0:0:
333,214,58200,1,0,0:0:0:0:
357,193,58260,1,0,0:0:0:0:
477,32,59520,5,0,0:0:0:0:
423,31,59580,1,0,0:0:0:0:
448,71,59640,1,0,0:0:0:0:
392,57,59700,1,0,0:0:0:0:
411,102,59820,1,0,0:0:0:0:
360,83,59880,1,0,0:0:0:0:
368,131,59940,1,0,0:0:0:0:
318,115,60000,1,0,0:0:0:0:
330,153,60060,1,0,0:0:0:0:
275,137,60120,1,0,0:0:0:0:
230,112,60180,1,0,0:0:0:0:
223,148,60240,1,0,0:0:0:0:
188,92,60300,1,0,0:0:0:0:
168,121,60420,1,0,0:0:0:0:
143,73,60480,1,0,0:0:0:0:
115,100,60540,1,0,0:0:0:0:
127,35,60600,1,0,0:0:0:0:
88,54,60660,1,0,0:0:0:0:
93,339,62160,5,0,0:0:0:0:
105,293,62220,1,0,0:0:0:0:
144,313,62280,1,0,0:0:0:0:
144,260,62340,1,0,0:0:0:0:
181,286,62400,1,0,0:0:0:0:
189,238,62460,1,0,0:0:0:0:
222,275,62520,1,0,0:0:0:0:
227,228,62640,1,0,0:0:0:0:
271,251,62700,1,0,0:0:0:0:
306,227,62760,1,0,0:0:0:0:
321,264,62880,1,0,0:0:0:0:
354,231,62940,1,0,0:0:0:0:
366,280,63000,1,0,0:0:0:0:
400,257,63060,1,0,0:0:0:0:
392,311,63180,1,0,0:0:0:0:
435,284,63240,1,0,0:0:0:0:
437,342,63300,1,0,0:0:0:0:
258,193,64320,1,0,0:0:0:0:
256,192,64800,12,0,66300,0:0:0:0:
462,332,67680,5,0,0:0:0:0:
425,296,67740,1,0,0:0:0:0:
385,259,67800,1,0,0:0:0:0:
345,214,67860,1,0,0:0:0:0:
306,179,67980,1,0,0:0:0:0:
259,156,68100,1,0,0:0:0:0:
221,184,68160,1,0,0:0:0:0:
187,210,68280,1,0,0:0:0:0:
158,235,68340,1,0,0:0:0:0:
127,259,68400,1,0,0:0:0:0:
97,285,68460,1,0,0:0:0:0:
70,312,68520,1,0,0:0:0:0:
430,40,70800,5,0,0:0:0:0:
400,70,70860,1,0,0:0:0:0:
360,104,70920,1,0,0:0:0:0:
237,193,70980,1,0,0:0:0:0:
277,162,71040,1,0,0:0:0:0:
318,134,71100,1,0,0:0:0:0:
211,158,71160,1,0,0:0:0:0:
176,138,71220,1,0,0:0:0:0:
145,116,71280,1,0,0:0:0:0:
108,89,71340,1,0,0:0:0:0:
78,54,71400,1,0,0:0:0:0:
57,33,71460,1,0,0:0:0:0:
251,44,72000,5,0,0:0:0:0:
196,66,72060,1,0,0:0:0:0:
147,110,72180,1,0,0:0:0:0:
105,170,72240,1,0,0:0:0:0:
125,239,72360,1,0,0:0:0:0:
175,290,72420,1,0,0:0:0:0:
242,325,72480,1,0,0:0:0:0:
310,292,72540,1,0,0:0:0:0:
361,242,72600,1,0,0:0:0:0:
373,171,72720,1,0,0:0:0:0:
346,116,72780,1,0,0:0:0:0:
298,72,72840,1,0,0:0:0:0:
37,136,73380,5,0,0:0:0:0:
95,90,73440,1,0,0:0:0:0:
163,60,73500,1,0,0:0:0:0:
236,99,73560,1,0,0:0:0:0:
288,176,73620,1,0,0:0:0:0:
378,231,73680,1,0,0:0:0:0:
448,188,73800,1,0,0:0:0:0:
469,92,73860,1,0,0:0:0:0:
71,217,74880,6,0,P|315:318|378:293,1,340
465,195,75840,1,0,0:0:0:0:
425,82,76320,2,0,P|49:105|36:114,1,382.5
43,217,77280,1,0,0:0:0:0:
88,326,77760,6,0,L|178:229,1,127.5
242,278,78060,2,0,L|178:362,1,85
285,353,78360,2,0,L|372:218,1,127.5
428,269,78660,2,0,L|375:368,1,85
106,55,80160,5,0,0:0:0:0:
94,111,80220,1,0,0:0:0:0:
149,93,80280,1,0,0:0:0:0:
126,152,80340,1,0,0:0:0:0:
185,137,80400,1,0,0:0:0:0:
175,193,80460,1,0,0:0:0:0:
232,175,80580,1,0,0:0:0:0:
219,235,80640,1,0,0:0:0:0:
268,215,80700,1,0,0:0:0:0:
264,268,80760,1,0,0:0:0:0:
264,268,81120,5,0,0:0:0:0:
271,212,81180,1,0,0:0:0:0:
219,235,81300,1,0,0:0:0:0:
232,175,81360,1,0,0:0:0:0:
175,193,81420,1,0,0:0:0:0:
193,140,81540,1,0,0:0:0:0:
140,153,81600,1,0,0:0:0:0:
172,103,81660,1,0,0:0:0:0:
118,109,81720,1,0,0:0:0:0:
256,192,82560,12,0,85260,0:0:0:0:
255,346,85980,5,0,0:0:0:0:
309,324,86040,1,0,0:0:0:0:
340,301,86100,1,0,0:0:0:0:
364,271,86160,1,0,0:0:0:0:
385,229,86220,1,0,0:0:0:0:
394,185,86280,1,0,0:0:0:0:
397,137,86340,1,0,0:0:0:0:
389,85,86400,1,0,0:0:0:0:
363,48,86460,1,0,0:0:0:0:
320,27,86520,1,0,0:0:0:0:
277,32,86580,1,0,0:0:0:0:
231,59,86640,1,0,0:0:0:0:
213,108,86700,1,0,0:0:0:0:
304,140,87000,5,0,0:0:0:0:
261,184,87060,1,0,0:0:0:0:
225,212,87120,1,0,0:0:0:0:
186,241,87180,1,0,0:0:0:0:
159,253,87240,1,0,0:0:0:0:
111,255,87300,1,0,0:0:0:0:
81,225,87360,1,0,0:0:0:0:
53,139,87480,1,0,0:0:0:0:
71,107,87540,1,0,0:0:0:0:
104,70,87600,1,0,0:0:0:0:
142,52,87660,1,0,0:0:0:0:
177,39,87720,1,0,0:0:0:0:
252,34,88320,5,0,0:0:0:0:
254,108,88380,1,0,0:0:0:0:
254,191,88440,1,0,0:0:0:0:
156,192,88500,1,0,0:0:0:0:
349,195,88620,1,0,0:0:0:0:
453,197,88680,1,0,0:0:0:0:
257,359,89280,5,0,0:0:0:0:
253,273,89340,1,0,0:0:0:0:
255,201,89400,1,0,0:0:0:0:
351,204,89460,1,0,0:0:0:0:
454,209,89520,1,0,0:0:0:0:
157,199,89580,1,0,0:0:0:0:
62,198,89640,1,0,0:0:0:0:
106,337,90720,5,0,0:0:0:0:
37,192,90780,1,0,0:0:0:0:
126,76,90840,1,0,0:0:0:0:
245,146,90900,1,0,0:0:0:0:
358,265,90960,1,0,0:0:0:0:
467,122,91020,1,0,0:0:0:0:
374,32,91080,1,0,0:0:0:0:
455,322,91740,5,0,0:0:0:0:
480,163,91800,1,0,0:0:0:0:
376,75,91860,1,0,0:0:0:0:
270,149,91920,1,0,0:0:0:0:
138,265,91980,1,0,0:0:0:0:
37,121,92040,1,0,0:0:0:0:
161,29,92100,1,0,0:0:0:0:
256,192,92400,12,0,94260,0:0:0:0:
