osu file format v8

[General]
AudioFilename: Alan Luo - Zhen Ming Tian Zi.mp3
AudioLeadIn: 0
PreviewTime: 52746
Countdown: 1
SampleSet: Soft
StackLeniency: 0.7
Mode: 0
LetterboxInBreaks: 1

[Editor]
DistanceSpacing: 1
BeatDivisor: 4
GridSize: 8

[Metadata]
Title:Zhen Ming Tian Zi
Artist:Alan Luo Feat. Jolin Tsai
Creator:_llkey_18
Version:Normal
Source:
Tags:Show

[Difficulty]
HPDrainRate:2
CircleSize:3
OverallDifficulty:2
ApproachRate:3
SliderMultiplier:0.7
SliderTickRate:1

[Events]
//Background and Video events
0,0,"031318.jpg"
//Break Periods
2,63387,72174
2,115235,126954
//Storyboard Layer 0 (Background)
//Storyboard Layer 1 (Fail)
//Storyboard Layer 2 (Pass)
//Storyboard Layer 3 (Foreground)
//Storyboard Sound Samples
//Background Colour Transformations
3,100,163,162,255

[TimingPoints]
11014,326.086956521739,4,1,0,25,1,0
52664,-100,4,1,0,25,0,0
52746,-100,4,1,0,25,0,1
61549,-100,4,1,0,25,0,0
94401,-100,4,1,0,25,0,0
94483,-100,4,1,0,25,0,1
114047,-100,4,1,0,25,0,0
128312,-100,4,2,0,25,0,0

[Colours]
Combo1 : 255,255,55
Combo2 : 128,255,128
Combo3 : 255,128,64
Combo4 : 255,108,108
SliderBorder : 255,255,55

[HitObjects]
328,192,11013,1,4
448,112,11666,1,0
376,112,11992,1,0
304,112,12318,2,0,C|152:112,1,140,0|8
80,224,13622,5,4
216,224,14274,1,0
216,296,14600,2,0,B|144:296,3,70,0|0|8|8
288,296,16231,5,4
280,160,16883,2,0,B|352:160,1,70,0|0
416,160,17535,1,0
416,88,17861,1,8
344,88,18187,1,8
256,192,18513,12,0,20144
256,184,20796,5,0
184,168,21122,2,0,B|216:104|320:88|384:120,2,210
312,232,23731,1,0
384,232,24057,2,0,B|232:232,1,140
176,232,25035,2,0,B|96:232,1,70
232,168,26014,5,0
296,144,26340,2,0,B|224:56|120:96|120:144,2,210
288,280,28948,2,0,B|368:280,1,70
416,240,29600,1,8
416,168,29927,1,0
416,168,30090,2,0,B|224:168,1,175,8|0
160,56,31557,5,0
112,104,31883,1,8
64,160,32209,2,0,B|24:280|272:296,1,280,8|0
360,200,34166,1,0
288,200,34492,2,0,B|288:120,1,70,0|8
288,64,35144,2,0,B|360:64,2,70
176,144,36448,5,8
176,216,36774,1,0
176,288,37100,2,0,B|240:328|336:320|384:288,2,210
96,176,39709,2,0,B|176:176,1,70,0|8
232,176,40361,1,0
304,176,40687,1,0
376,176,41013,1,0
368,104,41340,6,0,B|296:104,3,70,8|8|0|0
256,192,42644,12,0,44274
256,192,44927,5,4
392,192,45579,1,8
392,120,45905,1,0
392,48,46231,1,0
320,48,46557,6,0,B|320:128,3,70,8|8|0|0
256,192,47861,12,0,49492
256,192,50144,5,4
120,192,50796,1,8
120,120,51122,1,0
120,48,51448,1,0
360,192,52753,6,0,B|320:192,1,35
256,192,53242,2,0,B|208:192,1,35
152,192,53731,2,0,B|104:192,1,35,0|8
56,112,54383,1,8
56,112,54709,1,8
176,40,55361,6,0,B|216:40,1,35
176,96,55850,2,0,B|224:96,1,35
176,160,56340,2,0,B|224:160,1,35,8|8
312,128,56992,2,8,B|312:208,1,70
184,248,57970,6,0,B|136:248,1,35
152,176,58459,1,8
152,176,58622,1,8
80,176,58948,2,0,B|32:176,1,35
104,88,59600,6,0,B|24:88,2,70,8|8|0
256,192,60579,12,0,63187
288,192,73622,5,4
184,192,74111,1,8
184,120,74437,1,8
112,120,74763,1,8
112,120,74927,1,8
40,120,75253,1,8
40,256,75905,5,8
112,256,76231,2,0,B|264:256,1,140
256,184,77209,1,0
256,112,77535,1,0
392,112,78187,5,8
392,40,78513,1,4
320,48,78840,2,0,B|256:64|224:128|216:176,2,175
328,184,81122,5,0
328,256,81448,2,0,B|448:256,2,105
328,256,82753,1,0
256,256,83079,2,0,B|184:256,3,70,8|8|0|0
256,192,84383,12,0,86013
328,192,86666,5,4
192,192,87318,1,8
120,192,87644,1,0
48,192,87970,1,0
56,120,88296,6,0,B|136:120,3,70,8|8|0|0
256,192,89600,12,0,91231
256,120,91883,5,4
376,192,92535,1,8
376,120,92861,1,0
376,48,93187,1,0
112,136,94492,6,0,B|112:176,1,35
176,136,94981,2,0,B|176:176,1,35
240,136,95470,2,0,B|240:184,1,35,0|8
336,136,96122,1,8
336,136,96448,1,8
464,72,97100,6,0,B|464:120,1,35
464,176,97590,2,8,B|464:216,1,35
464,280,98079,2,0,B|464:328,1,35
368,272,98731,2,8,B|304:232,1,70
176,184,99709,6,0,B|224:184,1,35
192,120,100198,2,0,B|232:120,1,35
208,56,100687,2,0,B|256:56,1,35,0|8
336,96,101340,1,8
336,96,101666,1,8
424,208,102318,6,0,B|384:208,1,35
320,208,102807,2,8,B|272:208,1,35
216,208,103296,2,0,B|176:208,1,35,0|0
128,120,103948,2,8,B|64:80,1,70
256,192,104927,12,0,106231
128,184,107535,6,0,B|176:184,1,35
232,184,108024,1,8
232,184,108187,1,8
304,184,108513,2,0,B|352:184,1,35
304,88,109166,2,8,B|384:88,1,70
216,80,110144,5,0
216,80,110307,1,0
144,80,110633,2,8,B|96:80,1,35
40,80,111122,2,0,B|40:128,1,35
88,208,111774,2,0,B|240:208,1,140,8|0
256,192,112753,12,4,115035
384,144,128405,5,2
384,72,128731,1,8
312,72,129057,1,2
240,72,129383,1,2
168,72,129709,2,0,B|168:152,3,70,2|8|8|2
168,208,131013,5,2
168,280,131340,1,8
240,280,131666,1,2
312,280,131992,1,2
384,280,132318,2,0,B|448:256|456:208|464:168|456:136|432:104,1,210,2|2
360,104,133622,5,2
288,104,133948,1,8
216,104,134274,2,0,B|144:104,1,70,2|2
152,176,134927,5,2
152,248,135253,1,8
152,320,135579,1,8
152,248,135905,1,2
224,248,136231,6,0,B|296:248,3,70,2|8|2|2
128,152,138840,5,2
56,152,139166,1,8
128,152,139492,1,2
200,152,139818,1,2
200,80,140144,6,0,B|272:80,3,70,2|8|8|2
344,80,141448,2,0,B|344:152,1,70,2|8
344,216,142100,2,0,B|424:216,1,70,2|2
416,288,142753,2,0,B|384:328|312:320|240:320|208:280,1,210,2|2
216,224,144057,5,2
216,152,144383,1,8
216,80,144709,1,2
216,152,145035,1,2
288,152,145361,2,0,B|368:152,1,70,2|8
424,184,146013,2,0,B|424:104,1,70,8|2
384,56,146666,6,0,B|464:56,3,70,2|8|2|2
384,56,147970,1,2
312,56,148296,1,8
240,56,148622,1,0
240,192,149274,1,4
