osu file format v8

[General]
AudioFilename: Alan Luo - Zhen Ming Tian Zi.mp3
AudioLeadIn: 0
PreviewTime: 52746
Countdown: 1
SampleSet: Normal
StackLeniency: 0.7
Mode: 0
LetterboxInBreaks: 1

[Editor]
DistanceSpacing: 1.2
BeatDivisor: 4
GridSize: 8

[Metadata]
Title:Zhen Ming Tian Zi
Artist:Alan Luo Feat. Jolin Tsai
Creator:_llkey_18
Version:Insane
Source:
Tags:Show

[Difficulty]
HPDrainRate:7
CircleSize:4
OverallDifficulty:7
ApproachRate:8
SliderMultiplier:1.7
SliderTickRate:1

[Events]
//Background and Video events
0,0,"031318.jpg"
//Break Periods
2,115235,127494
//Storyboard Layer 0 (Background)
//Storyboard Layer 1 (Fail)
//Storyboard Layer 2 (Pass)
//Storyboard Layer 3 (Foreground)
//Storyboard Sound Samples
//Background Colour Transformations
3,100,163,162,255

[TimingPoints]
11014,326.086956521739,4,1,0,25,1,0
52664,-100,4,1,0,25,0,0
52746,-100,4,1,0,25,0,1
61475,-100,4,2,0,25,0,1
61883,-100,4,2,0,25,0,0
63017,-100,4,1,0,25,0,0
94401,-100,4,1,0,25,0,0
94483,-100,4,1,0,25,0,1
115188,-100,4,1,0,25,0,0
128312,-100,4,2,0,25,0,0

[Colours]
Combo1 : 255,255,55
Combo2 : 128,255,128
Combo3 : 255,128,64
Combo4 : 255,108,108
SliderBorder : 255,255,55

[HitObjects]
192,176,11013,1,4
360,176,11340,5,8
360,176,11503,1,0
360,176,11666,2,0,B|464:176,1,85,0|8
400,104,11992,1,0
312,104,12155,1,8
224,104,12318,1,0
224,192,12481,1,8
224,192,12644,1,8
136,192,12807,1,0
136,192,12970,2,0,C|320:192,1,170,8|0
176,296,13622,5,4
344,296,13948,5,8
392,224,14111,1,0
440,152,14274,1,0
440,64,14437,1,8
440,64,14600,2,0,B|344:64,1,85,0|8
272,64,14927,2,0,B|384:64,1,85,0|0
296,128,15253,2,0,B|400:128,1,85,8|0
296,128,15579,1,8
128,160,15905,5,4
256,272,16231,5,0
256,184,16394,1,0
256,272,16557,1,8
256,184,16720,2,0,B|256:80,1,85
168,96,17046,2,0,B|168:184,1,85,8|0
168,264,17372,1,8
168,264,17535,1,0
56,200,17698,2,0,B|144:200,1,85,8|8
224,200,18024,1,0
312,200,18187,1,8
256,192,18513,12,0,20144
96,200,20796,6,0,B|200:200,1,85
152,120,21122,2,0,B|256:120,1,85
296,176,21448,1,0
360,232,21611,1,0
424,176,21774,1,8
424,88,21937,2,0,B|320:88,1,85
256,88,22264,1,8
256,88,22427,1,0
192,144,22590,1,8
192,144,22753,1,0
128,88,22916,2,0,B|128:200,2,85,8|8|0
48,112,23405,6,0,B|48:208,1,85,8|0
104,264,23731,2,0,B|-8:264,2,85,0|0|4
192,264,24220,1,0
192,264,24383,1,8
280,264,24546,1,0
280,264,24709,1,0
232,192,24872,2,0,B|232:104,1,85,8|0
320,104,25198,2,0,B|320:192,1,85,8|4
56,112,26014,6,0,B|160:112,1,85
224,112,26340,1,0
224,112,26503,1,0
224,200,26666,2,0,B|224:104,1,85
312,112,26992,1,8
400,112,27155,2,0,B|496:112,2,85,8|0|8
312,112,27644,1,0
312,112,27807,1,8
312,200,27970,1,0
312,200,28133,1,8
312,288,28296,1,8
312,288,28459,2,0,B|208:288,1,85,0|8
96,184,28948,6,0,B|208:184,1,85
168,104,29274,2,0,B|264:104,1,85
336,104,29600,1,8
424,104,29764,2,0,B|536:104,2,85,0|0|8
336,104,30253,1,0
336,104,30416,1,8
336,104,30579,2,0,B|336:280,1,170
192,192,31231,5,4
48,104,31557,6,0,B|160:56,1,85,0|0
200,112,31883,1,8
200,112,32046,1,0
272,72,32209,1,8
272,72,32372,1,0
336,128,32535,2,0,B|336:216,1,85,0|8
264,264,32861,1,0
192,224,33024,1,8
120,264,33187,1,0
48,224,33350,1,8
88,144,33514,2,0,B|176:144,1,85,8|0
256,144,33840,2,0,B|352:144,2,85,8|0|0
416,224,34492,5,0
416,224,34655,1,0
328,224,34818,1,8
328,224,34981,1,0
240,224,35144,2,0,B|240:128,1,85,0|8
296,80,35470,2,0,B|384:80,1,85,0|8
296,80,35796,2,0,B|200:80,1,85
128,80,36122,2,0,B|16:80,2,85,8|0|8
128,168,36611,5,0
128,256,36774,1,0
128,344,36937,1,0
128,256,37100,2,0,B|304:256,1,170,8|8
296,168,37590,1,0
296,168,37753,1,0
368,120,37916,1,8
368,120,38079,2,0,B|480:120,2,85,0|8|0
296,72,38568,1,8
296,72,38731,1,8
224,120,38894,1,0
224,120,39057,1,8
80,328,39383,5,0
88,56,39709,1,4
200,184,40035,5,8
200,184,40198,1,0
288,184,40361,1,0
288,184,40524,1,8
304,264,40687,2,0,B|400:264,1,85,0|8
368,184,41013,2,0,B|464:184,2,85,0|0|8
368,96,41503,5,0
368,96,41666,1,8
368,96,41829,1,0
280,96,41992,2,0,B|176:96,1,85
196,95,42318,1,4
256,192,42807,12,0,44274
96,192,44600,5,0
408,192,44927,1,4
240,192,45253,5,8
240,192,45416,1,0
240,104,45579,1,0
240,104,45742,1,8
240,16,45905,1,0
240,16,46068,1,8
168,64,46231,1,0
64,200,46557,6,0,B|64:112,1,85,8|0
136,160,46883,2,0,B|136:272,1,85,8|0
216,224,47209,2,0,B|216:120,2,85
256,192,48024,12,0,49492
160,72,49818,5,0
160,328,50144,1,4
248,184,50470,6,0,B|352:184,1,85,8|0
384,112,50796,1,0
384,112,50959,1,8
328,48,51122,2,0,B|224:48,1,85,0|8
240,48,51448,1,0
104,152,51774,6,0,B|208:152,4,85
272,152,52753,5,0
272,152,52916,1,0
360,152,53079,1,8
360,152,53242,2,0,B|360:240,1,85
360,152,53568,2,0,B|360:64,1,85,8|0
272,64,53894,1,8
272,64,54057,1,0
184,64,54220,1,8
184,64,54383,1,8
96,64,54546,2,0,B|96:152,3,85,0|8|0|0
264,192,55361,6,0,B|264:288,1,85,4|0
176,280,55687,2,0,B|176:168,1,85,8|0
216,120,56013,1,0
216,120,56177,1,8
304,120,56340,1,0
304,120,56503,2,0,B|408:120,1,85,8|0
480,264,56992,6,0,B|480:80,2,170,8|8|0
320,208,57970,5,0
320,208,58133,1,0
256,152,58296,1,8
256,152,58459,1,0
168,152,58622,1,0
168,152,58785,2,0,B|80:152,1,85,8|0
88,240,59111,2,0,B|184:240,1,85,8|0
264,240,59437,1,8
264,240,59600,1,8
352,240,59763,1,0
352,240,59927,1,8
352,240,60090,2,0,B|352:344,1,85
416,136,60579,6,0,B|328:56,1,85
352,80,60905,1,8
232,88,61068,2,0,B|136:88,1,85
146,88,61394,1,8
96,176,61557,5,2
184,176,61720,1,8
272,176,61883,1,2
184,32,62209,1,2
272,32,62372,1,2
184,32,62535,1,2
272,32,62698,1,2
272,120,62861,1,2
424,192,63187,5,4
288,296,63513,5,8
200,296,63677,1,0
200,128,64003,1,8
200,128,64166,1,0
144,192,64329,1,8
144,192,64492,1,0
88,128,64655,1,8
88,128,64818,1,8
32,192,64981,1,0
32,192,65144,1,8
176,288,65470,5,0
304,176,65796,1,4
472,176,66122,5,8
384,176,66285,1,0
424,8,66611,1,8
424,8,66774,1,0
424,96,66937,1,8
424,96,67100,1,0
336,96,67263,2,0,B|240:96,1,85,0|8
168,96,67590,1,0
80,96,67753,2,0,B|80:200,1,85,8|0
136,248,68079,2,0,C|136:48,1,170
288,160,68731,5,8
288,160,68894,2,0,B|384:160,1,85
456,160,69220,1,8
456,160,69383,1,0
416,88,69546,1,8
416,88,69709,1,0
344,40,69872,1,8
344,40,70035,1,8
272,88,70198,2,0,B|176:88,1,85,0|8
216,256,70687,6,0,B|328:256,2,85
128,256,71177,1,0
128,168,71340,1,8
216,168,71503,2,0,B|320:168,2,85,0|0|8
216,80,71992,1,0
216,80,72155,1,8
216,80,72318,2,0,B|392:80,1,170,0|8
384,80,72807,1,0
384,80,72970,1,8
360,248,73296,5,0
64,248,73622,1,4
216,112,73948,1,0
304,112,74111,1,8
472,112,74437,1,8
128,112,74763,1,8
128,112,74927,1,8
128,344,75253,1,8
232,208,75579,5,0
232,208,75742,1,0
320,208,75905,1,8
320,208,76068,1,0
288,128,76231,2,0,B|392:128,1,85
352,48,76557,2,0,B|256:48,1,85,8|0
200,104,76883,1,0
200,104,77046,1,8
144,168,77209,1,0
144,168,77372,1,8
144,272,77535,1,0
304,224,77861,6,8,B|184:224,2,85,8|0|8
272,56,78513,5,0
440,56,78840,1,4
368,208,79166,5,8
368,120,79329,1,0
368,208,79492,1,0
368,120,79655,1,8
296,168,79818,1,0
208,168,79981,1,8
208,168,80144,2,0,B|96:168,1,85,0|8
120,256,80470,1,8
120,256,80633,2,0,B|224:256,1,85,0|8
88,136,81122,5,0
232,40,81448,1,4
368,136,81774,5,8
368,136,81937,1,0
368,224,82100,1,0
368,224,82263,1,8
296,184,82427,1,0
208,184,82590,1,8
120,184,82753,1,0
48,136,82916,2,0,B|48:232,2,85,0|8|0
120,184,83405,1,8
120,184,83568,1,0
120,184,83731,2,0,B|320:184,1,170
256,192,84546,12,0,86013
88,192,86340,5,0
368,192,86666,1,8
224,288,86992,5,8
312,288,87155,2,0,B|440:288,2,85,0|0|8
224,288,87644,1,0
224,200,87807,1,8
224,200,87970,1,0
88,104,88296,5,8
88,104,88459,1,0
176,104,88622,1,8
176,104,88785,1,0
264,104,88948,2,0,B|360:104,1,85
348,102,89274,1,0
256,192,89763,12,0,91231
200,280,91557,5,0
384,64,91883,1,4
216,104,92209,5,8
216,104,92372,1,0
280,160,92535,1,0
280,160,92698,1,8
344,216,92861,1,0
344,216,93024,1,8
408,160,93187,1,0
184,160,93513,6,0,B|0:160,2,170
336,80,94492,5,0
336,80,94655,2,0,B|336:184,1,85,0|8
248,168,94981,1,0
248,168,95144,1,0
336,168,95307,1,8
336,168,95470,2,0,B|336:264,2,85,0|8|0
168,168,96122,5,8
80,168,96285,1,0
80,80,96448,2,0,B|176:80,1,85,8|0
248,80,96774,2,0,B|360:80,1,85
408,120,97100,5,0
408,208,97263,1,0
496,208,97427,1,8
496,120,97590,1,0
496,208,97753,1,0
496,296,97916,1,8
496,296,98079,1,0
408,296,98242,1,8
408,296,98405,1,0
272,192,98731,6,0,B|392:192,3,85,8|0|8|0
128,80,99709,6,0,B|232:80,1,85,4|0
216,80,100035,1,8
216,168,100198,1,0
216,168,100361,1,0
128,168,100524,1,8
128,168,100687,1,0
128,256,100850,1,8
128,256,101013,2,0,B|240:256,1,85,0|8
296,256,101340,1,8
344,184,101503,1,0
432,184,101666,1,8
432,184,101829,2,0,B|432:96,1,85
264,72,102318,6,0,B|352:72,1,85
264,72,102644,2,0,B|176:72,1,85,8|0
120,136,102970,1,0
120,136,103133,1,8
176,200,103296,2,0,B|288:200,1,85,0|8
304,272,103622,2,0,B|424:272,1,85
424,192,103948,2,0,B|424:72,2,85,8|0|8
88,120,104927,5,4
176,120,105090,1,0
176,120,105253,2,0,B|176:240,1,85,8|0
248,160,105579,1,0
336,160,105742,1,8
336,160,105905,2,0,B|336:280,1,85,0|8
88,304,106557,5,8
88,216,106720,1,0
88,216,106883,2,0,B|176:216,2,85,8|0|0
208,96,107535,5,0
296,96,107698,1,0
384,96,107861,2,0,B|488:96,2,85,8|0|0
384,184,108350,1,8
384,184,108513,1,0
384,272,108677,1,8
384,272,108840,1,0
224,216,109166,6,0,B|104:216,3,85,8|0|8|0
304,16,110144,5,4
304,16,110307,1,0
304,104,110470,1,8
304,104,110633,2,0,B|216:104,2,85,0|0|8
392,104,111122,1,0
392,104,111285,1,8
392,192,111448,1,0
392,192,111611,1,8
312,232,111774,2,0,B|312:328,4,85,8|0|8|0|0
160,160,112753,6,0,B|248:160,1,85
192,88,113079,2,0,B|280:88,1,85,8|0
360,88,113405,2,0,B|456:88,1,85,0|8
488,160,113731,2,0,B|368:160,2,85,0|8|0
344,256,114383,1,8
344,256,114546,1,0
344,256,114709,1,8
344,256,115035,1,4
352,112,128405,5,2
352,112,128568,1,2
264,112,128731,1,8
264,112,128894,1,2
192,160,129057,2,0,B|160:192|192:248,2,85,2|8|2
192,72,129546,5,8
192,72,129709,1,2
104,72,129872,1,8
104,72,130035,1,8
48,136,130198,1,2
48,136,130361,1,8
104,200,130524,2,0,B|120:240|184:232,1,85,2|0
344,208,131013,5,2
344,208,131177,1,2
344,208,131340,1,8
408,152,131503,2,0,B|432:112|400:72,1,85,2|2
320,96,131829,1,8
232,96,131992,1,2
256,192,132318,12,8,133296
344,120,133622,5,2
344,120,133785,1,2
256,120,133948,1,8
256,120,134111,2,0,B|208:136|208:192,2,85,2|2|8
288,200,134600,1,2
288,200,134763,1,8
376,200,134927,5,2
376,200,135090,1,8
464,200,135253,1,8
464,200,135416,1,2
416,128,135579,2,0,B|424:80|392:48,2,85,8|2|2
424,296,136231,5,2
424,296,136394,1,2
424,296,136557,1,8
336,296,136720,2,0,B|288:344|248:280,2,85,2|2|8
336,208,137209,1,2
200,104,137535,6,0,B|208:160|144:168,1,85,2|2
88,200,137861,2,0,B|72:264|120:296,1,85,8|2
184,280,138187,5,8
288,200,138432,1,0
352,88,138677,1,0
352,88,138840,5,2
264,88,139003,1,2
264,88,139166,1,8
176,88,139329,1,2
176,88,139492,2,0,B|128:128|160:192,2,85,2|8|2
224,160,139981,1,8
224,160,140144,5,2
288,216,140307,1,8
288,216,140470,1,8
224,272,140633,2,0,B|256:312|304:304,1,85,2|8
384,296,140959,2,0,B|440:288|456:224,1,85,2|2
440,80,141448,5,2
440,80,141611,2,0,B|384:56|328:96,1,85,2|8
272,80,141937,1,2
272,80,142100,1,2
184,80,142263,1,8
184,80,142427,1,2
256,192,142753,12,0,143731
80,176,144057,6,0,B|88:224|136:240,1,85,2|2
152,104,144383,2,0,B|208:104|216:184,1,85,8|2
272,280,144709,2,0,B|312:320|368:288,1,85,2|8
424,184,145035,1,2
152,104,145361,6,0,B|192:72|256:88,1,85,2|2
200,216,145687,2,0,B|264:224|280:152,1,85,8|2
368,80,146013,2,0,B|424:96|432:152,1,85,8|2
336,232,146340,1,2
144,168,146666,5,2
144,168,146829,1,2
144,256,146992,1,8
144,256,147155,1,2
232,256,147318,1,2
320,256,147481,1,8
384,192,147644,1,2
112,96,147970,6,0,B|144:48|216:56,1,85,2|2
256,192,148296,2,0,B|304:176|336:112,1,85,8|2
368,72,148622,5,8
464,192,148867,1,0
368,312,149111,1,0
256,192,149274,5,4
