osu file format v8

[General]
AudioFilename: Alan Luo - Zhen Ming Tian Zi.mp3
AudioLeadIn: 0
PreviewTime: 52746
Countdown: 1
SampleSet: Normal
StackLeniency: 0.7
Mode: 0
LetterboxInBreaks: 1

[Editor]
DistanceSpacing: 0.7
BeatDivisor: 4
GridSize: 8

[Metadata]
Title:Zhen Ming Tian Zi
Artist:Alan Luo Feat. Jolin Tsai
Creator:_llkey_18
Version:Easy
Source:
Tags:Show

[Difficulty]
HPDrainRate:1
CircleSize:3
OverallDifficulty:1
ApproachRate:1
SliderMultiplier:0.7
SliderTickRate:1

[Events]
//Background and Video events
0,0,"031318.jpg"
//Break Periods
2,63387,71942
//Storyboard Layer 0 (Background)
//Storyboard Layer 1 (Fail)
//Storyboard Layer 2 (Pass)
//Storyboard Layer 3 (Foreground)
//Storyboard Sound Samples
//Background Colour Transformations
3,100,163,162,255

[TimingPoints]
11014,326.086956521739,4,1,0,25,1,0
52664,-100,4,1,0,25,0,0
52746,-100,4,1,0,25,0,1
61549,-100,4,1,0,25,0,0
94401,-100,4,1,0,25,0,0
94483,-100,4,1,0,25,0,1
114047,-100,4,1,0,25,0,0

[Colours]
Combo1 : 255,255,55
Combo2 : 128,255,128
Combo3 : 255,128,64
Combo4 : 255,108,108
SliderBorder : 255,255,55

[HitObjects]
168,192,11013,1,4
264,192,11666,1,0
328,120,12318,2,0,C|176:120,1,140,0|8
104,168,13622,5,4
104,264,14274,1,0
104,168,14927,2,0,B|32:168,2,70,0|8|8
200,168,16231,5,4
296,168,16883,2,0,B|376:168,1,70
416,88,17861,1,8
416,88,18187,1,8
256,192,18840,12,0,20796
256,296,21448,6,0,B|288:232|392:216|424:168,2,210
184,232,24057,1,0
120,152,24709,2,0,B|48:152,2,70
200,88,26013,6,0,B|280:64|344:80|400:184,2,245
224,184,28948,1,0
224,184,29274,1,0
264,272,29927,2,0,B|208:296|136:312|80:280|56:256,1,210
112,168,31557,5,0
112,168,31883,2,0,B|160:88|248:72|328:64|376:88|432:112,1,350,8|8
424,208,34166,2,0,B|400:248|368:272|336:272|320:264|304:264,1,140,0|8
232,200,35470,1,0
232,200,35796,1,0
152,144,36448,5,8
152,144,36774,2,0,B|96:224|144:296|208:320|272:304|256:312,2,245,0|0|8
208,64,39709,6,0,B|272:32|328:48|352:72,1,140
344,112,40687,1,0
344,160,41013,1,0
344,256,41666,2,0,B|424:256,2,70,0|0|4
256,192,42644,12,0,44274
200,184,44927,5,4
296,184,45579,1,8
392,184,46231,1,0
392,184,46557,2,0,B|392:264,3,70,8|8|0|0
256,192,47861,12,0,49492
216,192,50144,5,4
120,192,50796,1,8
24,192,51448,1,0
200,96,52753,6,0,B|48:96,2,140
248,96,54383,2,0,B|320:96,1,70,8|8
320,192,55361,6,0,B|464:192,2,140
272,192,56992,2,0,B|192:192,1,70,8|8
200,288,57970,6,0,B|48:288,2,140
248,288,59600,2,0,B|320:288,2,70,8|8|0
256,192,60579,12,0,63187
352,104,73622,5,4
296,208,74437,1,8
296,208,74763,1,8
224,208,75253,1,8
224,112,75905,5,8
224,112,76231,2,0,B|176:80|112:88|96:120,1,140
32,192,77535,1,0
80,272,78187,5,8
80,272,78513,2,0,B|80:256|136:288|192:328|272:320|288:312,2,210,0|0|8
160,208,81122,5,0
208,208,81448,2,0,B|328:208,2,105
160,208,82753,1,0
232,80,83731,5,0
280,80,84057,1,0
256,192,84383,12,0,86013
352,192,86666,5,4
256,192,87318,1,8
160,192,87970,1,0
160,192,88296,2,0,B|160:120,3,70,8|8|0|0
256,192,89600,12,0,91231
184,192,91883,5,4
280,192,92535,1,8
376,192,93187,1,0
200,112,94492,6,0,B|344:112,1,140
440,112,95796,1,0
440,112,96122,2,0,B|440:192,1,70,8|8
384,264,97100,6,0,B|240:264,1,140
144,264,98405,1,0
144,264,98731,2,0,B|144:192,1,70,8|8
224,136,99709,6,0,B|80:136,2,140
272,136,101340,2,0,B|352:136,1,70,8|8
344,232,102318,6,0,B|488:232,2,140
296,232,103948,2,8,B|216:232,1,70
224,136,104927,6,0,B|72:136,1,140
152,64,106231,1,0
200,64,106557,2,0,B|280:64,1,70,8|8
336,136,107535,6,0,B|336:280,2,140
336,88,109166,2,8,B|256:88,1,70
208,168,110144,5,0
112,168,110796,1,0
16,168,111448,1,0
16,168,111774,2,0,B|16:312,1,140,8|0
256,192,112753,12,4,115035
