osu file format v13

[General]
AudioFilename: Alan Fernando V. - Este Sueno (TV Size).mp3
AudioLeadIn: 0
PreviewTime: 19463
Countdown: 0
SampleSet: Soft
StackLeniency: 0.4
Mode: 0
LetterboxInBreaks: 0
WidescreenStoryboard: 0

[Editor]
DistanceSpacing: 1.1
BeatDivisor: 4
GridSize: 4
TimelineZoom: 1

[Metadata]
Title:Este Sueno
TitleUnicode:Este Sueño
Artist:Alan Fernando V.
ArtistUnicode:Alan Fernando V.
Creator:Gero
Version:Dificil
Source:Pokemon: Reto Maximo
Tags:Pocket Monster ポケットモンスター Pokemon: Advanced Challenge This Dream Pocket Monster [Yue]
BeatmapID:341934
BeatmapSetID:136656

[Difficulty]
HPDrainRate:7
CircleSize:4
OverallDifficulty:7
ApproachRate:8
SliderMultiplier:1.6
SliderTickRate:2

[Events]
//Background and Video events
0,0,"BG.jpg",0,0
Video,-1173,"Video.avi"
//Break Periods
//Storyboard Layer 0 (Background)
//Storyboard Layer 1 (Fail)
//Storyboard Layer 2 (Pass)
//Storyboard Layer 3 (Foreground)
//Storyboard Sound Samples
//Background Colour Transformations
3,100,163,162,255

[TimingPoints]
934,320.410124959949,4,2,1,80,1,0
7582,-100,4,2,2,60,0,0
7742,-100,4,2,1,80,0,0
20158,-90.9090909090909,4,2,1,80,0,1
35538,-90.9090909090909,4,2,1,80,0,0
43909,476.190476190476,4,2,1,80,1,0
43909,-66.6666666666667,4,2,1,80,0,0

[Colours]
Combo1 : 148,39,121
Combo2 : 171,220,97
Combo3 : 255,64,64
Combo4 : 0,64,128
Combo5 : 50,150,231
Combo6 : 135,230,237
Combo7 : 255,255,0
Combo8 : 255,128,0

[HitObjects]
212,230,934,6,0,P|183:302|212:374,1,160,6|0,0:0|0:0,2:0:0:0:
300,374,1414,2,0,P|329:301|300:229,1,160,6|2,0:0|2:0,2:0:0:0:
256,151,1895,5,12,0:0:0:0:
234,142,1975,1,8,0:0:0:0:
212,133,2055,1,8,0:0:0:0:
188,123,2135,1,8,0:0:0:0:
166,114,2215,1,12,0:0:0:0:
83,82,2375,1,0,0:0:0:0:
63,168,2536,2,0,B|63:210|63:210|37:237,1,80,8|0,0:0|0:0,0:0:0:0:
56,323,2856,6,0,P|72:358|109:379,2,80,2|0|10,0:0|0:0|0:0,0:0:0:0:
140,298,3337,1,0,0:0:0:0:
222,267,3497,2,0,B|222:199|290:199|290:127,1,160,2|8,0:0|0:0,0:0:0:0:
222,127,3977,2,0,B|222:199|290:199|290:267,1,160,2|2,0:0|0:0,0:0:0:0:
372,298,4458,1,10,0:0:0:0:
455,323,4618,1,2,0:0:0:0:
455,323,4778,2,0,B|465:275|432:238|432:238|465:175,1,160,2|8,0:0|0:0,0:0:0:0:
507,100,5259,5,0,0:0:0:0:
434,50,5419,2,0,P|395:22|363:22,1,80
300,80,5740,2,0,P|330:105|369:108,2,80,8|2|0,0:0|0:0|0:0,0:0:0:0:
212,80,6220,2,0,P|182:105|143:108,1,80,2|8,0:0|0:0,0:0:0:0:
78,50,6541,2,0,L|128:204,1,160,2|2,0:0|0:0,0:0:0:0:
72,268,7021,2,0,L|143:309,1,80,10|2,0:0|0:0,0:0:0:0:
222,337,7342,5,0,0:0:0:0:
305,360,7502,2,0,P|411:353|445:315,1,160,2|2,0:0|0:0,0:0:0:0:
495,245,7983,1,0,0:0:0:0:
423,192,8143,1,0,0:0:0:0:
494,138,8303,6,0,P|466:111|428:99,1,80,8|0,0:0|0:0,0:0:0:0:
341,89,8623,2,0,L|256:81,1,80
218,158,8944,2,0,L|303:166,1,80,8|0,0:0|0:0,0:0:0:0:
255,243,9264,2,0,L|170:235,2,80,0|0|8,0:0|0:0|0:0,0:0:0:0:
332,284,9745,1,8,0:0:0:0:
332,284,9825,1,8,0:0:0:0:
332,284,9905,6,0,P|408:284|455:221,2,160,12|8|0,0:0|0:0|0:0,0:0:0:0:
368,203,10706,1,2,0:0:0:0:
412,127,10866,2,0,B|380:101|380:101|380:60,1,80,8|2,0:0|0:0,0:0:0:0:
454,20,11187,6,0,B|373:20|373:20|331:20|298:50,1,160,2|10,0:0|0:0,0:0:0:0:
212,48,11667,2,0,B|181:20|139:20|139:20|58:20,1,160,2|2,0:0|0:0,0:0:0:0:
36,105,12148,2,0,B|77:105|77:105|107:134,1,80,8|2,0:0|0:0,0:0:0:0:
37,189,12468,2,0,P|37:268|101:316,2,160,2|8|0,0:0|0:0|0:0,0:0:0:0:
115,229,13269,1,0,0:0:0:0:
191,273,13429,1,8,0:0:0:0:
256,331,13590,5,2,0:0:0:0:
321,273,13750,1,2,0:0:0:0:
397,229,13910,1,0,0:0:0:0:
475,189,14070,2,0,P|485:149|475:113,1,80,10|2,0:0|0:0,0:0:0:0:
396,74,14391,2,0,P|385:112|396:150,2,80,0|2|8,0:0|0:0|0:0,0:0:0:0:
475,113,14871,2,0,L|314:112,1,160,2|2,0:0|0:0,0:0:0:0:
226,112,15352,1,8,0:0:0:0:
138,112,15512,2,0,B|138:185|87:185|87:261,1,160,2|0,0:0|0:0,0:0:0:0:
141,330,15993,6,0,P|172:352|212:352,1,80,8|0,0:0|0:0,0:0:0:0:
301,351,16313,2,0,P|340:351|372:329,2,80,0|0|8,0:0|0:0|0:0,0:0:0:0:
256,276,16794,1,0,0:0:0:0:
188,224,16954,2,0,P|256:188|324:224,1,160,2|10,0:0|0:0,0:0:0:0:
256,276,17435,1,0,0:0:0:0:
188,224,17595,5,14,0:0:0:0:
125,161,17755,1,0,0:0:0:0:
125,136,17835,1,0,0:0:0:0:
125,112,17915,1,0,0:0:0:0:
211,96,18075,1,14,0:0:0:0:
297,78,18236,1,0,0:0:0:0:
297,53,18316,1,0,0:0:0:0:
297,29,18396,1,0,0:0:0:0:
383,15,18556,2,0,P|423:15|458:39,1,80,14|0,0:0|0:0,0:0:0:0:
492,115,18876,5,12,0:0:0:0:
256,380,19517,1,2,0:0:0:0:
299,302,19677,1,0,0:0:0:0:
212,302,19838,1,10,0:0:0:0:
256,225,19998,1,8,0:0:0:0:
256,200,20078,1,8,0:0:0:0:
256,168,20158,6,0,B|274:113|330:113|330:113|407:113,1,176.000005371094,14|8,0:0|0:0,0:0:0:0:
465,178,20639,1,2,0:0:0:0:
502,259,20799,2,0,P|514:301|504:346,2,88.000002685547,0|2|8,0:0|0:0|0:0,0:0:0:0:
426,305,21280,1,2,0:0:0:0:
343,335,21440,2,0,B|298:335|298:335|261:356,1,88.000002685547,0|2,0:0|0:0,0:0:0:0:
172,356,21760,2,0,P|134:280|172:204,1,176.000005371094,8|2,0:0|0:0,0:0:0:0:
256,168,22241,5,0,0:0:0:0:
328,120,22401,2,0,L|299:33,1,88.000002685547,8|2,0:0|0:0,0:0:0:0:
212,36,22721,2,0,L|184:119,1,88.000002685547,2|0,0:0|0:0,0:0:0:0:
256,168,23042,1,8,0:0:0:0:
340,204,23202,2,0,P|377:280|340:356,1,176.000005371094,2|2,0:0|0:0,0:0:0:0:
216,280,23683,2,0,B|256:262|256:262|296:280,1,88.000002685547,8|2,0:0|0:0,0:0:0:0:
172,356,24003,2,0,P|134:280|172:204,1,176.000005371094,2|8,0:0|0:0,0:0:0:0:
256,168,24484,5,0,0:0:0:0:
328,118,24644,2,0,L|418:118,1,88.000002685547,2|0,0:0|0:0,0:0:0:0:
428,204,24964,2,0,L|340:204,1,88.000002685547,8|0,0:0|0:0,0:0:0:0:
338,292,25285,6,0,B|406:292|406:292|463:292|463:356|417:356,1,176.000005371094,6|8,0:0|0:0,0:0:0:0:
90,356,25765,2,0,B|49:356|49:292|106:292|106:292|172:292,1,176.000005371094,2|2,0:0|0:0,0:0:0:0:
256,256,26246,2,0,L|256:168,1,88.000002685547,8|2,0:0|0:0,0:0:0:0:
256,80,26566,1,0,0:0:0:0:
172,49,26727,5,2,0:0:0:0:
172,49,26887,2,0,B|127:49|127:49|96:80,1,88.000002685547,8|2,0:0|0:0,0:0:0:0:
71,163,27207,1,0,0:0:0:0:
57,249,27367,1,2,0:0:0:0:
57,249,27528,2,0,P|82:285|125:299,1,88.000002685547,8|2,0:0|0:0,0:0:0:0:
163,376,27848,6,0,P|128:294|175:230,1,176.000005371094,6|8,0:0|0:0,0:0:0:0:
256,195,28329,1,2,0:0:0:0:
336,160,28489,2,0,B|384:160|384:160|415:187,1,88.000002685547,0|2,0:0|0:0,0:0:0:0:
499,209,28809,1,8,0:0:0:0:
482,295,28969,2,0,L|519:110,1,176.000005371094,2|2,0:0|0:0,0:0:0:0:
474,44,29450,2,0,P|435:21|392:21,1,88.000002685547,8|2,0:0|0:0,0:0:0:0:
256,195,29770,5,10,0:0:0:0:
209,337,29931,1,10,0:0:0:0:
331,248,30091,1,10,0:0:0:0:
181,248,30251,1,10,0:0:0:0:
303,337,30411,6,0,B|345:337|345:337|390:367,1,88.000002685547,14|0,0:0|0:0,0:0:0:0:
209,337,30732,2,0,B|167:337|167:337|122:367,1,88.000002685547,8|2,0:0|0:0,0:0:0:0:
60,308,31052,1,0,0:0:0:0:
17,231,31212,2,0,P|6:191|16:146,1,88.000002685547,2|8,0:0|0:0,0:0:0:0:
92,101,31533,2,0,B|166:101|166:101|196:112|196:112|270:112,1,176.000005371094,2|2,0:0|0:0,0:0:0:0:
301,190,32013,6,0,P|269:112|299:30,2,176.000005371094,8|2|8,0:0|0:0|0:0,0:0:0:0:
364,253,32814,1,2,0:0:0:0:
426,315,32975,2,0,L|514:315,2,88.000002685547,0|2|8,0:0|0:0|0:0,0:0:0:0:
364,253,33455,2,0,L|176:253,1,176.000005371094,2|2,0:0|0:0,0:0:0:0:
152,172,33936,1,8,0:0:0:0:
89,109,34096,1,2,0:0:0:0:
170,77,34256,6,0,P|105:22|25:47,1,176.000005371094,2|8,0:0|0:0,0:0:0:0:
89,109,34737,1,0,0:0:0:0:
5,141,34897,2,0,P|70:195|152:172,1,176.000005371094,2|8,0:0|0:0,0:0:0:0:
236,148,35378,1,0,0:0:0:0:
319,121,35538,6,0,L|415:121,1,88.000002685547,6|0,0:0|0:0,0:0:0:0:
453,46,35858,1,8,0:0:0:0:
453,46,36018,2,0,P|414:120|448:201,1,176.000005371094,2|2,0:0|0:0,0:0:0:0:
507,265,36499,2,0,P|447:206|365:229,2,176.000005371094,8|2|8,0:0|0:0|0:0,0:0:0:0:
424,300,37300,2,0,L|248:192,1,176.000005371094,2|2,0:0|0:0,0:0:0:0:
220,136,37781,1,8,0:0:0:0:
172,64,37941,6,0,P|84:64|16:120,1,176.000005371094,6|2,0:0|0:0,0:0:0:0:
4,204,38421,2,0,B|24:244|24:244|24:288,1,88.000002685547,8|0,0:0|0:0,0:0:0:0:
86,349,38742,1,2,0:0:0:0:
112,352,38822,1,0,0:0:0:0:
140,356,38902,1,2,0:0:0:0:
208,304,39062,2,0,L|300:320,1,88.000002685547,8|2,0:0|0:0,0:0:0:0:
381,304,39383,6,0,B|366:249|311:236|311:236|234:222,1,176.000005371094,0|8,0:0|0:0,0:0:0:0:
220,136,39863,1,0,0:0:0:0:
172,64,40024,2,0,L|84:48,1,88.000002685547,8|8,0:0|0:0,0:0:0:0:
272,65,40344,2,0,L|220:137,1,88.000002685547,10|10,0:0|0:0,0:0:0:0:
208,304,40664,6,0,P|256:364|304:304,1,176.000005371094,6|8,0:0|0:0,0:0:0:0:
256,229,41145,2,0,P|297:302|381:303,1,176.000005371094,2|2,0:0|0:0,0:0:0:0:
472,300,41626,2,0,P|424:225|344:225,2,176.000005371094,8|2|8,0:0|0:0|0:0,0:0:0:0:
381,303,42427,2,0,P|297:302|256:229,1,176.000005371094,2|2,0:0|0:0,0:0:0:0:
256,140,42907,1,8,0:0:0:0:
304,64,43067,1,0,0:0:0:0:
304,64,43228,6,0,P|335:93|348:136,1,88.000002685547,6|0,0:0|0:0,0:0:0:0:
164,135,43548,2,0,P|176:93|208:64,1,88.000002685547,8|0,0:0|0:0,0:0:0:0:
256,140,43909,5,6,0:0:0:0:
256,176,44385,5,6,0:0:0:0:
256,208,44861,5,6,0:0:0:0:
