osu file format v13

[General]
AudioFilename: Alan Fernando V. - Este Sueno (TV Size).mp3
AudioLeadIn: 0
PreviewTime: 19463
Countdown: 0
SampleSet: Soft
StackLeniency: 0.4
Mode: 0
LetterboxInBreaks: 0
WidescreenStoryboard: 0

[Editor]
DistanceSpacing: 1
BeatDivisor: 2
GridSize: 4
TimelineZoom: 2

[Metadata]
Title:Este Sueno
TitleUnicode:Este Sueño
Artist:Alan Fernando V.
ArtistUnicode:Alan Fernando V.
Creator:Gero
Version:Medio
Source:Pokemon: Reto Maximo
Tags:Pocket Monster ポケットモンスター Pokemon: Advanced Challenge This Dream Pocket Monster Season 7 [Yue]
BeatmapID:353998
BeatmapSetID:136656

[Difficulty]
HPDrainRate:4
CircleSize:3
OverallDifficulty:4
ApproachRate:4
SliderMultiplier:1.2
SliderTickRate:2

[Events]
//Background and Video events
0,0,"BG.jpg",0,0
Video,-1173,"Video.avi"
//Break Periods
//Storyboard Layer 0 (Background)
//Storyboard Layer 1 (Fail)
//Storyboard Layer 2 (Pass)
//Storyboard Layer 3 (Foreground)
//Storyboard Sound Samples
//Background Colour Transformations
3,100,163,162,255

[TimingPoints]
934,320.410124959949,4,2,1,80,1,0
20158,-100,4,2,1,80,0,1
22321,-100,4,2,2,60,0,1
22481,-100,4,2,1,80,0,1
34496,-100,4,2,2,80,0,1
34657,-100,4,2,1,80,0,1
35538,-100,4,2,1,80,0,0
43909,476.190476190476,4,2,1,80,1,0
43909,-66.6666666666667,4,2,1,80,0,0

[Colours]
Combo1 : 148,39,121
Combo2 : 171,220,97
Combo3 : 255,64,64
Combo4 : 0,64,128
Combo5 : 50,150,231
Combo6 : 135,230,237
Combo7 : 255,255,0
Combo8 : 255,128,0

[HitObjects]
316,108,934,6,0,P|228:136|192:212,2,180,6|6|6,0:0|0:0|0:0,0:0:0:0:
420,168,2215,1,6,0:0:0:0:
456,216,2375,1,0,0:0:0:0:
452,276,2536,1,8,0:0:0:0:
348,336,2856,5,2,0:0:0:0:
231,312,3176,2,0,P|167:304|124:269,2,120,8|2|8,0:0|0:0|0:0,0:0:0:0:
216,192,4138,1,2,0:0:0:0:
124,113,4458,2,0,P|172:77|231:72,1,120,8|2,0:0|0:0,0:0:0:0:
345,108,5099,1,8,0:0:0:0:
364,228,5419,2,0,P|380:284|428:320,1,120,2|8,0:0|0:0,0:0:0:0:
484,212,6060,6,0,L|484:92,2,120,2|8|2,0:0|0:0|0:0,0:0:0:0:
364,228,7021,1,8,0:0:0:0:
267,156,7342,1,2,0:0:0:0:
211,49,7662,2,0,L|109:118,1,120,8|2,0:0|0:0,0:0:0:0:
52,220,8303,2,0,P|85:331|196:367,1,240,8|8,0:0|0:0,0:0:0:0:
310,336,9264,5,2,0:0:0:0:
364,228,9585,1,8,0:0:0:0:
384,168,9745,1,0,0:0:0:0:
375,108,9905,1,6,0:0:0:0:
267,156,10225,1,8,0:0:0:0:
211,49,10546,6,0,P|152:37|93:66,1,120,2|8,0:0|0:0,0:0:0:0:
92,180,11187,1,2,0:0:0:0:
186,253,11507,1,8,0:0:0:0:
287,317,11827,2,0,L|415:317,2,120,2|8|2,0:0|0:0|0:0,0:0:0:0:
319,200,12789,1,8,0:0:0:0:
426,147,13109,1,2,0:0:0:0:
321,87,13429,6,0,P|280:37|224:22,1,120,8|2,0:0|0:0,0:0:0:0:
216,141,14070,2,0,P|176:189|120:201,1,120,8|2,0:0|0:0,0:0:0:0:
36,286,14711,1,8,0:0:0:0:
134,354,15032,1,2,0:0:0:0:
253,367,15352,2,0,P|310:352|347:306,1,120,8|2,0:0|0:0,0:0:0:0:
376,188,15993,5,8,0:0:0:0:
316,84,16313,1,2,0:0:0:0:
196,84,16634,1,8,0:0:0:0:
136,188,16954,1,2,0:0:0:0:
256,196,17274,1,10,0:0:0:0:
256,192,17595,12,8,19838,0:0:0:0:
256,192,20158,6,0,P|280:248|336:276,1,120,6|8,0:0|0:0,0:0:0:0:
368,160,20799,1,2,0:0:0:0:
276,84,21119,1,8,0:0:0:0:
156,108,21440,2,0,P|98:94|44:116,1,120,2|8,0:0|0:0,0:0:0:0:
112,212,22081,6,0,P|168:288|300:264,1,240,2|2,0:0|0:0,0:0:0:0:
388,188,23042,1,8,0:0:0:0:
332,80,23362,2,0,P|388:68|452:84,2,120,2|8|2,0:0|0:0|0:0,0:0:0:0:
248,168,24323,1,8,0:0:0:0:
128,144,24644,6,0,L|40:232,1,120,2|8,0:0|0:0,0:0:0:0:
124,316,25285,2,0,L|212:228,1,120,6|8,0:0|0:0,0:0:0:0:
328,216,25925,1,2,0:0:0:0:
272,108,26246,1,8,0:0:0:0:
392,112,26566,2,0,P|440:132|488:184,2,120,2|8|2,0:0|0:0|0:0,0:0:0:0:
284,168,27528,6,0,B|171:212|239:280|123:336,1,240,8|8,0:0|0:0,0:0:0:0:
40,248,28489,1,2,0:0:0:0:
128,168,28809,2,0,B|243:224|176:291|288:336,1,240,8|8,0:0|0:0,0:0:0:0:
372,248,29770,1,10,0:0:0:0:
448,156,30091,6,0,P|420:104|364:80,1,120,8|6,0:0|0:0,0:0:0:0:
256,124,30732,1,8,0:0:0:0:
144,80,31052,1,2,0:0:0:0:
160,200,31372,2,0,L|72:288,2,120,8|2|8,0:0|0:0|0:0,0:0:0:0:
256,272,32334,6,0,L|380:272,1,120,2|8,0:0|0:0,0:0:0:0:
444,176,32975,2,0,P|408:128|352:112,1,120,2|8,0:0|0:0,0:0:0:0:
292,104,33455,2,0,P|235:87|200:39,1,120,2|0,0:0|0:0,0:0:0:0:
84,64,34096,2,0,P|173:183|313:224,1,300,2|2,0:0|0:0,0:0:0:0:
368,116,35217,5,8,0:0:0:0:
420,224,35538,2,0,P|384:316|312:340,2,180,6|2|2,0:0|0:0|0:0,0:0:0:0:
300,232,36819,1,2,0:0:0:0:
208,156,37140,1,8,0:0:0:0:
120,240,37460,2,0,P|144:308|196:328,1,120,2|8,0:0|0:0,0:0:0:0:
304,344,38101,5,6,0:0:0:0:
348,232,38421,2,0,L|348:112,1,120,8|2,0:0|0:0,0:0:0:0:
256,36,39062,1,10,0:0:0:0:
208,72,39223,1,0,0:0:0:0:
164,112,39383,2,0,L|164:232,1,120,2|8,0:0|0:0,0:0:0:0:
196,344,40024,1,2,0:0:0:0:
316,344,40344,1,8,0:0:0:0:
352,228,40664,6,0,P|352:170|318:120,1,120,6|8,0:0|0:0,0:0:0:0:
193,120,41305,2,0,P|160:168|160:228,1,120,2|8,0:0|0:0,0:0:0:0:
256,299,41946,1,2,0:0:0:0:
142,338,42266,2,0,P|54:262|66:142,1,240,8|8,0:0|0:0,0:0:0:0:
120,128,43067,1,0,0:0:0:0:
180,120,43228,2,0,L|307:120,1,120,6|8,0:0|0:0,0:0:0:0:
436,180,43909,6,6,B|376:248|376:248|280:248,2,180.000006866455
