osu file format v9

[General]
AudioFilename: Al Bizarre - Fire Breazze.mp3
AudioLeadIn: 0
PreviewTime: 30056
Countdown: 1
SampleSet: Soft
StackLeniency: 0.7
Mode: 0
LetterboxInBreaks: 1

[Editor]
Bookmarks: 13111,35611,66782
DistanceSpacing: 2
BeatDivisor: 4
GridSize: 8

[Metadata]
Title:Fire Breazze (Original Mix)
Artist:Al Bizarre
Creator:commupony
Version:Hard
Source:
Tags:

[Difficulty]
HPDrainRate:6
CircleSize:5
OverallDifficulty:6
ApproachRate:8
SliderMultiplier:1.5
SliderTickRate:1

[Events]
//Background and Video events
0,0,"artworks-000012008699-sd78ly-original.jpg"
//Break Periods
2,127756,147421
//Storyboard Layer 0 (Background)
//Storyboard Layer 1 (Fail)
//Storyboard Layer 2 (Pass)
//Storyboard Layer 3 (Foreground)
//Storyboard Sound Samples
//Background Colour Transformations
3,100,163,162,255

[TimingPoints]
56,468.75,4,1,0,75,1,0
45173,-100,4,2,1,75,0,0
45950,-100,4,1,0,75,0,0
48688,-100,4,2,1,75,0,0
48923,-100,4,1,0,75,0,0
49265,-100,4,2,1,75,0,0
49283,-100,4,1,0,75,0,0
50672,-100,4,2,1,75,0,0
50690,-100,4,1,0,75,0,0
54313,-100,4,2,1,75,0,0
55954,-100,4,1,0,75,0,0
56297,-100,4,2,1,75,0,0
56315,-100,4,1,0,75,0,0
67321,-100,4,1,0,75,0,1
82321,-100,4,1,0,75,0,0
147703,-100,4,1,0,75,0,0
148181,-100,4,1,0,75,0,0
149587,-100,4,2,1,75,0,0
150056,-100,4,1,0,75,0,0
150173,-100,4,2,1,75,0,0
157556,-100,4,1,0,75,0,0
158024,-100,4,2,1,75,0,0
165056,-100,4,1,0,75,0,0
165173,-100,4,2,1,75,0,0

[Colours]
Combo1 : 245,73,7
Combo2 : 33,185,252
Combo3 : 219,204,137

[HitObjects]
32,224,37556,6,0,B|64:128|96:96|160:64|256:64,1,300
256,128,38962,1,8
256,64,39431,2,0,B|352:64|416:96|448:128|480:224,1,300
176,224,40837,1,8
472,288,41306,2,0,B|420:192|268:192|216:288,1,300
16,64,42712,1,8
88,224,43181,2,0,B|88:136|160:120|208:144|256:192|256:192|304:240|352:264|424:248|424:184,1,450,0|8
312,88,45056,6,0,B|376:152,2,75
416,96,45993,2,0,B|336:24,2,75,0|0|8
456,136,46931,2,0,B|392:200,2,75
312,280,47868,2,0,B|376:216,2,75,0|0|8
256,192,48806,1,0
248,304,49274,2,0,B|384:248|384:120|240:80,1,300,0|8
264,88,50681,2,0,B|128:144|128:272|272:312,1,300,0|8
256,192,52087,1,10
256,80,52556,6,0,B|304:128|352:64,3,100,0|0|0|8
352,32,53962,1,8
408,80,54431,1,0
408,152,54899,1,0
376,224,55368,1,0
312,272,55837,1,10
256,312,56306,2,0,B|196:260|152:304,3,100,0|8|0|8
112,280,57712,1,8
136,240,58649,1,0
64,264,59118,1,0
32,336,59587,1,8
80,320,60056,5,0
80,320,60173,1,0
162,265,60407,2,0,B|120:240,5,37.5
224,224,61345,1,0
224,224,61462,1,8
432,320,61931,5,0
432,320,62048,1,0
350,265,62282,2,0,B|392:240,5,37.5
288,224,63220,1,0
288,224,63337,1,8
256,32,63806,5,0
256,32,63923,1,0
240,112,64274,2,0,B|280:112,5,37.5
256,160,65095,1,0
256,192,65212,1,8
256,192,65681,5,2
256,192,66384,5,2
256,192,66852,5,0
256,192,67087,2,0,B|280:232|280:232|256:264|256:264|232:304|232:304|256:344,2,150,8|0|0
208,112,68493,6,0,B|160:176,1,75,0|10
304,112,68962,2,0,B|352:168,1,75,0|10
256,252,69431,2,0,B|256:176,2,75
256,160,70368,1,0
256,120,70602,1,2
256,80,70837,1,2
256,48,71306,6,0,B|304:48|304:96,1,75,0|0
304,96,71774,2,0,B|304:144|256:144,1,75,0|2
256,144,72243,6,0,B|208:144|208:96,1,75
208,96,72712,2,0,B|208:48|256:48,1,75,2|10
256,88,73181,6,0,B|256:168,3,75,2|2|2|10
256,192,74352,1,10
256,192,74587,1,10
80,80,75056,2,2,B|192:88|112:176|216:160,1,150
216,160,75993,2,2,B|248:160|272:112,1,75,2|10
280,104,76462,2,2,B|296:56|336:72,1,75,2|10
352,72,76931,6,2,B|384:40|448:56|456:128,1,150
456,152,77634,2,0,B|456:232,4,75,0|2|0|2|2
360,144,78806,2,0,B|320:128|304:88,1,75
312,296,79274,2,0,B|328:256|368:240,1,75
152,240,79743,2,0,B|192:256|208:296,1,75
208,88,80212,2,0,B|192:128|152:144,1,75
112,144,80681,6,0,B|56:144|32:176|32:176|112:280|112:280|88:312|32:312,1,300,0|8
32,208,82087,1,8
32,32,82556,6,0,B|32:97|32:97|88:160,1,150
112,184,83493,2,0,B|160:240,3,75,0|2|0|2
136,176,84431,2,0,B|200:160|224:112|224:112|280:96|320:48,1,225,8|0
336,72,85602,2,0,B|384:152,1,75,0|8
376,136,86071,2,0,B|424:72,1,75,0|8
432,72,86540,6,0,B|472:88|488:128,5,75,8|0|8|0|8|0
312,192,88181,2,0,B|288:224|288:224|248:192|248:192|208:224|208:224|168:192|168:192|128:224|128:224|112:192,2,225,0|0|12
256,32,90056,6,0,B|256:184,1,150
256,184,90993,2,0,B|312:136,1,75,0|8
256,184,91462,2,0,B|200:136,1,75,0|8
200,136,91931,2,0,B|256:40|312:136,1,150
56,304,92868,5,0
56,304,93102,2,0,B|112:248,2,75,0|0|2
256,192,94040,5,0
256,192,94274,2,0,B|256:40,2,150
256,192,95681,5,12
256,192,96384,1,12
256,192,96852,1,14
352,288,97556,6,0,B|296:232,1,75
184,136,98024,2,0,B|264:136,1,75,2|8
408,128,98493,2,0,B|350:184,1,75
216,240,98962,2,0,B|136:240,1,75,2|8
144,176,99431,6,0,B|144:96,2,75
256,152,100368,6,0,B|264:160|264:160|256:168|248:176|248:176|256:184|264:192|264:192|256:200|248:208|248:208|256:216|264:224|264:224|256:232|248:240|248:240|256:248|264:256|264:256|256:264|248:272,2,150
256,48,101774,5,8
224,160,102243,2,0,B|216:200|216:200|224:240,1,75,0|2
288,224,102712,2,0,B|296:184|296:184|288:144,1,75,0|8
288,144,103181,2,0,B|256:72|184:80|152:128,1,150
96,184,104118,2,0,B|96:264,3,75,0|0|8|8
96,304,105056,6,0,B|152:256,1,75
304,256,105524,2,0,B|344:256,4,37.5
152,256,106227,2,0,B|96:200,1,75
136,160,106696,2,0,B|192:104,3,75
240,120,107634,1,0
288,120,107868,2,0,B|296:128|296:128|304:120|304:120|312:112|312:112|320:120|320:120|328:128|328:128|336:120|336:120|344:112|344:112|352:120|352:120|360:128|360:128|376:120,2,112.5
240,120,108806,6,0,B|136:48|136:48|32:120,1,225
40,184,109977,2,0,B|96:240,2,75
96,160,110681,2,0,B|40:104,3,75
128,96,111618,2,0,B|184:152,1,75
184,152,112087,2,0,B|240:96,1,75
256,192,112556,5,0
256,192,113024,1,0
256,192,113493,2,0,B|256:112,1,75
256,192,113962,2,0,B|256:272,1,75
256,192,114431,2,0,B|336:192,1,75
256,192,114899,2,0,B|176:192,1,75
72,208,115368,6,0,B|64:200|64:200|72:192|72:192|80:184|80:184|72:176|72:176|64:168|64:168|72:160|72:160|80:152|80:152|72:144,3,75
72,104,116306,1,0
136,112,116540,5,0
208,112,116774,2,0,B|248:112,2,37.5,0|8|0
136,112,117243,1,8
136,192,117477,1,0
200,192,117712,2,0,B|240:192,2,37.5,8|0|8
296,192,118181,2,0,B|312:152|296:120,1,75
296,120,118649,2,0,B|288:80|296:40,1,75,0|8
296,48,119118,2,8,B|256:40|208:48,1,75
224,48,119587,2,8,B|184:56|144:48,1,75
256,192,120056,1,0
256,152,123806,6,0,B|256:240,2,75
216,192,124509,2,0,B|312:192,2,75
256,192,125446,5,0
256,192,125681,2,0,B|256:112|344:80,1,150
345,83,126384,2,0,B|376:168|456:168,1,150
256,192,127556,1,4
160,120,148171,6,0,B|384:120,2,225,4|4|2
152,256,150046,6,4,B|168:336|272:320,1,150,4|10
360,224,150984,2,0,B|416:168,1,75,2|4
352,136,151453,2,0,B|296:192,1,75,8|4
256,232,151921,2,0,B|176:248|128:176,1,150,4|10
176,80,152859,2,0,B|256:80,3,75,2|0|2|0
320,80,153796,6,0,B|400:72|400:72|416:152,1,150,4|10
413,243,154734,2,0,B|400:312|400:312|320:304,1,150,4|10
264,256,155437,1,0
192,256,155671,2,0,B|192:216|192:216|160:184|160:144|168:96,1,150,6|6
256,24,156609,2,0,B|256:64|256:64|224:96|224:136|232:184,1,150,6|6
184,32,157546,1,0
128,72,158015,1,10
64,192,158484,6,0,B|144:192,1,75,2|4
104,264,158953,2,0,B|184:264,1,75,10|4
216,192,159421,2,0,B|256:104|336:152,1,150,4|10
360,272,160359,2,0,B|344:256|344:256|328:272|328:272|288:272,1,75,2|0
224,272,160828,2,0,B|208:288|208:288|192:272|192:272|152:272,1,75,2|0
96,272,161296,6,0,B|64:240|64:240|96:208|96:144,1,150,4|10
32,144,161999,1,0
32,144,162234,2,0,B|24:56|128:64,1,150,4|10
184,72,162937,1,0
328,120,163171,2,0,B|400:144|480:120,1,150,2|4
496,200,164109,2,0,B|424:176|344:200,1,150,2|4
336,264,164812,1,0
368,336,165046,6,0,B|304:352|232:296|280:232,1,150,4|10
