osu file format v12

[General]
AudioFilename: -Classical version- .mp3
AudioLeadIn: 0
PreviewTime: 95846
Countdown: 0
SampleSet: None
StackLeniency: 0.7
Mode: 0
LetterboxInBreaks: 0
WidescreenStoryboard: 0

[Editor]
Bookmarks: 2846,12446,22046,31646,50846,55646,74846,96446,118046,137246,158846,178046,193946,205800,225000,246600,268200,287400,306600,313050,330600,345751
DistanceSpacing: 1
BeatDivisor: 4
GridSize: 4
TimelineZoom: 0.8

[Metadata]
Title:Servant of Evil (Classical Ver.)
TitleUnicode:悪ノ召使 ~Classical Ver.~
Artist:Akuno-P
ArtistUnicode:悪ノP
Creator:inverness
Version:Marathon (not really)
Source:
Tags:kagamine len rin aku no meshitsukai mothy akunop daughter vocaloid
BeatmapID:427242
BeatmapSetID:177491

[Difficulty]
HPDrainRate:6
CircleSize:5
OverallDifficulty:8
ApproachRate:9
SliderMultiplier:3
SliderTickRate:1

[Events]
//Background and Video events
Video,0,"Classical Version PV.avi"
0,0,"ok.jpg",0,0
//Break Periods
2,55846,73046
2,118246,135446
2,205800,224100
2,268200,286500
2,309600,312450
//Storyboard Layer 0 (Background)
Sprite,Background,Centre,"hitcircle.png",126,366 S,0,345134,,0.496 C,0,345134,,86,81,83 F,0,345134,345751,0,1 F,0,345751,346456,1,0
Sprite,Background,Centre,"default-1.png",126,366 S,0,345134,,0.42 F,0,345134,345751,0,1 F,0,345751,346456,1,0
Sprite,Background,Centre,"hitcircleoverlay.png",126,366 S,0,345134,,0.496 F,0,345134,345751,0,1 F,0,345751,346456,1,0
Sprite,Background,Centre,"approachcircle.png",126,366 C,0,345134,,86,81,83 F,0,345134,345751,0.1039999,1 S,0,345134,345751,1.92,0.496 F,0,345575,345751,1,0
//Storyboard Layer 1 (Fail)
//Storyboard Layer 2 (Pass)
//Storyboard Layer 3 (Foreground)
Sprite,Foreground,TopLeft,"white.png",0,0 F,0,345575,345751,0,1 C,0,345751,,0,0,0 V,0,345751,,640,480 F,0,351221,351398,1,0
//Storyboard Sound Samples
//Background Colour Transformations
3,100,163,162,255

[TimingPoints]
2846,600,4,2,1,28,1,0
22046,-100,4,2,1,34,0,0
31646,-100,4,2,1,45,0,0
96446,-100,4,2,1,52,0,1
118046,-100,4,2,1,52,0,0
136046,-100,4,2,1,45,0,0
158846,-100,4,2,1,52,0,1
178046,-100,4,2,1,34,0,0
191546,-100,4,2,1,5,0,0
191696,-100,4,2,1,34,0,0
193946,705.882352941176,4,2,1,28,1,0
194651,-133.333333333333,4,2,1,28,0,0
195460,681.818181818182,4,2,1,28,1,0
195460,-200,4,2,1,28,0,0
196758,681.818181818182,4,2,1,28,1,0
196758,-153.846153846154,4,2,1,28,0,0
199485,-200,4,2,1,28,0,0
200830,600,4,2,1,28,1,0
200830,-133.333333333333,4,2,1,28,0,0
205800,600,4,2,1,28,1,0
224700,-166.666666666667,4,2,1,34,0,0
240600,-142.857142857143,4,2,1,39,0,0
241800,-125,4,2,1,45,0,0
243000,-100,4,2,1,48,0,1
243150,-100,4,2,1,48,0,0
246600,-100,4,2,1,52,0,1
265800,-100,4,2,1,52,0,0
287400,-100,4,2,1,45,0,1
287550,-100,4,2,1,45,0,0
313050,600,4,2,1,28,1,0
322650,-100,4,2,1,34,0,1
326250,-100,4,2,1,34,0,0
327000,600,4,2,1,30,1,0
327650,600,4,2,1,25,1,0
330600,681.818181818182,4,2,1,21,1,0
331111,681.818181818182,4,2,1,21,1,0
331560,600,4,2,1,21,1,0
331560,-125,4,2,1,21,0,0
332072,600,4,2,1,21,1,0
332362,681.818181818182,4,2,1,21,1,0
333575,600,4,2,1,21,1,0
333575,-166.666666666667,4,2,1,21,0,0
334125,600,4,2,1,21,1,0
334625,631.578947368421,4,2,1,21,1,0
334625,-166.666666666667,4,2,1,21,0,0
335151,631.578947368421,4,2,1,21,1,0
335710,545.454545454546,4,2,1,21,1,0
335710,-166.666666666667,4,2,1,21,0,0
337619,-166.666666666667,4,2,1,5,0,0
337937,545.454545454546,4,2,1,15,1,0
338313,705.882352941176,4,2,1,14,1,0
338682,705.882352941176,4,2,1,12,1,0
339034,705.882352941176,4,2,1,11,1,0
339386,705.882352941176,4,2,1,9,1,0
340215,705.882352941176,4,2,1,8,1,0
340634,705.882352941176,4,2,1,6,1,0
345751,705.882352941176,4,2,1,5,1,0

[Colours]
Combo1 : 86,81,63
Combo2 : 250,203,116
Combo3 : 255,177,72
Combo4 : 196,236,74
Combo5 : 174,200,87
Combo6 : 185,40,44
Combo7 : 158,37,40
Combo8 : 89,86,79

[HitObjects]
48,128,12446,6,0,P|96:180|180:152,1,150,2|0,0:0|0:0,0:0:0:0:
120,108,12896,1,0,0:0:0:0:
244,180,13046,2,0,P|288:156|396:156,1,150,0|0,0:0|0:0,0:0:0:0:
452,192,13496,1,0,0:0:0:0:
316,224,13646,2,0,P|319:149|288:81,1,150,2|0,0:0|0:0,0:0:0:0:
220,48,14096,1,0,0:0:0:0:
244,180,14246,2,0,P|232:228|196:260,1,75,0|0,0:0|0:0,0:0:0:0:
68,272,14546,2,0,P|115:258|161:273,1,75,0|0,0:0|0:0,0:0:0:0:
316,356,14846,6,0,P|245:370|196:318,1,150,2|0,0:0|0:0,0:0:0:0:
268,300,15296,1,0,0:0:0:0:
400,344,15446,2,0,P|384:316|388:268,1,75,0|0,0:0|0:0,0:0:0:0:
316,232,15746,2,0,P|332:204|328:156,1,75,0|0,0:0|0:0,0:0:0:0:
244,36,16046,2,0,P|240:104|260:188,1,150,2|0,0:0|0:0,0:0:0:0:
316,232,16496,1,0,0:0:0:0:
316,100,16646,2,0,P|243:117|168:114,1,150,0|0,0:0|0:0,0:0:0:0:
96,96,17096,1,0,0:0:0:0:
76,24,17246,102,0,P|96:92|32:172,1,150,2|0,0:0|0:0,0:0:0:0:
0,192,17696,1,0,0:0:0:0:
32,304,17846,2,0,P|44:260|76:228,1,75,0|0,0:0|0:0,0:0:0:0:
192,232,18146,2,0,P|148:220|116:188,1,75,0|0,0:0|0:0,0:0:0:0:
192,232,18446,2,0,P|252:212|364:236,1,150,2|0,0:0|0:0,0:0:0:0:
400,264,18896,1,0,0:0:0:0:
256,136,19046,2,0,P|244:104|240:56,1,75,0|0,0:0|0:0,0:0:0:0:
337,222,19346,2,0,P|315:248|275:275,1,75,0|0,0:0|0:0,0:0:0:0:
400,264,19646,6,0,P|332:212|336:152,1,150,2|0,0:0|0:0,0:0:0:0:
404,124,20096,1,0,0:0:0:0:
256,136,20246,2,0,P|188:148|88:124,1,150,0|0,0:0|0:0,0:0:0:0:
48,92,20696,1,0,0:0:0:0:
190,73,20846,2,0,P|176:146|188:220,1,150,2|0,0:0|0:0,0:0:0:0:
240,276,21296,1,0,0:0:0:0:
190,73,21446,2,0,P|162:41|110:21,1,75,0|0,0:0|0:0,0:0:0:0:
256,136,21746,2,0,P|304:140|344:128,1,75,0|0,0:0|0:0,0:0:0:0:
164,284,22046,102,0,P|192:336|288:332,1,150,6|0,0:0|0:0,0:0:0:0:
316,276,22496,1,0,0:0:0:0:
412,360,22646,2,0,P|392:320|400:276,1,75,2|0,0:0|0:0,0:0:0:0:
464,164,22946,2,0,P|461:208|432:242,1,75,0|0,0:0|0:0,0:0:0:0:
256,136,23246,2,0,P|328:132|396:188,1,150,2|0,0:0|0:0,0:0:0:0:
444,232,23696,1,0,0:0:0:0:
448,40,23846,2,0,P|428:56|372:68,1,75,2|0,0:0|0:0,0:0:0:0:
256,136,24146,2,0,P|224:112|180:108,1,75,0|0,0:0|0:0,0:0:0:0:
116,112,24446,6,0,P|196:104|240:20,1,150,2|0,0:0|0:0,0:0:0:0:
44,76,24896,1,0,0:0:0:0:
44,76,25046,2,0,P|32:120|-4:156,1,75,2|0,0:0|0:0,0:0:0:0:
120,260,25346,2,0,P|98:229|90:193,1,75,0|0,0:0|0:0,0:0:0:0:
120,260,25646,2,0,P|204:264|276:288,1,150,2|0,0:0|0:0,0:0:0:0:
288,292,26021,2,0,P|304:284|344:280,2,37.5,0|0|0,0:0|0:0|0:0,0:0:0:0:
356,216,26246,2,0,P|373:217|410:233,3,37.5,2|0|0|0,0:0|0:0|0:0|0:0,0:0:0:0:
452,180,26546,2,0,P|466:189|490:222,3,37.5,0|0|0|0,0:0|0:0|0:0|0:0,0:0:0:0:
452,180,26846,102,0,P|424:132|428:36,1,150,2|0,0:0|0:0,0:0:0:0:
496,8,27296,1,0,0:0:0:0:
356,216,27446,2,0,P|304:236|232:220,1,75,2|0,0:0|0:0,0:0:0:0:
452,180,27746,2,0,P|495:215|517:285,1,75,0|0,0:0|0:0,0:0:0:0:
224,276,28046,2,0,P|276:248|272:152,1,150,2|0,0:0|0:0,0:0:0:0:
216,200,28496,1,0,0:0:0:0:
196,364,28646,2,0,P|140:316|20:308,1,150,2|0,0:0|0:0,0:0:0:0:
36,232,29096,1,0,0:0:0:0:
224,276,29246,6,0,P|308:256|368:200,1,150,2|0,0:0|0:0,0:0:0:0:
384,148,29696,1,0,0:0:0:0:
404,76,29846,2,0,P|384:40|384:0,1,75,2|0,0:0|0:0,0:0:0:0:
432,212,30146,2,0,P|473:212|507:232,1,75,0|0,0:0|0:0,0:0:0:0:
384,148,30446,1,2,0:0:0:0:
308,160,30596,1,0,0:0:0:0:
164,88,30746,1,0,0:0:0:0:
240,100,30896,1,0,0:0:0:0:
188,160,31046,2,0,P|152:192|107:196,1,75,2|0,0:0|0:0,0:0:0:0:
332,88,31346,2,0,P|299:52|295:7,1,75,0|0,0:0|0:0,0:0:0:0:
188,160,31646,102,0,P|200:220|180:324,1,150,6|0,0:0|0:0,0:0:0:0:
120,344,32096,1,0,0:0:0:0:
264,336,32246,2,0,L|360:344,1,75,10|0,0:0|0:0,0:0:0:0:
472,276,32546,2,0,L|376:284,1,75,0|0,0:0|0:0,0:0:0:0:
288,200,32846,2,0,P|340:212|428:156,1,150,2|0,0:0|0:0,0:0:0:0:
436,92,33296,1,0,0:0:0:0:
247,121,33446,1,10,0:0:0:0:
266,144,33546,1,0,0:0:0:0:
280,171,33646,1,0,0:0:0:0:
288,200,33746,1,0,0:0:0:0:
289,229,33846,1,0,0:0:0:0:
285,259,33946,1,0,0:0:0:0:
274,287,34046,6,0,P|220:296|180:336,1,75,2|0,0:0|0:0,0:0:0:0:
336,340,34346,1,0,0:0:0:0:
152,244,34496,2,0,L|144:148,1,75,0|10,0:0|0:0,0:0:0:0:
96,112,34796,1,0,0:0:0:0:
248,32,34946,2,0,P|281:49|318:51,1,75,0|0,0:0|0:0,0:0:0:0:
480,84,35246,2,0,P|408:81|368:141,1,150,2|0,0:0|0:0,0:0:0:0:
444,148,35696,1,0,0:0:0:0:
268,148,35846,2,0,P|296:180|308:228,1,75,10|0,0:0|0:0,0:0:0:0:
224,340,36146,2,0,P|237:299|273:265,1,75,0|0,0:0|0:0,0:0:0:0:
296,368,36446,6,0,P|216:340|92:348,1,150,2|0,0:0|0:0,0:0:0:0:
76,352,36896,1,0,0:0:0:0:
32,292,37046,2,0,L|40:196,1,75,10|0,0:0|0:0,0:0:0:0:
120,248,37346,2,0,L|112:152,1,75,0|0,0:0|0:0,0:0:0:0:
212,204,37646,2,0,P|188:144|188:52,1,150,2|0,0:0|0:0,0:0:0:0:
232,0,38096,1,0,0:0:0:0:
260,110,38246,2,0,P|190:136|116:136,1,150,10|0,0:0|0:0,0:0:0:0:
44,120,38696,1,0,0:0:0:0:
340,120,38846,6,0,P|368:132|428:132,1,75,2|0,0:0|0:0,0:0:0:0:
260,110,39146,2,0,P|240:72|188:28,1,75,0|0,0:0|0:0,0:0:0:0:
392,56,39446,1,10,0:0:0:0:
288,188,39596,2,0,L|276:276,1,75,0|0,0:0|0:0,0:0:0:0:
324,324,39896,1,0,0:0:0:0:
164,128,40046,2,0,P|192:172|184:288,1,150,2|0,0:0|0:0,0:0:0:0:
164,336,40496,1,0,0:0:0:0:
92,352,40646,2,0,L|17:341,1,75,10|0,0:0|0:0,0:0:0:0:
194,268,40946,2,0,P|268:276|324:324,1,150,0|2,0:0|0:0,0:0:0:0:
388,240,41396,5,0,0:0:0:0:
448,288,41546,2,0,P|436:320|448:400,1,75,0|0,0:0|0:0,0:0:0:0:
388,240,41846,2,0,P|356:204|352:164,1,75,10|0,0:0|0:0,0:0:0:0:
436,100,42146,1,0,0:0:0:0:
428,176,42296,1,0,0:0:0:0:
320,280,42446,2,0,P|248:264|160:272,1,150,2|0,0:0|0:0,0:0:0:0:
104,300,42896,1,0,0:0:0:0:
252,340,43046,2,0,P|246:265|262:192,1,150,10|0,0:0|0:0,0:0:0:0:
308,132,43496,1,0,0:0:0:0:
104,300,43646,2,0,P|72:260|12:232,1,75,2|0,0:0|0:0,0:0:0:0:
144,212,43946,2,0,P|168:167|222:129,1,75,0|0,0:0|0:0,0:0:0:0:
308,132,44246,6,0,P|256:100|224:12,1,150,10|0,0:0|0:0,0:0:0:0:
185,150,44696,1,0,0:0:0:0:
388,140,44846,2,0,L|484:148,1,75,2|0,0:0|0:0,0:0:0:0:
340,208,45146,2,0,L|244:216,1,75,0|0,0:0|0:0,0:0:0:0:
388,140,45446,1,10,0:0:0:0:
340,208,45596,1,0,0:0:0:0:
316,284,45746,1,0,0:0:0:0:
304,364,45896,1,0,0:0:0:0:
388,140,46046,38,0,P|344:124|256:184,1,150,2|0,0:0|0:0,0:0:0:0:
316,284,46496,1,0,0:0:0:0:
184,252,46646,2,0,P|188:208|168:164,1,75,10|0,0:0|0:0,0:0:0:0:
58,96,46946,2,0,P|87:119|124:128,1,75,0|0,0:0|0:0,0:0:0:0:
44,24,47246,2,0,P|56:108|12:220,1,150,2|0,0:0|0:0,0:0:0:0:
36,192,47621,1,0,0:0:0:0:
36,216,47696,1,0,0:0:0:0:
40,236,47771,1,0,0:0:0:0:
44,256,47846,2,0,P|88:320|152:360,1,150,10|0,0:0|0:0,0:0:0:0:
224,364,48296,1,0,0:0:0:0:
280,312,48446,6,0,P|300:264|336:232,1,75,2|0,0:0|0:0,0:0:0:0:
384,220,48746,1,0,0:0:0:0:
224,236,48896,2,0,L|128:244,1,75,0|10,0:0|0:0,0:0:0:0:
248,152,49196,2,0,L|344:160,1,75,0|0,0:0|0:0,0:0:0:0:
384,220,49496,1,0,0:0:0:0:
240,68,49646,2,0,P|176:100|40:100,1,150,2|0,0:0|0:0,0:0:0:0:
76,108,50021,1,0,0:0:0:0:
56,104,50096,1,0,0:0:0:0:
36,96,50171,1,0,0:0:0:0:
16,84,50246,2,0,P|-6:68|-24:48,2,50,10|0|0,0:0|0:0|0:0,0:0:0:0:
44,188,50546,2,0,P|42:215|32:240,2,50,0|0|0,0:0|0:0|0:0,0:0:0:0:
44,188,50846,102,0,P|108:216|220:216,1,150,2|0,0:0|0:0,0:0:0:0:
260,204,51296,1,0,0:0:0:0:
328,168,51446,2,0,P|332:124|364:72,1,75,10|0,0:0|0:0,0:0:0:0:
316,260,51746,2,0,P|275:278|214:276,1,75,0|0,0:0|0:0,0:0:0:0:
460,284,52046,2,0,P|412:228|416:124,1,150,2|0,0:0|0:0,0:0:0:0:
428,84,52496,1,0,0:0:0:0:
376,320,52646,2,0,P|304:356|204:356,1,150,2|0,0:0|0:0,0:0:0:0:
164,344,53096,1,0,0:0:0:0:
80,288,53246,6,0,L|72:384,1,75,2|0,0:0|0:0,0:0:0:0:
148,188,53546,2,0,L|156:284,1,75,0|0,0:0|0:0,0:0:0:0:
28,100,53846,2,0,P|60:120|112:124,1,75,10|0,0:0|0:0,0:0:0:0:
288,176,54146,2,0,P|254:193|225:236,1,75,0|0,0:0|0:0,0:0:0:0:
348,216,54446,2,0,P|292:180|248:72,1,150,2|0,0:0|0:0,0:0:0:0:
248,32,54896,1,0,0:0:0:0:
460,272,55046,2,0,P|384:284|312:332,1,150,2|0,0:0|0:0,0:0:0:0:
264,372,55496,1,0,0:0:0:0:
348,216,55646,1,4,0:0:0:0:
56,76,73646,101,2,0:0:0:0:
56,76,73796,1,0,0:0:0:0:
128,92,73946,1,0,0:0:0:0:
128,92,74096,1,0,0:0:0:0:
196,128,74246,2,0,P|288:120|364:80,1,150,0|0,0:0|0:0,0:0:0:0:
388,40,74696,1,0,0:0:0:0:
248,52,74846,6,0,P|275:121|279:195,1,150,2|0,0:0|0:0,0:0:0:0:
260,272,75296,1,0,0:0:0:0:
396,276,75446,2,0,P|355:294|311:338,1,75,0|0,0:0|0:0,0:0:0:0:
196,234,75746,2,0,P|230:249|260:272,1,75,0|0,0:0|0:0,0:0:0:0:
148,288,76046,2,0,P|194:231|176:160,1,150,2|0,0:0|0:0,0:0:0:0:
124,216,76496,1,0,0:0:0:0:
176,76,76646,2,0,P|128:100|64:92,1,75,0|0,0:0|0:0,0:0:0:0:
256,72,76946,2,0,P|293:71|328:83,1,75,0|0,0:0|0:0,0:0:0:0:
352,156,77246,102,0,P|328:86|347:14,1,150,2|0,0:0|0:0,0:0:0:0:
424,180,77696,1,0,0:0:0:0:
424,180,77846,2,0,P|376:228|296:208,1,150,0|0,0:0|0:0,0:0:0:0:
348,316,78296,1,0,0:0:0:0:
348,316,78446,2,0,P|256:292|180:300,1,150,2|0,0:0|0:0,0:0:0:0:
132,320,78896,1,0,0:0:0:0:
84,264,79046,2,0,L|92:168,1,75,0|0,0:0|0:0,0:0:0:0:
172,136,79346,2,0,L|180:232,1,75,0|0,0:0|0:0,0:0:0:0:
123,82,79646,6,0,P|179:138|279:126,1,150,2|0,0:0|0:0,0:0:0:0:
316,112,80096,1,0,0:0:0:0:
408,220,80246,2,0,P|392:192|388:136,1,75,0|0,0:0|0:0,0:0:0:0:
432,20,80546,2,0,P|415:47|369:79,1,75,0|0,0:0|0:0,0:0:0:0:
344,260,80846,2,0,P|408:220|504:220,1,150,2|0,0:0|0:0,0:0:0:0:
316,332,81296,1,0,0:0:0:0:
316,332,81446,2,0,P|268:320|200:324,1,75,0|0,0:0|0:0,0:0:0:0:
108,272,81746,2,0,P|145:268|181:258,1,75,0|0,0:0|0:0,0:0:0:0:
16,148,82046,102,0,P|60:180|160:180,1,150,2|0,0:0|0:0,0:0:0:0:
224,156,82496,1,0,0:0:0:0:
292,68,82646,2,0,P|292:152|332:236,1,150,0|0,0:0|0:0,0:0:0:0:
372,264,83096,1,0,0:0:0:0:
369,144,83246,2,0,P|295:135|224:156,1,150,2|0,0:0|0:0,0:0:0:0:
164,200,83696,1,0,0:0:0:0:
116,256,83846,2,0,P|108:296|80:340,1,75,0|0,0:0|0:0,0:0:0:0:
164,200,84146,2,0,P|144:164|140:112,1,75,0|0,0:0|0:0,0:0:0:0:
116,256,84446,6,0,P|176:272|236:212,1,150,2|0,0:0|0:0,0:0:0:0:
316,256,84896,1,0,0:0:0:0:
316,256,85046,2,0,L|308:160,1,75,0|0,0:0|0:0,0:0:0:0:
288,36,85346,2,0,L|280:132,1,75,0|0,0:0|0:0,0:0:0:0:
424,296,85646,2,0,P|396:232|388:136,1,150,2|0,0:0|0:0,0:0:0:0:
404,80,86096,1,0,0:0:0:0:
316,256,86246,2,0,P|272:276|216:272,1,75,0|0,0:0|0:0,0:0:0:0:
128,172,86546,2,0,P|167:200|191:250,1,75,0|0,0:0|0:0,0:0:0:0:
60,176,86846,102,0,P|136:168|220:112,1,150,2|0,0:0|0:0,0:0:0:0:
404,80,87296,1,0,0:0:0:0:
404,80,87446,2,0,P|372:149|379:250,1,150,0|0,0:0|0:0,0:0:0:0:
264,376,87896,1,0,0:0:0:0:
264,376,88046,2,0,P|219:314|128:269,1,150,2|0,0:0|0:0,0:0:0:0:
84,256,88496,1,0,0:0:0:0:
296,280,88646,2,0,L|392:272,1,75,0|0,0:0|0:0,0:0:0:0:
236,216,88946,2,0,L|140:208,1,75,0|0,0:0|0:0,0:0:0:0:
284,136,89246,6,0,P|332:189|403:175,1,150,2|0,0:0|0:0,0:0:0:0:
452,120,89696,1,0,0:0:0:0:
452,120,89846,2,0,P|456:80|476:44,1,75,2|0,0:0|0:0,0:0:0:0:
424,252,90146,2,0,P|387:268|346:269,1,75,0|0,0:0|0:0,0:0:0:0:
236,216,90446,2,0,P|248:272|208:364,1,150,2|0,0:0|0:0,0:0:0:0:
144,372,90896,1,0,0:0:0:0:
144,372,91046,2,0,L|48:364,1,75,2|0,0:0|0:0,0:0:0:0:
316,328,91346,2,0,L|412:320,1,75,0|0,0:0|0:0,0:0:0:0:
148,264,91646,102,0,P|124:196|56:132,1,150,2|0,0:0|0:0,0:0:0:0:
0,116,92096,1,0,0:0:0:0:
96,316,92246,2,0,P|149:263|219:238,1,150,2|0,0:0|0:0,0:0:0:0:
296,236,92696,1,0,0:0:0:0:
119,155,92846,2,0,P|48:169|0:116,1,150,2|0,0:0|0:0,0:0:0:0:
72,96,93296,1,0,0:0:0:0:
296,235,93446,2,0,P|276:160|295:88,1,150,2|0,0:0|0:0,0:0:0:0:
336,28,93896,1,0,0:0:0:0:
196,176,94046,6,0,P|196:216|172:272,1,75,2|0,0:0|0:0,0:0:0:0:
48,308,94346,2,0,P|82:288|143:280,1,75,0|0,0:0|0:0,0:0:0:0:
384,312,94646,1,2,0:0:0:0:
320,352,94796,1,0,0:0:0:0:
244,356,94946,1,0,0:0:0:0:
172,332,95096,1,0,0:0:0:0:
116,280,95246,2,0,P|100:208|48:140,1,150,2|0,0:0|0:0,0:0:0:0:
32,132,95646,1,0,0:0:0:0:
61,138,95746,1,0,0:0:0:0:
91,140,95846,1,2,0:0:0:0:
120,134,95946,1,0,0:0:0:0:
146,119,96046,1,0,0:0:0:0:
171,103,96146,1,0,0:0:0:0:
200,94,96246,1,0,0:0:0:0:
230,94,96346,1,0,0:0:0:0:
260,104,96446,102,0,P|340:112|412:40,1,150,6|0,0:0|0:0,0:0:0:0:
424,4,96896,1,0,0:0:0:0:
460,196,97046,2,0,P|464:164|452:116,1,75,10|0,0:0|0:0,0:0:0:0:
404,252,97346,2,0,P|374:264|338:298,1,75,0|0,0:0|0:0,0:0:0:0:
356,368,97646,2,0,P|344:296|272:248,1,150,2|0,0:0|0:0,0:0:0:0:
212,240,98096,1,0,0:0:0:0:
352,188,98246,2,0,L|360:92,1,75,10|0,0:0|0:0,0:0:0:0:
264,56,98546,2,0,L|272:152,1,75,0|0,0:0|0:0,0:0:0:0:
328,16,98846,6,0,P|256:56|156:44,1,150,2|0,0:0|0:0,0:0:0:0:
116,44,99296,1,0,0:0:0:0:
32,16,99446,2,0,P|44:64|28:128,1,75,10|0,0:0|0:0,0:0:0:0:
120,192,99746,2,0,P|119:154|130:118,1,75,0|0,0:0|0:0,0:0:0:0:
120,192,100046,2,0,P|176:232|220:312,1,150,2|0,0:0|0:0,0:0:0:0:
236,376,100496,1,0,0:0:0:0:
260,204,100646,2,0,P|296:198|330:182,1,75,10|0,0:0|0:0,0:0:0:0:
464,236,100946,2,0,P|441:206|410:185,1,75,0|0,0:0|0:0,0:0:0:0:
316,276,101246,102,0,L|309:350,1,75,2|0,0:0|0:0,0:0:0:0:
236,376,101546,1,0,0:0:0:0:
410,185,101696,2,0,P|392:136|400:88,1,75,0|10,0:0|0:0,0:0:0:0:
420,44,101996,1,0,0:0:0:0:
260,204,102146,2,0,L|185:210,1,75,0|0,0:0|0:0,0:0:0:0:
72,88,102446,2,0,P|160:128|260:112,1,150,2|0,0:0|0:0,0:0:0:0:
284,104,102896,1,0,0:0:0:0:
420,44,103046,2,0,P|388:76|376:136,1,75,10|0,0:0|0:0,0:0:0:0:
464,236,103346,2,0,P|441:206|410:185,1,75,0|0,0:0|0:0,0:0:0:0:
336,204,103646,5,2,0:0:0:0:
410,185,103796,1,0,0:0:0:0:
460,128,103946,1,0,0:0:0:0:
260,204,104096,2,0,P|232:184|180:176,1,75,0|10,0:0|0:0,0:0:0:0:
200,248,104396,1,0,0:0:0:0:
284,104,104546,2,0,L|290:29,1,75,0|0,0:0|0:0,0:0:0:0:
336,204,104846,2,0,P|328:280|372:360,1,150,2|0,0:0|0:0,0:0:0:0:
424,380,105296,1,0,0:0:0:0:
200,248,105446,2,0,P|152:236|104:244,1,75,10|0,0:0|0:0,0:0:0:0:
336,204,105746,2,0,P|370:168|387:122,1,75,0|0,0:0|0:0,0:0:0:0:
188,140,106046,102,0,P|268:148|324:76,1,150,6|0,0:0|0:0,0:0:0:0:
328,28,106496,1,0,0:0:0:0:
336,204,106646,2,0,L|342:278,1,75,10|0,0:0|0:0,0:0:0:0:
264,152,106946,2,0,L|257:226,1,75,0|0,0:0|0:0,0:0:0:0:
192,64,107246,6,0,P|187:137|143:197,1,150,2|0,0:0|0:0,0:0:0:0:
76,232,107696,1,0,0:0:0:0:
264,152,107846,2,0,P|300:124|364:120,1,75,10|0,0:0|0:0,0:0:0:0:
252,300,108146,2,0,P|224:274|189:262,1,75,0|0,0:0|0:0,0:0:0:0:
216,368,108446,2,0,P|284:368|328:288,1,150,2|0,0:0|0:0,0:0:0:0:
432,344,108896,1,0,0:0:0:0:
432,344,109046,2,0,P|404:308|408:244,1,75,10|0,0:0|0:0,0:0:0:0:
252,300,109346,2,0,P|280:264|276:200,1,75,0|0,0:0|0:0,0:0:0:0:
192,92,109646,2,0,P|188:164|212:252,1,150,2|0,0:0|0:0,0:0:0:0:
252,300,110096,1,0,0:0:0:0:
112,192,110246,102,0,L|37:185,1,75,10|0,0:0|0:0,0:0:0:0:
192,92,110546,2,0,L|117:98,1,75,0|0,0:0|0:0,0:0:0:0:
292,156,110846,2,0,P|264:184|256:240,1,75,2|0,0:0|0:0,0:0:0:0:
328,220,111146,1,0,0:0:0:0:
192,92,111296,2,0,P|181:53|137:18,1,75,0|10,0:0|0:0,0:0:0:0:
84,16,111596,1,0,0:0:0:0:
264,56,111746,2,0,L|338:62,1,75,0|0,0:0|0:0,0:0:0:0:
437,127,112046,6,0,P|362:131|292:155,1,150,2|0,0:0|0:0,0:0:0:0:
232,200,112496,1,0,0:0:0:0:
164,331,112646,2,0,P|185:300|191:263,1,75,10|0,0:0|0:0,0:0:0:0:
84,164,112946,2,0,P|100:197|128:221,1,75,0|0,0:0|0:0,0:0:0:0:
276,280,113246,2,0,P|352:252|452:260,1,150,2|0,0:0|0:0,0:0:0:0:
492,272,113696,1,0,0:0:0:0:
348,328,113846,2,0,P|347:253|320:183,1,150,10|0,0:0|0:0,0:0:0:0:
264,136,114296,1,0,0:0:0:0:
196,108,114446,102,0,L|92:120,1,75,2|0,0:0|0:0,0:0:0:0:
264,136,114746,2,0,P|304:108|360:120,1,75,0|0,0:0|0:0,0:0:0:0:
492,312,115046,1,10,0:0:0:0:
424,285,115196,1,0,0:0:0:0:
366,241,115346,1,0,0:0:0:0:
320,184,115496,1,0,0:0:0:0:
191,34,115646,2,0,P|199:70|196:108,1,75,2|0,0:0|0:0,0:0:0:0:
80,208,115946,2,0,P|107:182|141:167,1,75,0|0,0:0|0:0,0:0:0:0:
76,356,116246,1,2,0:0:0:0:
92,284,116396,1,0,0:0:0:0:
80,208,116546,1,0,0:0:0:0:
28,148,116696,1,0,0:0:0:0:
152,232,116846,6,0,P|168:265|167:302,1,75,2|0,0:0|0:0,0:0:0:0:
228,208,117146,2,0,P|228:168|244:136,1,75,0|0,0:0|0:0,0:0:0:0:
368,248,117446,2,0,L|264:260,1,75,2|0,0:0|0:0,0:0:0:0:
400,144,117746,2,0,L|504:156,1,75,0|0,0:0|0:0,0:0:0:0:
228,208,118046,1,4,0:0:0:0:
128,36,136046,101,2,0:0:0:0:
140,112,136196,1,0,0:0:0:0:
68,256,136346,1,0,0:0:0:0:
80,180,136496,1,0,0:0:0:0:
340,192,136646,2,0,P|268:200|180:156,1,150,0|0,0:0|0:0,0:0:0:0:
140,112,137096,1,0,0:0:0:0:
284,128,137246,6,0,P|255:196|263:270,1,150,2|0,0:0|0:0,0:0:0:0:
304,332,137696,1,0,0:0:0:0:
188,288,137846,2,0,P|151:294|121:316,1,75,0|0,0:0|0:0,0:0:0:0:
304,332,138146,2,0,P|332:356|368:366,1,75,0|0,0:0|0:0,0:0:0:0:
224,352,138446,2,0,P|188:276|188:172,1,150,2|0,0:0|0:0,0:0:0:0:
188,136,138896,1,0,0:0:0:0:
281,24,139046,2,0,P|263:56|232:76,1,75,0|0,0:0|0:0,0:0:0:0:
118,118,139346,2,0,P|155:118|188:136,1,75,0|0,0:0|0:0,0:0:0:0:
84,188,139646,102,0,P|44:144|76:52,1,150,2|0,0:0|0:0,0:0:0:0:
44,292,140096,1,0,0:0:0:0:
44,292,140246,2,0,P|116:260|200:264,1,150,0|0,0:0|0:0,0:0:0:0:
188,136,140696,1,0,0:0:0:0:
188,136,140846,2,0,P|256:160|384:152,1,150,2|0,0:0|0:0,0:0:0:0:
404,140,141296,1,0,0:0:0:0:
312,244,141446,2,0,P|353:243|398:217,1,75,0|0,0:0|0:0,0:0:0:0:
248,288,141746,2,0,P|228:324|227:376,1,75,0|0,0:0|0:0,0:0:0:0:
248,288,142046,6,0,P|208:220|112:176,1,150,2|0,0:0|0:0,0:0:0:0:
76,168,142496,1,0,0:0:0:0:
256,160,142646,2,0,P|270:119|264:64,1,75,0|0,0:0|0:0,0:0:0:0:
312,244,142946,2,0,P|339:276|391:298,1,75,0|0,0:0|0:0,0:0:0:0:
360,92,143246,2,0,P|352:144|428:236,1,150,2|0,0:0|0:0,0:0:0:0:
472,244,143696,1,0,0:0:0:0:
312,244,143846,2,0,L|228:252,1,75,0|0,0:0|0:0,0:0:0:0:
88,212,144146,2,0,L|172:220,1,75,0|0,0:0|0:0,0:0:0:0:
360,92,144446,102,0,P|316:132|224:100,1,150,2|0,0:0|0:0,0:0:0:0:
292,64,144896,1,0,0:0:0:0:
88,212,145046,2,0,P|132:156|140:76,1,150,0|0,0:0|0:0,0:0:0:0:
124,8,145496,1,0,0:0:0:0:
16,216,145646,2,0,P|88:212|168:248,1,150,2|0,0:0|0:0,0:0:0:0:
216,288,146096,1,0,0:0:0:0:
264,344,146246,2,0,P|300:320|336:312,1,75,0|0,0:0|0:0,0:0:0:0:
388,180,146546,2,0,P|390:223|379:258,1,75,0|0,0:0|0:0,0:0:0:0:
332,136,146846,22,0,P|376:176|468:144,1,150,2|0,0:0|0:0,0:0:0:0:
400,108,147296,1,0,0:0:0:0:
288,208,147446,2,0,P|244:188|204:192,1,75,0|0,0:0|0:0,0:0:0:0:
264,344,147746,2,0,P|308:324|348:328,1,75,0|0,0:0|0:0,0:0:0:0:
228,268,148046,2,0,P|160:268|64:304,1,150,2|0,0:0|0:0,0:0:0:0:
20,336,148496,1,0,0:0:0:0:
48,188,148646,2,0,L|122:195,1,75,0|0,0:0|0:0,0:0:0:0:
272,160,148946,2,0,L|197:167,1,75,0|0,0:0|0:0,0:0:0:0:
328,212,149246,6,0,P|400:220|476:200,1,150,2|0,0:0|0:0,0:0:0:0:
256,236,149696,1,0,0:0:0:0:
256,236,149846,2,0,P|213:294|192:370,1,150,0|0,0:0|0:0,0:0:0:0:
272,160,150296,1,0,0:0:0:0:
272,160,150446,2,0,P|242:93|187:37,1,150,2|0,0:0|0:0,0:0:0:0:
116,28,150896,1,0,0:0:0:0:
340,112,151046,2,0,L|432:116,1,75,0|0,0:0|0:0,0:0:0:0:
256,236,151346,2,0,P|234:265|225:320,1,75,0|0,0:0|0:0,0:0:0:0:
324,212,151646,102,0,P|252:232|200:184,1,150,2|0,0:0|0:0,0:0:0:0:
140,232,152096,1,0,0:0:0:0:
140,232,152246,2,0,P|100:216|40:220,1,75,2|0,0:0|0:0,0:0:0:0:
272,160,152546,2,0,P|305:133|332:79,1,75,0|0,0:0|0:0,0:0:0:0:
104,84,152846,2,0,P|172:108|256:72,1,150,2|0,0:0|0:0,0:0:0:0:
292,28,153296,1,0,0:0:0:0:
272,160,153446,2,0,L|264:252,1,75,2|0,0:0|0:0,0:0:0:0:
356,184,153746,2,0,L|348:92,1,75,0|0,0:0|0:0,0:0:0:0:
444,160,154046,6,0,P|436:234|462:303,1,150,2|0,0:0|0:0,0:0:0:0:
488,84,154496,1,0,0:0:0:0:
488,84,154646,2,0,P|448:64|428:20,1,75,2|0,0:0|0:0,0:0:0:0:
355,184,154946,2,0,P|321:198|300:228,1,75,0|0,0:0|0:0,0:0:0:0:
360,272,155246,2,0,P|316:232|224:264,1,150,2|0,0:0|0:0,0:0:0:0:
292,300,155696,1,0,0:0:0:0:
462,303,155846,2,0,P|436:234|444:160,1,150,2|0,0:0|0:0,0:0:0:0:
488,84,156296,1,0,0:0:0:0:
356,184,156446,102,0,L|272:192,1,75,2|0,0:0|0:0,0:0:0:0:
136,160,156746,2,0,L|220:168,1,75,0|0,0:0|0:0,0:0:0:0:
88,100,157046,1,2,0:0:0:0:
136,160,157196,1,0,0:0:0:0:
148,236,157346,1,0,0:0:0:0:
136,312,157496,1,0,0:0:0:0:
84,364,157646,2,0,P|128:316|232:320,1,150,2|0,0:0|0:0,0:0:0:0:
240,316,158046,1,0,0:0:0:0:
269,323,158146,1,0,0:0:0:0:
298,321,158246,1,2,0:0:0:0:
326,310,158346,1,0,0:0:0:0:
350,292,158446,1,0,0:0:0:0:
367,268,158546,1,0,0:0:0:0:
377,239,158646,1,0,0:0:0:0:
377,210,158746,1,0,0:0:0:0:
369,181,158846,86,0,P|360:112|408:32,1,150,6|0,0:0|0:0,0:0:0:0:
464,8,159296,1,0,0:0:0:0:
288,80,159446,2,0,P|252:96|208:92,1,75,10|0,0:0|0:0,0:0:0:0:
244,200,159746,2,0,P|208:184|164:188,1,75,0|0,0:0|0:0,0:0:0:0:
244,200,160046,2,0,P|300:256|392:264,1,150,2|0,0:0|0:0,0:0:0:0:
440,252,160496,1,0,0:0:0:0:
212,292,160646,2,0,P|188:316|172:364,1,75,10|0,0:0|0:0,0:0:0:0:
100,264,160946,2,0,L|112:172,1,75,0|0,0:0|0:0,0:0:0:0:
140,128,161246,6,0,P|104:192|32:196,1,150,2|0,0:0|0:0,0:0:0:0:
64,128,161696,1,0,0:0:0:0:
212,292,161846,2,0,P|248:276|292:280,1,75,10|0,0:0|0:0,0:0:0:0:
400,376,162146,2,0,P|368:352|352:312,1,75,0|0,0:0|0:0,0:0:0:0:
420,160,162446,2,0,P|408:232|444:316,1,150,2|0,0:0|0:0,0:0:0:0:
504,324,162896,1,0,0:0:0:0:
332,184,163046,102,0,L|320:104,1,75,10|0,0:0|0:0,0:0:0:0:
256,216,163346,2,0,L|244:296,1,75,0|0,0:0|0:0,0:0:0:0:
376,40,163646,2,0,P|400:68|452:80,1,75,2|0,0:0|0:0,0:0:0:0:
444,8,163946,1,0,0:0:0:0:
264,140,164096,2,0,P|223:126|177:134,1,75,0|10,0:0|0:0,0:0:0:0:
124,160,164396,1,0,0:0:0:0:
330,96,164546,2,0,P|359:73|376:40,1,75,0|0,0:0|0:0,0:0:0:0:
332,184,164846,2,0,P|316:268|352:328,1,150,2|0,0:0|0:0,0:0:0:0:
412,352,165296,1,0,0:0:0:0:
236,216,165446,2,0,P|192:232|160:264,1,75,10|0,0:0|0:0,0:0:0:0:
396,248,165746,2,0,P|436:252|488:236,1,75,0|0,0:0|0:0,0:0:0:0:
332,184,166046,5,2,0:0:0:0:
264,140,166196,1,0,0:0:0:0:
244,68,166346,1,0,0:0:0:0:
396,248,166496,2,0,P|384:292|340:332,1,75,0|10,0:0|0:0,0:0:0:0:
304,356,166796,1,0,0:0:0:0:
332,184,166946,2,0,L|340:88,1,75,0|0,0:0|0:0,0:0:0:0:
236,216,167246,2,0,P|164:240|64:232,1,150,2|0,0:0|0:0,0:0:0:0:
20,216,167696,1,0,0:0:0:0:
160,168,167846,2,0,P|160:248|184:332,1,150,10|0,0:0|0:0,0:0:0:0:
304,356,168296,1,0,0:0:0:0:
373,333,168446,102,0,P|320:284|252:304,1,150,2|0,0:0|0:0,0:0:0:0:
448,336,168896,1,0,0:0:0:0:
448,336,169046,2,0,P|464:288|488:264,1,75,10|0,0:0|0:0,0:0:0:0:
360,164,169346,2,0,P|393:201|402:234,1,75,0|0,0:0|0:0,0:0:0:0:
424,124,169646,2,0,P|348:164|268:160,1,150,2|0,0:0|0:0,0:0:0:0:
216,140,170096,1,0,0:0:0:0:
172,80,170246,2,0,P|152:48|108:20,1,75,10|0,0:0|0:0,0:0:0:0:
296,88,170546,2,0,P|333:86|379:62,1,75,0|0,0:0|0:0,0:0:0:0:
216,140,170846,6,0,P|184:208|180:292,1,150,2|0,0:0|0:0,0:0:0:0:
256,352,171296,1,0,0:0:0:0:
256,352,171446,2,0,L|340:364,1,75,10|0,0:0|0:0,0:0:0:0:
179,282,171746,2,0,L|95:294,1,75,0|0,0:0|0:0,0:0:0:0:
281,214,172046,2,0,P|354:238|415:171,1,150,2|0,0:0|0:0,0:0:0:0:
338,167,172496,1,0,0:0:0:0:
320,318,172646,2,0,P|291:341|256:352,1,75,10|0,0:0|0:0,0:0:0:0:
440,284,172946,2,0,P|474:296|501:322,1,75,0|0,0:0|0:0,0:0:0:0:
179,282,173246,102,0,L|95:270,1,75,2|0,0:0|0:0,0:0:0:0:
32,296,173546,1,0,0:0:0:0:
281,214,173696,2,0,P|320:176|360:160,1,75,0|10,0:0|0:0,0:0:0:0:
412,160,173996,1,0,0:0:0:0:
204,204,174146,2,0,P|168:192|132:156,1,75,0|0,0:0|0:0,0:0:0:0:
124,96,174446,2,0,P|140:176|112:248,1,150,2|0,0:0|0:0,0:0:0:0:
32,296,174896,1,0,0:0:0:0:
88,344,175046,2,0,P|128:328|176:328,1,75,10|0,0:0|0:0,0:0:0:0:
282,214,175346,2,0,P|248:187|224:145,1,75,0|0,0:0|0:0,0:0:0:0:
282,214,175646,6,0,P|368:212|452:240,1,150,2|0,0:0|0:0,0:0:0:0:
488,276,176096,1,0,0:0:0:0:
340,284,176246,2,0,P|360:208|344:128,1,150,10|0,0:0|0:0,0:0:0:0:
320,68,176696,1,0,0:0:0:0:
252,36,176846,2,0,L|164:28,1,75,2|0,0:0|0:0,0:0:0:0:
320,68,177146,2,0,L|408:60,1,75,0|0,0:0|0:0,0:0:0:0:
136,104,177446,2,0,P|108:72|68:56,1,75,2|0,0:0|0:0,0:0:0:0:
412,132,177746,2,0,P|452:108|472:64,1,75,0|0,0:0|0:0,0:0:0:0:
336,160,178046,5,6,0:0:0:0:
329,189,178146,1,0,0:0:0:0:
330,219,178246,1,0,0:0:0:0:
336,248,178346,1,0,0:0:0:0:
349,275,178446,1,0,0:0:0:0:
367,299,178546,1,0,0:0:0:0:
396,312,178646,2,0,L|472:320,2,50,0|0|0,0:0|0:0|0:0,0:0:0:0:
272,292,178946,2,0,L|196:300,2,50,0|0|0,0:0|0:0|0:0,0:0:0:0:
228,180,179246,2,0,P|192:220|64:220,1,150,2|0,0:0|0:0,0:0:0:0:
32,204,179696,1,0,0:0:0:0:
124,336,179846,2,0,P|84:316|16:320,1,75,0|0,0:0|0:0,0:0:0:0:
124,156,180146,2,0,P|161:131|191:70,1,75,0|0,0:0|0:0,0:0:0:0:
367,169,180446,6,0,P|295:151|228:180,1,150,2|0,0:0|0:0,0:0:0:0:
188,244,180896,1,0,0:0:0:0:
124,156,181046,2,0,L|136:64,1,75,0|0,0:0|0:0,0:0:0:0:
188,244,181346,2,0,P|220:276|232:336,1,75,0|0,0:0|0:0,0:0:0:0:
188,364,181646,2,0,P|232:300|304:272,1,150,2|0,0:0|0:0,0:0:0:0:
372,280,182096,1,0,0:0:0:0:
188,244,182246,2,0,P|140:256|80:244,1,75,0|0,0:0|0:0,0:0:0:0:
326,222,182546,2,0,P|353:247|372:280,1,75,0|0,0:0|0:0,0:0:0:0:
256,192,182846,101,2,0:0:0:0:
250,162,182946,1,0,0:0:0:0:
251,132,183046,1,0,0:0:0:0:
259,104,183146,1,0,0:0:0:0:
274,78,183246,1,0,0:0:0:0:
295,56,183346,1,0,0:0:0:0:
320,40,183446,2,0,L|380:32,2,50,0|0|0,0:0|0:0|0:0,0:0:0:0:
180,68,183746,2,0,L|120:59,2,50,0|0|0,0:0|0:0|0:0,0:0:0:0:
84,188,184046,5,2,0:0:0:0:
111,176,184146,1,0,0:0:0:0:
140,169,184246,1,0,0:0:0:0:
170,167,184346,1,0,0:0:0:0:
200,171,184446,1,0,0:0:0:0:
229,179,184546,1,0,0:0:0:0:
256,192,184646,2,0,L|268:248,2,50,0|0|0,0:0|0:0|0:0,0:0:0:0:
180,68,184946,2,0,L|192:12,2,50,0|0|0,0:0|0:0|0:0,0:0:0:0:
188,256,185246,102,0,P|200:292|180:352,1,75,2|0,0:0|0:0,0:0:0:0:
124,300,185546,1,0,0:0:0:0:
256,192,185696,2,0,L|336:200,1,75,0|0,0:0|0:0,0:0:0:0:
464,144,185996,1,0,0:0:0:0:
464,144,186146,2,0,L|384:152,1,75,0|0,0:0|0:0,0:0:0:0:
324,300,186446,1,2,0:0:0:0:
396,276,186596,1,0,0:0:0:0:
444,216,186746,1,0,0:0:0:0:
464,144,186896,1,0,0:0:0:0:
298,226,187046,1,0,0:0:0:0:
324,300,187196,1,0,0:0:0:0:
382,346,187346,1,0,0:0:0:0:
455,366,187496,1,0,0:0:0:0:
252,284,187646,22,0,P|196:272|152:280,1,75,2|0,0:0|0:0,0:0:0:0:
108,296,187946,1,0,0:0:0:0:
104,140,188096,2,0,P|112:176|150:228,1,75,0|8,0:0|0:0,0:0:0:0:
188,148,188396,2,0,L|180:64,1,75,0|0,0:0|0:0,0:0:0:0:
120,28,188696,1,0,0:0:0:0:
264,172,188846,2,0,P|308:156|344:160,1,75,2|0,0:0|0:0,0:0:0:0:
404,184,189146,1,0,0:0:0:0:
288,60,189296,2,0,P|334:68|363:89,1,75,0|8,0:0|0:0,0:0:0:0:
404,184,189596,1,0,0:0:0:0:
384,0,189746,2,0,P|419:30|434:63,1,75,0|0,0:0|0:0,0:0:0:0:
372,252,190046,102,0,P|401:184|453:130,1,150,2|0,0:0|0:0,0:0:0:0:
508,80,190496,1,0,0:0:0:0:
264,172,190646,2,0,L|180:180,1,75,8|0,0:0|0:0,0:0:0:0:
288,60,190946,2,0,L|372:68,1,75,0|0,0:0|0:0,0:0:0:0:
438,274,191246,2,0,P|368:250|260:296,1,150,2|0,0:0|0:0,0:0:0:0:
171,353,191746,1,0,0:0:0:0:
188,328,191846,1,2,0:0:0:0:
199,300,191946,1,0,0:0:0:0:
203,271,192046,1,0,0:0:0:0:
199,241,192146,1,0,0:0:0:0:
188,213,192246,1,0,0:0:0:0:
170,189,192346,1,0,0:0:0:0:
147,170,192446,1,0,0:0:0:0:
147,170,193946,70,0,P|224:176|292:132,1,150,4|0,0:0|0:0,0:0:0:0:
456,232,194651,2,0,P|392:236|332:204,1,112.500004291535,0|0,0:0|0:0,0:0:0:0:
107,103,195467,2,0,P|147:165|147:240,1,150,0|0,0:0|0:0,0:0:0:0:
128,312,196482,1,0,0:0:0:0:
128,312,196758,2,0,L|240:320,1,97.4999955368044,4|0,0:0|0:0,0:0:0:0:
396,260,197439,2,0,L|284:268,1,97.4999955368044,0|0,0:0|0:0,0:0:0:0:
80,200,198121,2,0,P|116:224|180:216,1,97.4999955368044,0|0,0:0|0:0,0:0:0:0:
472,220,198803,2,0,P|444:192|376:184,1,97.4999955368044,0|0,0:0|0:0,0:0:0:0:
236,144,199485,6,0,P|296:144|364:60,1,150,0|0,0:0|0:0,0:0:0:0:
372,12,200508,1,0,0:0:0:0:
348,212,200830,2,0,P|336:252|348:332,1,112.500004291535,4|0,0:0|0:0,0:0:0:0:
312,136,201430,2,0,P|272:92|204:72,1,112.500004291535,0|0,0:0|0:0,0:0:0:0:
268,204,202030,1,4,0:0:0:0:
392,148,202330,1,0,0:0:0:0:
312,24,202630,1,0,0:0:0:0:
340,324,202930,1,0,0:0:0:0:
100,84,224700,101,0,0:0:0:0:
100,84,224850,1,0,0:0:0:0:
100,84,225000,2,0,P|93:141|110:176,1,89.9999972534181,4|0,0:0|0:0,0:0:0:0:
32,220,225600,2,0,P|65:249|109:257,1,89.9999972534181,0|0,0:0|0:0,0:0:0:0:
344,268,226200,2,0,P|284:220|168:224,1,179.999994506836,0|0,0:0|0:0,0:0:0:0:
109,256,227100,1,0,0:0:0:0:
339,169,227400,2,0,P|391:193|447:189,1,89.9999972534181,0|0,0:0|0:0,0:0:0:0:
447,185,227850,2,0,P|379:225|343:273,1,134.999995880127,0|0,0:0|0:0,0:0:0:0:
447,185,228600,1,0,0:0:0:0:
447,185,229200,5,0,0:0:0:0:
360,212,229500,1,0,0:0:0:0:
376,124,229800,1,4,0:0:0:0:
292,152,230100,1,0,0:0:0:0:
300,64,230400,2,0,P|252:68|196:36,1,89.9999972534181,0|0,0:0|0:0,0:0:0:0:
224,308,231000,2,0,P|236:220|292:152,1,179.999994506836,0|0,0:0|0:0,0:0:0:0:
376,124,231900,1,0,0:0:0:0:
144,176,232200,2,0,P|140:224|112:263,1,89.9999972534181,0|0,0:0|0:0,0:0:0:0:
100,271,232650,2,0,P|176:279|248:335,1,134.999995880127,0|0,0:0|0:0,0:0:0:0:
100,271,233400,1,0,0:0:0:0:
100,271,234000,101,0,0:0:0:0:
76,184,234300,1,0,0:0:0:0:
172,320,234600,2,0,P|228:308|344:352,1,179.999994506836,4|0,0:0|0:0,0:0:0:0:
420,304,235500,1,0,0:0:0:0:
420,304,235800,2,0,P|456:256|460:172,2,134.999995880127,0|0|0,0:0|0:0|0:0,0:0:0:0:
172,320,237000,2,0,P|112:312|37:351,2,134.999995880127,0|0|0,0:0|0:0|0:0,0:0:0:0:
316,340,238200,2,0,P|280:276|288:152,1,179.999994506836,0|0,0:0|0:0,0:0:0:0:
316,88,239100,1,0,0:0:0:0:
184,176,239400,6,0,L|44:184,2,134.999995880127,4|0|0,0:0|0:0|0:0,0:0:0:0:
344,244,240600,2,0,L|508:256,2,157.499995193482,0|0|0,0:0|0:0|0:0,0:0:0:0:
192,304,241800,2,0,L|8:316,2,180,0|0|0,0:0|0:0|0:0,0:0:0:0:
332,352,243000,101,6,0:0:0:0:
320,324,243100,1,0,0:0:0:0:
313,295,243200,1,0,0:0:0:0:
312,265,243300,1,0,0:0:0:0:
316,235,243400,1,0,0:0:0:0:
325,207,243500,1,0,0:0:0:0:
339,180,243600,2,0,P|368:172|396:172,2,50,0|0|0,0:0|0:0|0:0,0:0:0:0:
248,120,243900,2,0,P|226:98|212:74,2,50,0|0|0,0:0|0:0|0:0,0:0:0:0:
228,220,244200,5,2,0:0:0:0:
201,205,244300,1,0,0:0:0:0:
173,195,244400,1,0,0:0:0:0:
144,190,244500,1,0,0:0:0:0:
114,189,244600,1,0,0:0:0:0:
84,194,244700,1,0,0:0:0:0:
56,203,244800,2,0,P|36:212|8:240,2,50,0|0|0,0:0|0:0|0:0,0:0:0:0:
96,292,245100,2,0,P|82:309|72:347,2,50,0|0|0,0:0|0:0|0:0,0:0:0:0:
72,64,245400,102,0,P|96:88|160:104,1,75,2|0,0:0|0:0,0:0:0:0:
312,86,245700,2,0,P|276:96|248:120,1,75,0|0,0:0|0:0,0:0:0:0:
388,100,246000,2,0,L|396:8,1,75,2|0,0:0|0:0,0:0:0:0:
360,192,246300,2,0,L|368:284,1,75,0|0,0:0|0:0,0:0:0:0:
428,308,246600,6,0,P|359:265|248:264,1,150,6|0,0:0|0:0,0:0:0:0:
216,264,247050,1,0,0:0:0:0:
444,220,247200,2,0,P|476:204|512:164,1,75,10|0,0:0|0:0,0:0:0:0:
216,264,247500,2,0,P|168:260|96:280,1,75,0|0,0:0|0:0,0:0:0:0:
80,304,247800,2,0,P|136:268|128:172,1,150,2|0,0:0|0:0,0:0:0:0:
76,228,248250,1,0,0:0:0:0:
216,264,248400,2,0,L|308:256,1,75,10|0,0:0|0:0,0:0:0:0:
444,220,248700,2,0,L|352:212,1,75,0|0,0:0|0:0,0:0:0:0:
192,160,249000,102,0,P|268:168|336:120,1,150,2|0,0:0|0:0,0:0:0:0:
356,60,249450,1,0,0:0:0:0:
192,160,249600,2,0,P|147:221|154:304,1,150,10|0,0:0|0:0,0:0:0:0:
196,352,250050,1,0,0:0:0:0:
192,160,250200,2,0,P|160:90|85:55,1,150,2|0,0:0|0:0,0:0:0:0:
23,67,250650,1,0,0:0:0:0:
282,55,250800,2,0,P|318:63|356:60,1,75,10|0,0:0|0:0,0:0:0:0:
192,160,251100,2,0,P|166:187|150:221,1,75,0|0,0:0|0:0,0:0:0:0:
98,73,251400,6,0,L|23:66,1,75,2|0,0:0|0:0,0:0:0:0:
172,44,251700,1,0,0:0:0:0:
68,200,251850,2,0,P|68:228|92:284,1,75,0|10,0:0|0:0,0:0:0:0:
140,324,252150,1,0,0:0:0:0:
192,160,252300,2,0,P|213:129|224:93,1,75,0|0,0:0|0:0,0:0:0:0:
192,160,252600,2,0,P|248:212|328:232,1,150,2|0,0:0|0:0,0:0:0:0:
392,240,253050,1,0,0:0:0:0:
209,305,253200,2,0,P|172:308|140:324,1,75,10|0,0:0|0:0,0:0:0:0:
298,302,253500,2,0,P|314:268|317:231,1,75,0|0,0:0|0:0,0:0:0:0:
184,85,253800,102,0,L|192:160,1,75,2|0,0:0|0:0,0:0:0:0:
228,228,254100,1,0,0:0:0:0:
365,325,254250,2,0,P|335:304|298:301,1,75,0|10,0:0|0:0,0:0:0:0:
308,376,254550,1,0,0:0:0:0:
228,228,254700,2,0,P|260:192|276:144,1,75,0|0,0:0|0:0,0:0:0:0:
376,92,255000,2,0,P|348:160|360:268,1,150,2|0,0:0|0:0,0:0:0:0:
365,325,255450,1,0,0:0:0:0:
228,228,255600,2,0,L|132:216,1,75,10|0,0:0|0:0,0:0:0:0:
366,326,255900,2,0,L|462:314,1,75,0|0,0:0|0:0,0:0:0:0:
256,336,256200,54,0,P|176:312|72:324,1,150,6|0,0:0|0:0,0:0:0:0:
36,332,256650,1,0,0:0:0:0:
228,228,256800,2,0,P|256:188|260:136,1,75,10|0,0:0|0:0,0:0:0:0:
168,36,257100,2,0,P|188:80|231:109,1,75,0|0,0:0|0:0,0:0:0:0:
367,82,257400,2,0,P|320:28|247:32,1,150,2|0,0:0|0:0,0:0:0:0:
292,96,257850,1,0,0:0:0:0:
416,240,258000,2,0,P|424:156|460:88,1,150,10|0,0:0|0:0,0:0:0:0:
500,40,258450,1,0,0:0:0:0:
292,96,258600,6,0,P|228:120|128:112,1,150,2|0,0:0|0:0,0:0:0:0:
76,96,259050,1,0,0:0:0:0:
256,196,259200,2,0,L|360:204,1,75,10|0,0:0|0:0,0:0:0:0:
490,234,259500,2,0,L|416:240,1,75,0|0,0:0|0:0,0:0:0:0:
204,288,259800,2,0,P|288:288|348:348,1,150,2|0,0:0|0:0,0:0:0:0:
128,332,260250,1,0,0:0:0:0:
128,332,260400,2,0,P|112:284|76:256,1,75,10|0,0:0|0:0,0:0:0:0:
104,132,260700,2,0,P|77:157|64:192,1,75,0|0,0:0|0:0,0:0:0:0:
204,288,261000,102,0,L|216:192,1,75,2|0,0:0|0:0,0:0:0:0:
256,96,261300,1,0,0:0:0:0:
104,132,261450,2,0,P|140:144|192:124,1,75,0|10,0:0|0:0,0:0:0:0:
140,68,261750,1,0,0:0:0:0:
288,192,261900,2,0,P|315:167|351:159,1,75,0|0,0:0|0:0,0:0:0:0:
412,204,262200,2,0,P|352:160|344:72,1,150,2|0,0:0|0:0,0:0:0:0:
352,16,262650,1,0,0:0:0:0:
288,192,262800,2,0,P|288:240|260:288,1,75,10|0,0:0|0:0,0:0:0:0:
412,204,263100,2,0,P|453:180|509:180,1,75,0|0,0:0|0:0,0:0:0:0:
412,204,263400,6,0,P|404:284|364:364,1,150,2|0,0:0|0:0,0:0:0:0:
248,360,263850,1,0,0:0:0:0:
248,360,264000,2,0,P|188:320|108:308,1,150,10|0,0:0|0:0,0:0:0:0:
36,320,264450,1,0,0:0:0:0:
244,260,264600,2,0,L|336:268,1,75,2|0,0:0|0:0,0:0:0:0:
486,197,264900,2,0,L|412:204,1,75,0|0,0:0|0:0,0:0:0:0:
208,136,265200,2,0,P|240:164|292:172,1,75,2|0,0:0|0:0,0:0:0:0:
112,204,265500,2,0,P|71:217|38:258,1,75,0|0,0:0|0:0,0:0:0:0:
100,108,287100,37,0,0:0:0:0:
68,40,287250,1,0,0:0:0:0:
48,160,287400,2,0,P|100:108|188:104,1,150,4|0,0:0|0:0,0:0:0:0:
248,112,287850,1,0,0:0:0:0:
352,4,288000,2,0,P|336:40|284:72,1,75,8|0,0:0|0:0,0:0:0:0:
277,178,288300,2,0,P|255:148|248:112,1,75
277,178,288600,2,0,P|352:176|432:212,1,150,2|0,0:0|0:0,0:0:0:0:
468,264,289050,1,0,0:0:0:0:
392,104,289200,2,0,L|472:96,1,75,8|0,0:0|0:0,0:0:0:0:
308,64,289500,2,0,L|228:56,1,75
144,220,289800,6,0,P|212:224|284:164,1,150,2|0,0:0|0:0,0:0:0:0:
308,64,290250,1,0,0:0:0:0:
192,152,290400,2,0,P|216:228|208:328,1,150,8|0,0:0|0:0,0:0:0:0:
196,372,290850,1,0,0:0:0:0:
192,152,291000,2,0,P|140:128|92:48,1,150,2|0,0:0|0:0,0:0:0:0:
272,148,291450,1,0,0:0:0:0:
272,148,291600,2,0,P|316:132|352:132,1,75,8|0,0:0|0:0,0:0:0:0:
272,264,291900,2,0,P|302:228|333:210,1,75
472,336,292200,102,0,P|388:340|352:256,1,150,2|0,0:0|0:0,0:0:0:0:
428,276,292650,1,0,0:0:0:0:
256,352,292800,2,0,P|216:332|160:332,1,75,8|0,0:0|0:0,0:0:0:0:
36,232,293100,2,0,P|72:226|105:208,1,75
116,132,293400,2,0,P|108:216|144:280,1,150,2|0,0:0|0:0,0:0:0:0:
188,328,293850,1,0,0:0:0:0:
328,356,294000,2,0,L|404:348,1,75,8|0,0:0|0:0,0:0:0:0:
340,260,294300,2,0,L|265:252,1,75
428,276,294600,6,0,P|412:208|440:132,1,150,2|0,0:0|0:0,0:0:0:0:
492,84,295050,1,0,0:0:0:0:
340,260,295200,2,0,P|310:305|216:294,1,150,8|0,0:0|0:0,0:0:0:0:
269,244,295650,1,0,0:0:0:0:
168,360,295800,2,0,P|104:336|16:340,1,150,2|0,0:0|0:0,0:0:0:0:
269,244,296250,1,0,0:0:0:0:
269,244,296400,2,0,P|280:196|268:152,1,75,8|0,0:0|0:0,0:0:0:0:
364,64,296700,2,0,P|316:78|284:110,1,75
96,44,297000,102,0,P|140:88|248:108,1,150,2|0,0:0|0:0,0:0:0:0:
297,94,297450,1,0,0:0:0:0:
364,64,297600,2,0,L|456:72,1,75,8|0,0:0|0:0,0:0:0:0:
268,244,297900,2,0,L|176:252,1,75
392,152,298200,2,0,P|352:200|376:284,1,150,2|0,0:0|0:0,0:0:0:0:
424,224,298650,1,0,0:0:0:0:
297,94,298800,2,0,P|264:112|212:112,1,75,8|0,0:0|0:0,0:0:0:0:
176,192,299100,2,0,P|142:174|90:174,1,75
176,192,299400,6,0,P|183:259|218:338,1,150,2|0,0:0|0:0,0:0:0:0:
280,376,299850,1,0,0:0:0:0:
258,242,300000,2,0,P|189:271|114:281,1,150,8|0,0:0|0:0,0:0:0:0:
40,276,300450,1,0,0:0:0:0:
280,376,300600,2,0,P|348:346|422:336,1,150,2|0,0:0|0:0,0:0:0:0:
500,340,301050,1,0,0:0:0:0:
320,280,301200,2,0,P|280:264|252:232,1,75,8|0,0:0|0:0,0:0:0:0:
120,248,301500,2,0,P|153:221|195:213,1,75
72,188,301800,102,0,P|120:252|128:344,1,150,2|0,0:0|0:0,0:0:0:0:
92,80,302250,1,0,0:0:0:0:
92,80,302400,2,0,P|132:128|220:104,1,150,10|0,0:0|0:0,0:0:0:0:
440,160,302850,1,0,0:0:0:0:
440,160,303000,2,0,P|400:208|312:184,1,150,2|0,0:0|0:0,0:0:0:0:
256,296,303450,1,0,0:0:0:0:
256,296,303600,2,0,P|180:292|84:320,1,150,10|0,0:0|0:0,0:0:0:0:
44,348,304050,1,0,0:0:0:0:
144,216,304200,6,0,P|148:168|132:132,1,75,6|0,0:0|0:0,0:0:0:0:
368,168,304500,2,0,P|364:216|380:252,1,75
216,120,304800,2,0,L|199:48,1,75,10|0,0:0|0:0,0:0:0:0:
296,264,305100,2,0,L|313:336,1,75
16,348,305400,1,6,0:0:0:0:
92,336,305550,1,0,0:0:0:0:
160,308,305700,1,0,0:0:0:0:
216,256,305850,1,0,0:0:0:0:
496,36,306000,1,10,0:0:0:0:
420,48,306150,1,0,0:0:0:0:
352,76,306300,1,0,0:0:0:0:
296,128,306450,1,0,0:0:0:0:
256,192,306600,37,4,0:0:0:0:
48,112,313050,54,0,P|100:136|176:84,1,150,4|0,0:0|0:0,0:0:0:0:
104,64,313500,1,0,0:0:0:0:
220,164,313650,2,0,P|260:148|308:156,1,75
384,268,313950,2,0,P|350:241|333:195,1,75
456,272,314250,2,0,P|380:272|320:312,1,150,4|0,0:0|0:0,0:0:0:0:
276,372,314700,1,0,0:0:0:0:
320,312,314850,1,0,0:0:0:0:
312,236,315000,1,0,0:0:0:0:
264,176,315150,1,0,0:0:0:0:
188,164,315300,1,0,0:0:0:0:
312,236,315450,6,0,P|340:176|296:104,1,150,4|0,0:0|0:0,0:0:0:0:
416,184,315900,1,0,0:0:0:0:
416,184,316050,2,0,L|424:104,1,75
320,312,316350,2,0,P|360:320|392:344,1,75
320,312,316650,2,0,P|256:336|156:316,1,150,4|0,0:0|0:0,0:0:0:0:
116,284,317100,1,0,0:0:0:0:
272,169,317250,2,0,P|342:194|416:184,1,150
484,148,317700,1,0,0:0:0:0:
276,40,317850,102,0,P|212:64|112:44,1,150,4|0,0:0|0:0,0:0:0:0:
64,24,318300,1,0,0:0:0:0:
272,169,318450,2,0,P|292:209|296:257,1,75
332,112,318750,2,0,P|356:74|396:47,1,75
272,169,319050,1,4,0:0:0:0:
192,188,319200,1,0,0:0:0:0:
112,176,319350,1,0,0:0:0:0:
40,136,319500,1,0,0:0:0:0:
296,240,319650,2,0,L|376:247,1,75
406,105,319950,2,0,L|332:112,1,75
292,320,320250,5,4,0:0:0:0:
296,240,320400,1,0,0:0:0:0:
272,169,320550,1,0,0:0:0:0:
212,112,320700,1,0,0:0:0:0:
292,320,320850,2,0,P|332:348|380:352,1,75
224,276,321150,2,0,P|179:296|152:336,1,75
296,240,321450,2,0,P|344:196|316:108,1,150,4|0,0:0|0:0,0:0:0:0:
272,169,321900,1,0,0:0:0:0:
412,232,322050,2,0,L|508:240,1,75
272,168,322350,2,0,L|176:176,1,75
44,56,322650,102,0,P|72:80|128:76,1,75,6|0,0:0|0:0,0:0:0:0:
104,8,322950,1,0,0:0:0:0:
272,168,323100,2,0,P|308:143|368:143,1,75
152,192,323400,2,0,L|56:184,1,75
8,216,323700,1,0,0:0:0:0:
228,236,323850,2,0,P|256:256|276:312,1,75,4|0,0:0|0:0,0:0:0:0:
272,368,324150,1,0,0:0:0:0:
332,232,324300,2,0,L|340:136,1,75
380,16,324600,2,0,L|388:112,1,75
448,136,324900,1,0,0:0:0:0:
272,116,325050,6,0,P|224:152|116:160,1,150,6|0,0:0|0:0,0:0:0:0:
64,140,325500,1,0,0:0:0:0:
332,232,325650,2,0,P|376:232|424:252,1,75
216,248,325950,2,0,P|180:258|142:257,1,75
272,116,326250,2,0,P|352:108|424:124,1,150,4|0,0:0|0:0,0:0:0:0:
419,122,326750,1,0,0:0:0:0:
419,122,327000,1,0,0:0:0:0:
419,122,327200,1,0,0:0:0:0:
419,122,327450,1,0,0:0:0:0:
419,122,327650,1,0,0:0:0:0:
400,244,330600,69,0,0:0:0:0:
397,262,331111,1,0,0:0:0:0:
396,276,331560,2,0,P|343:256|293:271,1,100,4|0,0:0|0:0,0:0:0:0:
256,344,332072,1,0,0:0:0:0:
256,344,332362,2,0,P|300:272|240:120,1,225
200,108,333157,1,0,0:0:0:0:
200,108,333575,6,0,P|268:140|352:96,1,164.9999949646,2|0,0:0|0:0,0:0:0:0:
112,152,334625,2,0,L|88:300,1,149.999995422363
280,316,335730,102,0,P|320:284|332:216,1,89.9999972534181,4|0,0:0|0:0,0:0:0:0:
288,92,336255,2,0,P|295:142|348:187,1,89.9999972534181
380,104,336800,1,0,0:0:0:0:
208,48,337073,1,0,0:0:0:0:
380,104,337346,2,0,L|480:96,1,89.9999972534181
256,192,337937,5,4,0:0:0:0:
221,181,338313,1,0,0:0:0:0:
185,179,338682,1,0,0:0:0:0:
150,187,339034,1,0,0:0:0:0:
119,204,339386,1,0,0:0:0:0:
93,229,339738,1,0,0:0:0:0:
74,259,340215,1,0,0:0:0:0:
64,294,340634,5,2,0:0:0:0:
