osu file format v12

[General]
AudioFilename: Vokaloidy - Venomaniya_ Gercog Bezumiya .mp3
AudioLeadIn: 0
PreviewTime: 116839
Countdown: 0
SampleSet: Soft
StackLeniency: 0.6
Mode: 0
LetterboxInBreaks: 0

[Editor]
DistanceSpacing: 0.7
BeatDivisor: 4
GridSize: 4

[Metadata]
Title:Madness of Duke Venomania
TitleUnicode:ヴェノマニア公の狂気
Artist:Akuno-P
ArtistUnicode:悪ノP
Creator:BCI
Version:Normal
Source:Vocaloid
Tags:Black_Cherry_Ita mothy Hatsune Miku Gumi Meiko Kaito Megurine Luka Kamui Gakupo SkyDevil
BeatmapID:133437
BeatmapSetID:34991

[Difficulty]
HPDrainRate:4
CircleSize:4
OverallDifficulty:4
ApproachRate:5
SliderMultiplier:1.30000000596046
SliderTickRate:2

[Events]
//Background and Video events
Video,-1217,"The Madness of Duke Venomania (1).flv"
0,0,"bg.jpg",0,0
//Break Periods
2,72710,82203
2,133634,143126
//Storyboard Layer 0 (Background)
//Storyboard Layer 1 (Fail)
//Storyboard Layer 2 (Pass)
//Storyboard Layer 3 (Foreground)
//Storyboard Sound Samples
//Background Colour Transformations
3,100,163,162,255

[TimingPoints]
511,461.538461538462,6,2,2,70,1,0
55895,-100,6,1,2,70,0,1
66972,-100,6,2,2,70,0,0
72511,-100,6,1,2,70,0,0
72741,-100,6,2,2,70,0,0
116818,-100,6,1,2,70,0,1
127895,-100,6,2,2,70,0,0
133434,-100,6,1,2,70,0,0
133664,-100,6,2,2,70,0,0
188818,-100,6,1,2,70,0,1
199780,-100,6,1,2,70,0,0
199895,-100,6,1,2,70,0,1
210972,-100,6,2,2,70,0,0
217895,461.538461538462,6,1,2,70,1,1
218126,-100,6,1,2,70,0,0
239818,-100,6,2,2,70,0,0

[Colours]
Combo1 : 78,6,104
Combo2 : 207,160,254
Combo3 : 176,106,234
Combo4 : 136,23,227
SliderBorder : 255,255,255

[HitObjects]
260,56,6280,6,0,B|196:56|124:104,1,130.000000596046,4|8,0:0|0:0,0:0:0:0:
120,188,7203,1,8,0:0:0:0:
124,232,7434,1,0,0:0:0:0:
148,268,7664,2,0,P|200:304|280:308,2,130.000000596046,8|8|8,0:0|0:0|0:0,0:0:0:0:
232,224,9049,6,0,P|296:208|328:148,2,130.000000596046,8|8|8,0:0|0:0|0:0,0:0:0:0:
232,132,10434,1,8,0:0:0:0:
144,160,10895,1,8,0:0:0:0:
108,132,11126,1,0,0:0:0:0:
72,104,11357,2,0,B|24:168,1,65.000000298023,0|4,0:0|0:0,0:0:0:0:
88,228,12049,5,8,0:0:0:0:
144,160,12510,1,0,0:0:0:0:
228,128,12972,1,8,0:0:0:0:
316,156,13434,1,0,0:0:0:0:
376,224,13895,2,0,B|388:264|372:300,2,65.000000298023,8|0|4,0:0|0:0|0:0,0:0:0:0:
316,156,14818,5,8,0:0:0:0:
228,128,15280,1,0,0:0:0:0:
144,160,15741,1,8,0:0:0:0:
60,184,16203,2,0,B|40:124,2,65.000000298023,0|0|8,0:0|0:0|0:0,0:0:0:0:
60,228,16895,2,0,B|40:304,1,65.000000298023,0|4,0:0|0:0,0:0:0:0:
128,256,17587,6,0,B|112:320|112:320|128:384,2,130.000000596046,8|0|8,0:0|0:0|0:0,0:0:0:0:
168,232,18741,1,0,0:0:0:0:
208,256,18972,2,0,B|272:240|272:240|336:256,2,130.000000596046,0|8|4,0:0|0:0|0:0,0:0:0:0:
192,164,20357,6,0,B|192:116|192:116|208:84|208:84|208:36,1,130.000000596046,8|0,0:0|0:0,0:0:0:0:
252,36,21049,1,0,0:0:0:0:
296,48,21280,2,0,B|388:168,1,130.000000596046,8|0,0:0|0:0,0:0:0:0:
420,164,21972,2,0,B|468:216,1,65.000000298023,0|8,0:0|0:0,0:0:0:0:
436,300,22664,5,4,0:0:0:0:
364,244,23126,1,8,0:0:0:0:
292,300,23587,2,0,B|220:300,2,65.000000298023,0|0|8,0:0|0:0|0:0,0:0:0:0:
364,244,24511,1,0,0:0:0:0:
436,300,24972,1,8,0:0:0:0:
472,200,25434,1,0,0:0:0:0:
432,176,25664,1,0,0:0:0:0:
396,152,25895,1,8,0:0:0:0:
304,144,26357,5,0,0:0:0:0:
272,176,26587,1,0,0:0:0:0:
240,208,26818,2,0,B|168:208,2,65.000000298023,8|0|0,0:0|0:0|0:0,0:0:0:0:
304,144,27741,1,8,0:0:0:0:
216,120,28203,6,0,B|228:48|312:44,2,130.000000596046,0|8|0,0:0|0:0|0:0,0:0:0:0:
304,144,29587,1,8,0:0:0:0:
216,120,30049,1,0,0:0:0:0:
128,148,30511,1,8,0:0:0:0:
192,212,30972,2,0,P|164:272|200:328,2,130.000000596046,0|8|0,0:0|0:0|0:0,0:0:0:0:
128,148,32357,5,8,0:0:0:0:
216,120,32818,1,0,0:0:0:0:
280,184,33280,1,8,0:0:0:0:
192,212,33741,5,0,0:0:0:0:
196,256,33972,1,0,0:0:0:0:
200,300,34203,1,8,0:0:0:0:
120,344,34664,2,0,B|40:344,2,65.000000298023,0|0|8,0:0|0:0|0:0,0:0:0:0:
200,300,35587,1,0,0:0:0:0:
292,292,36049,1,8,0:0:0:0:
292,292,36511,2,0,B|344:264|376:316|436:288,1,130.000000596046,0|8,0:0|0:0,0:0:0:0:
460,200,37434,1,0,0:0:0:0:
460,200,37664,6,0,B|392:212,1,65.000000298023,0|8,0:0|0:0,0:0:0:0:
348,192,38126,2,0,B|308:136,1,65.000000298023
396,80,38818,1,8,0:0:0:0:
396,80,39280,6,0,B|340:24|268:64,2,130.000000596046,0|8|0,0:0|0:0|0:0,0:0:0:0:
324,124,40664,1,8,0:0:0:0:
232,176,41126,1,0,0:0:0:0:
300,252,41587,1,8,0:0:0:0:
388,192,42049,2,0,B|474:227|508:136,1,130.000000596046,0|8,0:0|0:0,0:0:0:0:
412,100,42972,1,0,0:0:0:0:
408,48,43203,6,0,B|384:22|348:28,2,65.000000298023,0|8|0,0:0|0:0|0:0,0:0:0:0:
412,100,43895,2,0,B|357:146|280:134,1,130.000000596046,0|8,0:0|0:0,0:0:0:0:
232,72,44818,5,4,0:0:0:0:
148,40,45280,1,8,0:0:0:0:
64,76,45741,1,0,0:0:0:0:
28,160,46203,2,0,B|76:200|76:200|141:214,2,130.000000596046,8|0|8,0:0|0:0|0:0,0:0:0:0:
64,76,47587,6,0,B|-1:44,2,65.000000298023,0|0|8,0:0|0:0|0:0,0:0:0:0:
148,116,48511,1,0,0:0:0:0:
240,116,48972,1,8,0:0:0:0:
332,116,49434,2,0,B|357:172|357:172|354:251|287:298,1,195.000000894069
260,264,50357,6,0,B|252:227|218:203,2,65.000000298023,4|0|8,0:0|0:0|0:0,0:0:0:0:
168,264,51280,1,0,0:0:0:0:
116,188,51741,1,8,0:0:0:0:
184,128,52203,1,0,0:0:0:0:
120,64,52664,1,8,0:0:0:0:
256,192,53126,12,0,54972,0:0:0:0:
256,268,55895,5,4,0:0:0:0:
308,192,56357,1,8,0:0:0:0:
256,120,56818,1,0,0:0:0:0:
180,168,57280,1,8,0:0:0:0:
180,168,57741,2,0,B|144:220|144:220|164:288,1,130.000000596046,0|8,0:0|0:0,0:0:0:0:
240,232,58664,6,0,B|284:164,2,65.000000298023,0|0|8,0:0|0:0|0:0,0:0:0:0:
296,304,59587,2,0,B|364:340|432:296,1,130.000000596046
360,232,60511,2,0,B|384:224|400:180|400:180|384:136|344:128,2,130.000000596046
324,208,61664,6,0,B|252:160,1,65.000000298023,0|8,0:0|0:0,0:0:0:0:
224,172,62126,2,0,B|156:220,2,65.000000298023
256,140,62818,1,8,0:0:0:0:
316,72,63280,2,0,B|252:56|252:56|172:76,1,130.000000596046,0|8,0:0|0:0,0:0:0:0:
144,76,63972,2,0,B|60:68,2,65.000000298023
164,116,64664,6,0,B|156:264,2,130.000000596046,8|0|8,0:0|0:0|0:0,0:0:0:0:
256,112,66049,2,0,B|240:4|80:4|76:128,1,260.000001192092,0|4,0:0|0:0,0:0:0:0:
164,116,67434,5,8,0:0:0:0:
188,204,67895,1,0,0:0:0:0:
228,284,68357,2,0,B|292:308|356:288,1,130.000000596046,8|0,0:0|0:0,0:0:0:0:
384,252,69049,2,0,B|384:216|368:180,2,65.000000298023,0|8|0,0:0|0:0|0:0,0:0:0:0:
488,260,69972,2,0,B|442:215|545:141|476:72,1,195.000000894069
436,48,70895,1,0,0:0:0:0:
388,68,71126,6,0,P|324:88|264:56,1,130.000000596046,8|0,0:0|0:0,0:0:0:0:
224,84,71818,1,0,0:0:0:0:
180,112,72049,2,0,B|118:79|54:111,1,130.000000596046,8|4,0:0|0:0,0:0:0:0:
24,56,83587,6,0,B|88:32|156:60,1,130.000000596046,4|8,0:0|0:0,0:0:0:0:
184,88,84280,2,0,B|184:176,1,65.000000298023,0|0,0:0|0:0,0:0:0:0:
184,200,84741,2,0,B|200:232|256:240,1,65.000000298023,0|8,0:0|0:0,0:0:0:0:
304,296,85434,2,0,B|448:296,1,130.000000596046,0|8,0:0|0:0,0:0:0:0:
456,256,86126,1,0,0:0:0:0:
472,216,86357,2,0,B|472:72,1,130.000000596046,0|8,0:0|0:0,0:0:0:0:
368,72,87280,1,0,0:0:0:0:
340,108,87510,6,0,B|292:156,1,65.000000298023,0|8,0:0|0:0,0:0:0:0:
292,200,87972,1,0,0:0:0:0:
292,200,88203,2,0,B|340:248,2,65.000000298023,0|0|8,0:0|0:0|0:0,0:0:0:0:
208,168,89126,6,0,B|136:168,2,65.000000298023,0|0|8,0:0|0:0|0:0,0:0:0:0:
292,200,90049,1,0,0:0:0:0:
308,112,90511,1,8,0:0:0:0:
380,56,90972,2,0,B|456:68|452:152,1,130.000000596046,0|8,0:0|0:0,0:0:0:0:
380,200,91895,2,0,B|300:184|304:104,1,130.000000596046,0|8,0:0|0:0,0:0:0:0:
224,72,92818,6,0,B|188:133|224:208,2,130.000000596046,0|8|0,0:0|0:0|0:0,0:0:0:0:
288,136,94203,1,8,0:0:0:0:
320,224,94664,5,0,0:0:0:0:
320,224,94895,2,0,B|320:296,1,65.000000298023,0|8,0:0|0:0,0:0:0:0:
408,264,95587,1,0,0:0:0:0:
408,264,95818,2,0,B|408:192,1,65.000000298023,0|8,0:0|0:0,0:0:0:0:
424,112,96511,2,0,P|472:136|488:212,2,130.000000596046,0|8|0,0:0|0:0|0:0,0:0:0:0:
380,124,97664,2,0,L|316:168,1,65.000000298023,0|8,0:0|0:0,0:0:0:0:
200,104,98357,1,0,0:0:0:0:
200,104,98587,6,0,B|140:68,1,65.000000298023,0|8,0:0|0:0,0:0:0:0:
100,76,99049,2,0,B|44:108,1,65.000000298023,0|0,0:0|0:0,0:0:0:0:
40,200,99741,1,8,0:0:0:0:
44,292,100203,5,0,0:0:0:0:
120,244,100664,1,8,0:0:0:0:
200,288,101126,2,0,B|236:296|272:280,2,65.000000298023,0|0|8,0:0|0:0|0:0,0:0:0:0:
120,244,102049,1,0,0:0:0:0:
156,160,102510,1,8,0:0:0:0:
208,84,102972,2,0,P|272:72|332:92,2,130.000000596046,0|8|0,0:0|0:0|0:0,0:0:0:0:
184,124,104126,1,0,0:0:0:0:
156,160,104357,6,0,B|80:152,2,65.000000298023,8|0|0,0:0|0:0|0:0,0:0:0:0:
200,240,105280,1,8,0:0:0:0:
256,312,105741,5,4,0:0:0:0:
304,236,106203,1,8,0:0:0:0:
252,160,106664,1,0,0:0:0:0:
332,116,107126,2,0,L|408:132,1,65.000000298023,8|0,0:0|0:0,0:0:0:0:
436,148,107587,2,8,P|456:212|432:276,1,130.000000596046,0|8,0:0|0:0,0:0:0:0:
344,288,108510,5,4,0:0:0:0:
257,317,108972,1,8,0:0:0:0:
168,292,109434,1,0,0:0:0:0:
100,232,109895,2,0,L|32:200,1,65.000000298023,8|0,0:0|0:0,0:0:0:0:
24,160,110357,2,0,P|72:128|152:140,1,130.000000596046,0|8,0:0|0:0,0:0:0:0:
224,204,111280,5,4,0:0:0:0:
272,128,111741,1,8,0:0:0:0:
344,184,112203,1,0,0:0:0:0:
400,256,112664,2,0,B|424:296|424:296|424:384,2,130.000000596046,8|0|8,0:0|0:0|0:0,0:0:0:0:
256,192,114049,12,0,115895,0:0:0:0:
120,80,116818,6,0,B|128:116|144:140,2,65.000000298023,0|0|8,0:0|0:0|0:0,0:0:0:0:
208,60,117741,2,0,B|244:72|272:56,1,65.000000298023,0|0,0:0|0:0,0:0:0:0:
316,56,118203,1,8,0:0:0:0:
316,56,118434,2,0,B|320:92|308:120,1,65.000000298023,0|0,0:0|0:0,0:0:0:0:
360,196,119126,1,8,0:0:0:0:
372,240,119357,1,0,0:0:0:0:
356,284,119587,5,0,0:0:0:0:
272,316,120049,2,0,P|184:312|168:144,1,260.000001192092,8|8,0:0|0:0,0:0:0:0:
188,84,121434,1,0,0:0:0:0:
256,144,121895,1,8,0:0:0:0:
324,208,122357,5,0,0:0:0:0:
392,148,122818,1,8,0:0:0:0:
452,80,123280,1,0,0:0:0:0:
364,68,123741,1,8,0:0:0:0:
272,80,124203,2,0,B|220:88|180:140,2,97.5000004470345,0|0|8,0:0|0:0|0:0,0:0:0:0:
256,192,125126,12,0,126972,0:0:0:0:
256,252,127895,5,4,0:0:0:0:
200,324,128357,1,8,0:0:0:0:
124,272,128818,1,0,0:0:0:0:
124,232,129049,1,0,0:0:0:0:
143,196,129280,2,0,B|193:152|268:152|268:228|345:228|395:183,1,260.000001192092,8|8,0:0|0:0,0:0:0:0:
280,280,130895,2,0,B|190:273,2,65.000000298023,0|8|0,0:0|0:0|0:0,0:0:0:0:
336,352,131818,6,0,B|408:240|268:152|348:28,1,325.000001490115,0|2,0:0|0:0,0:0:0:0:
420,84,133434,5,4,0:0:0:0:
64,164,144511,6,2,B|82:323|217:323|217:139|294:139|294:323|449:323|456:156,1,520.000002384184,0|0,0:0|0:0,0:0:0:0:
364,164,146818,1,2,0:0:0:0:
424,96,147280,1,2,0:0:0:0:
244,100,148203,6,0,P|176:144|260:284,1,260.000001192092
252,192,149587,1,2,0:0:0:0:
316,256,150049,1,2,0:0:0:0:
332,76,150972,6,0,P|392:56|456:80,1,130.000000596046,0|2,0:0|0:0,0:0:0:0:
400,152,151895,2,0,L|388:296,2,130.000000596046,0|2|4,0:0|0:0|0:0,0:0:0:0:
256,192,153049,12,0,155587,0:0:0:0:
176,136,156510,6,0,B|232:184,2,65.000000298023,0|0|8,0:0|0:0|0:0,0:0:0:0:
120,80,157434,1,0,0:0:0:0:
64,136,157895,2,0,B|32:168|32:168|32:256,2,130.000000596046,8|0|8,0:0|0:0|0:0,0:0:0:0:
128,256,159510,5,0,0:0:0:0:
128,256,159741,2,0,B|192:256,2,65.000000298023,8|0|0,0:0|0:0|0:0,0:0:0:0:
136,168,160664,1,8,0:0:0:0:
184,88,161126,5,0,0:0:0:0:
232,168,161587,1,8,0:0:0:0:
184,88,162049,1,0,0:0:0:0:
120,24,162510,1,8,0:0:0:0:
120,24,162972,2,0,B|40:24|40:110,2,130.000000596046,0|8|0,0:0|0:0|0:0,0:0:0:0:
120,24,164357,1,8,0:0:0:0:
104,160,165049,6,0,B|104:232,1,65.000000298023,0|8,0:0|0:0,0:0:0:0:
168,288,165741,1,0,0:0:0:0:
196,256,165972,1,0,0:0:0:0:
232,224,166203,1,8,0:0:0:0:
256,136,166664,5,4,0:0:0:0:
336,180,167126,1,8,0:0:0:0:
368,264,167587,2,0,B|448:264|448:264|488:224,1,130.000000596046,0|8,0:0|0:0,0:0:0:0:
480,184,168280,1,0,0:0:0:0:
480,136,168511,2,0,B|432:96|432:96|344:96,1,130.000000596046,0|8,0:0|0:0,0:0:0:0:
280,136,169434,1,0,0:0:0:0:
268,180,169664,1,0,0:0:0:0:
256,224,169895,1,8,0:0:0:0:
184,280,170357,6,0,B|51:280,2,130.000000596046,0|8|0,0:0|0:0|0:0,0:0:0:0:
256,224,171741,1,8,0:0:0:0:
240,136,172203,5,0,0:0:0:0:
240,136,172434,2,0,B|320:136,1,65.000000298023,0|8,0:0|0:0,0:0:0:0:
384,88,173126,2,0,B|476:80|484:180,2,130.000000596046,0|8|0,0:0|0:0|0:0,0:0:0:0:
304,136,174511,1,8,0:0:0:0:
232,84,174972,2,0,B|140:76|132:176,2,130.000000596046,0|8|0,0:0|0:0|0:0,0:0:0:0:
232,128,176126,6,0,B|232:216,1,65.000000298023,0|8,0:0|0:0,0:0:0:0:
236,284,176818,1,0,0:0:0:0:
316,328,177280,1,8,0:0:0:0:
336,240,177741,5,4,0:0:0:0:
392,168,178203,2,0,B|448:228|404:312,1,130.000000596046,8|0,0:0|0:0,0:0:0:0:
380,316,178895,1,0,0:0:0:0:
336,328,179126,2,0,B|200:328,1,130.000000596046,8|0,0:0|0:0,0:0:0:0:
140,268,180049,1,8,0:0:0:0:
112,232,180280,1,0,0:0:0:0:
136,192,180511,5,0,0:0:0:0:
188,116,180972,2,0,B|188:36,2,65.000000298023,8|0|0,0:0|0:0|0:0,0:0:0:0:
236,192,181895,2,0,B|236:264,2,65.000000298023,8|0|0,0:0|0:0|0:0,0:0:0:0:
188,116,182818,1,8,0:0:0:0:
136,44,183280,6,0,B|220:-13|325:128|402:29,2,260.000001192092,4|0|0,0:0|0:0|0:0,0:0:0:0:
188,116,185587,1,8,0:0:0:0:
208,156,185818,1,0,0:0:0:0:
256,192,186049,12,0,187895,0:0:0:0:
184,144,188818,5,4,0:0:0:0:
184,144,189049,1,0,0:0:0:0:
184,144,189280,2,0,B|184:224|184:224|216:272,1,130.000000596046,8|0,0:0|0:0,0:0:0:0:
256,288,189972,1,0,0:0:0:0:
296,264,190203,2,0,B|328:216|328:216|328:144,1,130.000000596046,8|0,0:0|0:0,0:0:0:0:
332,52,191126,1,8,0:0:0:0:
424,76,191587,6,0,B|496:132,1,65.000000298023,4|0,0:0|0:0,0:0:0:0:
472,160,192049,2,0,B|416:192,1,65.000000298023,8|0,0:0|0:0,0:0:0:0:
416,236,192511,2,0,B|480:268,1,65.000000298023,0|0,0:0|0:0,0:0:0:0:
512,292,192972,1,8,0:0:0:0:
428,324,193434,1,0,0:0:0:0:
428,324,193664,2,0,B|400:348|356:340,2,65.000000298023,0|8|0,0:0|0:0|0:0,0:0:0:0:
372,268,194357,5,4,0:0:0:0:
296,220,194818,1,8,0:0:0:0:
220,172,195280,1,0,0:0:0:0:
156,108,195741,2,0,B|256:48|336:168|432:104,1,260.000001192092,8|8,0:0|0:0,0:0:0:0:
256,192,197126,12,4,199895,0:0:0:0:
188,252,200357,5,8,0:0:0:0:
152,176,200818,1,0,0:0:0:0:
216,112,201280,1,8,0:0:0:0:
256,192,201741,2,0,B|304:240|304:240|368:240,2,130.000000596046,0|8|4,0:0|0:0|0:0,0:0:0:0:
304,112,203126,6,0,B|360:80,1,65.000000298023,8|0,0:0|0:0,0:0:0:0:
408,80,203587,2,0,B|484:120,1,65.000000298023,0|0,0:0|0:0,0:0:0:0:
484,152,204049,1,8,0:0:0:0:
472,244,204511,2,0,B|472:275|472:275|472:308|450:318|417:318|417:318|395:318,1,130.000000596046,0|8,0:0|0:0,0:0:0:0:
336,252,205434,5,4,0:0:0:0:
288,176,205895,1,8,0:0:0:0:
256,88,206357,1,0,0:0:0:0:
224,176,206818,1,8,0:0:0:0:
172,252,207280,2,0,B|112:268|112:268|44:252,1,130.000000596046,0|8,0:0|0:0,0:0:0:0:
256,192,208203,12,8,210511,0:0:0:0:
256,304,210972,6,0,P|208:324|132:300,1,130.000000596046,4|8,0:0|0:0,0:0:0:0:
140,256,211664,1,0,0:0:0:0:
156,212,211895,1,0,0:0:0:0:
176,172,212126,2,0,B|256:172,1,65.000000298023,0|8,0:0|0:0,0:0:0:0:
332,184,212818,1,0,0:0:0:0:
284,260,213280,2,0,B|228:328,1,65.000000298023,8|0,0:0|0:0,0:0:0:0:
148,328,213972,1,0,0:0:0:0:
148,328,214203,2,0,B|96:312|85:257,1,97.5000004470345,8|8,0:0|0:0,0:0:0:0:
256,192,214895,12,0,216280,0:0:0:0:
220,104,217895,5,4,0:0:0:0:
144,52,218356,2,0,B|112:116|144:180,1,130.000000596046,8|0,0:0|0:0,0:0:0:0:
168,212,219049,1,0,0:0:0:0:
200,244,219280,2,0,B|272:268|328:244,1,130.000000596046,8|0,0:0|0:0,0:0:0:0:
404,292,220203,2,0,B|428:244|404:156,1,130.000000596046,8|4,0:0|0:0,0:0:0:0:
368,76,221126,6,0,B|288:84|292:168,2,130.000000596046,8|0|8,0:0|0:0|0:0,0:0:0:0:
384,164,222511,1,0,0:0:0:0:
372,208,222741,1,0,0:0:0:0:
328,224,222972,1,8,0:0:0:0:
292,140,223433,5,4,0:0:0:0:
204,112,223895,2,0,B|132:120|120:204,2,130.000000596046,8|0|8,0:0|0:0|0:0,0:0:0:0:
212,204,225279,2,0,B|292:204|292:289,2,130.000000596046,0|8|4,0:0|0:0|0:0,0:0:0:0:
212,296,226664,5,8,0:0:0:0:
304,296,227125,2,0,B|304:360,2,65.000000298023,0|0|8,0:0|0:0|0:0,0:0:0:0:
392,296,228048,2,0,B|392:368,2,65.000000298023,0|0|8,0:0|0:0|0:0,0:0:0:0:
484,296,228971,5,4,0:0:0:0:
432,220,229434,1,8,0:0:0:0:
352,176,229895,2,0,B|296:124|220:152,2,130.000000596046,0|8|0,0:0|0:0|0:0,0:0:0:0:
352,220,231049,1,0,0:0:0:0:
352,264,231280,2,0,B|408:296|488:272,1,130.000000596046,8|4,0:0|0:0,0:0:0:0:
496,184,232202,6,0,B|496:112|496:112|464:52,2,130.000000596046,8|0|8,0:0|0:0|0:0,0:0:0:0:
472,272,233587,1,0,0:0:0:0:
388,232,234049,1,8,0:0:0:0:
316,176,234511,5,4,0:0:0:0:
224,176,234971,1,8,0:0:0:0:
184,196,235203,2,0,B|128:236,1,65.000000298023,0|0,0:0|0:0,0:0:0:0:
132,280,235664,2,0,B|188:312,1,65.000000298023,0|8,0:0|0:0,0:0:0:0:
280,296,236357,5,0,0:0:0:0:
280,204,236818,1,8,0:0:0:0:
280,112,237279,1,4,0:0:0:0:
256,192,237511,12,2,239818,0:0:0:0:
