osu file format v12

[General]
AudioFilename: Vokaloidy - Venomaniya_ Gercog Bezumiya .mp3
AudioLeadIn: 0
PreviewTime: 116839
Countdown: 0
SampleSet: Soft
StackLeniency: 0.3
Mode: 0
LetterboxInBreaks: 0

[Editor]
Bookmarks: 72511
DistanceSpacing: 0.8
BeatDivisor: 4
GridSize: 4

[Metadata]
Title:Madness of Duke Venomania
TitleUnicode:ヴェノマニア公の狂気
Artist:Akuno-P
ArtistUnicode:悪ノP
Creator:BCI
Version:Hard
Source:Vocaloid
Tags:Black_Cherry_Ita mothy Hatsune Miku Gumi Meiko Kaito Megurine Luka Kamui Gakupo SkyDevil
BeatmapID:118791
BeatmapSetID:34991

[Difficulty]
HPDrainRate:6
CircleSize:4
OverallDifficulty:6
ApproachRate:7
SliderMultiplier:1.50000000596046
SliderTickRate:2

[Events]
//Background and Video events
Video,-1217,"The Madness of Duke Venomania (1).flv"
0,0,"bg.jpg",0,0
//Break Periods
2,72710,82687
2,133664,143126
//Storyboard Layer 0 (Background)
//Storyboard Layer 1 (Fail)
//Storyboard Layer 2 (Pass)
//Storyboard Layer 3 (Foreground)
//Storyboard Sound Samples
//Background Colour Transformations
3,100,163,162,255

[TimingPoints]
511,461.538461538462,6,2,2,70,1,0
55895,-100,6,1,2,70,0,1
66972,-100,6,2,2,70,0,0
72511,-100,6,1,2,70,0,0
72741,-100,6,2,2,70,0,0
116818,-100,6,1,2,70,0,1
127895,-100,6,2,2,70,0,0
133434,-100,6,1,2,70,0,0
133664,-100,6,2,2,70,0,0
144511,-200,6,2,2,70,0,0
146472,-100,6,2,2,70,0,0
188818,-100,6,1,2,70,0,1
199780,-100,6,1,2,70,0,0
199895,-100,6,1,2,70,0,1
210972,-100,6,2,2,70,0,0
217895,461.538461538462,6,1,2,70,1,1
218126,-100,6,1,2,70,0,0
239818,-100,6,2,2,70,0,0

[Colours]
Combo1 : 78,6,104
Combo2 : 207,160,254
Combo3 : 176,106,234
Combo4 : 136,23,227
SliderBorder : 255,255,255

[HitObjects]
112,112,6280,5,4,0:0:0:0:
112,112,6511,2,0,B|200:168,1,75.000000298023,0|8,0:0|0:0,0:0:0:0:
248,152,6972,2,0,B|336:104,1,75.000000298023,0|8,0:0|0:0,0:0:0:0:
376,72,7434,2,0,B|440:120,1,75.000000298023,0|8,0:0|0:0,0:0:0:0:
480,176,7895,1,0,0:0:0:0:
480,176,8126,2,0,B|512:224|512:272|472:328,1,150.000000596046,8|4,0:0|0:0,0:0:0:0:
364,220,9049,6,0,B|372:328,2,100.000000397364
344,124,9972,2,0,P|272:104|200:140,1,150.000000596046,8|8,0:0|0:0,0:0:0:0:
144,176,10664,2,0,P|132:216|112:252,1,75.000000298023,0|8,0:0|0:0,0:0:0:0:
156,308,11126,2,0,P|196:280|236:264,1,75.000000298023,0|8,0:0|0:0,0:0:0:0:
292,244,11587,5,4,0:0:0:0:
404,112,12049,2,8,B|336:80|328:136|256:104,1,150.000000596046,8|0,0:0|0:0,0:0:0:0:
280,32,12741,1,0,0:0:0:0:
204,48,12972,1,8,0:0:0:0:
184,128,13203,1,0,0:0:0:0:
144,192,13434,2,0,P|108:184|60:200,1,75.000000298023,0|0,0:0|0:0,0:0:0:0:
72,328,13895,2,0,P|116:336|152:328,1,75.000000298023,8|0,0:0|0:0,0:0:0:0:
112,260,14357,5,4,0:0:0:0:
112,260,14818,2,0,L|276:252,1,150.000000596046,8|0,0:0|0:0,0:0:0:0:
284,180,15511,1,0,0:0:0:0:
300,108,15741,2,0,B|256:84,2,37.5000001490115,8|0|0,0:0|0:0|0:0,0:0:0:0:
372,136,16203,2,0,P|412:128|456:140,1,75.000000298023
448,276,16664,2,0,P|409:282|369:271,1,75.000000298023
412,204,17126,5,4,0:0:0:0:
412,204,17587,2,0,L|256:208,1,150.000000596046
192,180,18280,2,0,P|152:172|108:172,2,75.000000298023,0|8|0,0:0|0:0|0:0,0:0:0:0:
192,256,18972,2,0,L|136:276,2,37.5000001490115
260,284,19434,2,0,B|244:328,2,37.5000001490115,8|0|0,0:0|0:0|0:0,0:0:0:0:
256,208,19895,6,0,B|200:136|256:48,1,150.000000596046,4|8,0:0|0:0,0:0:0:0:
316,40,20587,2,0,B|404:40|404:40|468:68,1,150.000000596046
472,80,21164,1,0,0:0:0:0:
484,96,21280,2,0,B|487:164|416:225,1,150.000000596046,8|0,0:0|0:0,0:0:0:0:
352,276,21972,1,0,0:0:0:0:
296,216,22203,2,0,B|204:216,1,75.000000298023,8|0,0:0|0:0,0:0:0:0:
148,180,22664,5,4,0:0:0:0:
108,108,22895,2,0,B|108:4,1,75.000000298023,0|8,0:0|0:0,0:0:0:0:
184,40,23357,2,0,B|184:136,1,75.000000298023
148,180,23818,1,0,0:0:0:0:
144,196,23934,1,0,0:0:0:0:
136,212,24049,1,8,0:0:0:0:
108,280,24280,1,0,0:0:0:0:
180,304,24511,6,0,P|252:328|324:304,1,150.000000596046,0|8,0:0|0:0,0:0:0:0:
380,260,25203,1,0,0:0:0:0:
424,200,25434,2,0,B|424:132|372:132|372:56,1,150.000000596046,0|8,0:0|0:0,0:0:0:0:
232,120,26357,1,0,0:0:0:0:
168,80,26587,6,0,B|120:80,2,37.5000001490115,0|0|8,0:0|0:0|0:0,0:0:0:0:
292,164,27280,1,0,0:0:0:0:
408,260,27741,1,8,0:0:0:0:
408,260,28203,6,0,P|396:304|372:332,1,75.000000298023
364,340,28549,1,0,0:0:0:0:
348,348,28664,2,0,L|260:348,1,75.000000298023,8|0,0:0|0:0,0:0:0:0:
216,296,29126,1,0,0:0:0:0:
216,296,29357,2,0,P|188:256|148:232,1,75.000000298023,0|8,0:0|0:0,0:0:0:0:
136,172,29818,6,0,P|176:140|192:108,1,75.000000298023
256,88,30280,1,0,0:0:0:0:
324,124,30511,2,0,P|335:144|375:176,1,75.000000298023,8|0,0:0|0:0,0:0:0:0:
440,136,30972,2,0,P|452:192|372:252,1,150.000000596046,0|8,0:0|0:0,0:0:0:0:
252,308,31895,1,0,0:0:0:0:
212,244,32126,5,0,0:0:0:0:
168,184,32357,1,8,0:0:0:0:
128,120,32587,2,0,P|164:108|208:120,1,75.000000298023
260,164,33049,2,0,P|304:176|336:164,1,75.000000298023,0|8,0:0|0:0,0:0:0:0:
300,100,33511,1,0,0:0:0:0:
352,48,33741,6,0,P|412:28|496:52,1,150.000000596046,0|8,0:0|0:0,0:0:0:0:
492,124,34434,1,0,0:0:0:0:
492,124,34664,2,0,P|460:148|408:168,1,75.000000298023
460,232,35126,2,0,P|472:272|476:316,1,75.000000298023,8|0,0:0|0:0,0:0:0:0:
404,328,35587,6,0,B|332:356,2,75.000000298023,0|0|8,0:0|0:0|0:0,0:0:0:0:
384,256,36280,1,0,0:0:0:0:
364,184,36511,2,0,B|444:152,2,75.000000298023,0|0|8,0:0|0:0|0:0,0:0:0:0:
228,252,37434,1,0,0:0:0:0:
216,180,37664,5,0,0:0:0:0:
216,160,37780,1,0,0:0:0:0:
216,140,37895,1,8,0:0:0:0:
196,68,38126,1,0,0:0:0:0:
256,24,38357,2,0,P|320:28|364:108,1,150.000000596046,0|8,0:0|0:0,0:0:0:0:
300,232,39280,5,0,0:0:0:0:
264,296,39511,2,0,B|176:316,2,75.000000298023,0|8|0,0:0|0:0|0:0,0:0:0:0:
340,300,40203,2,0,B|384:308|412:292|412:292|448:312|492:300,1,150.000000596046,0|8,0:0|0:0,0:0:0:0:
460,232,40895,2,0,B|448:196|468:156,1,75.000000298023,0|0,0:0|0:0,0:0:0:0:
464,84,41357,6,0,B|416:92|392:140,1,75.000000298023,0|8,0:0|0:0,0:0:0:0:
360,184,41818,2,0,B|336:224|280:224,1,75.000000298023,0|0,0:0|0:0,0:0:0:0:
292,148,42280,1,0,0:0:0:0:
228,188,42511,1,8,0:0:0:0:
64,176,42972,1,0,0:0:0:0:
64,176,43203,6,0,B|56:132|96:96,1,75.000000298023,0|8,0:0|0:0,0:0:0:0:
136,160,43664,2,0,B|176:176|216:160,1,75.000000298023,0|0,0:0|0:0,0:0:0:0:
284,180,44126,2,0,B|320:168|360:180,1,75.000000298023,0|8,0:0|0:0,0:0:0:0:
432,172,44587,2,0,B|468:248,1,75.000000298023,0|4,0:0|0:0,0:0:0:0:
428,308,45049,5,0,0:0:0:0:
364,268,45280,1,8,0:0:0:0:
364,344,45511,1,0,0:0:0:0:
296,312,45741,2,0,B|232:264,1,75.000000298023,0|0,0:0|0:0,0:0:0:0:
304,224,46203,2,0,B|368:272,1,75.000000298023,8|0,0:0|0:0,0:0:0:0:
428,308,46664,2,0,B|456:264|420:220,1,75.000000298023
380,180,47126,2,0,P|372:144|384:104,1,75.000000298023,8|0,0:0|0:0,0:0:0:0:
332,52,47587,5,4,0:0:0:0:
272,96,47818,2,0,B|176:72,1,75.000000298023,0|8,0:0|0:0,0:0:0:0:
132,108,48280,2,0,B|52:124,1,75.000000298023,0|0,0:0|0:0,0:0:0:0:
20,188,48741,2,0,B|68:268,1,75.000000298023,0|8,0:0|0:0,0:0:0:0:
92,320,49203,2,0,B|172:320,1,75.000000298023
196,252,49664,1,0,0:0:0:0:
200,256,49780,1,0,0:0:0:0:
252,308,50011,1,0,0:0:0:0:
256,312,50126,1,0,0:0:0:0:
284,240,50357,5,4,0:0:0:0:
348,204,50587,2,0,B|356:164|348:116,1,75.000000298023,0|8,0:0|0:0,0:0:0:0:
284,92,51049,2,0,B|272:132|284:172,1,75.000000298023,0|0,0:0|0:0,0:0:0:0:
284,240,51511,2,0,B|240:252|204:236,1,75.000000298023,0|8,0:0|0:0,0:0:0:0:
144,208,51972,1,0,0:0:0:0:
80,168,52203,2,0,B|53:122|118:57|72:0,1,150.000000596046,0|8,0:0|0:0,0:0:0:0:
16,48,52895,1,0,0:0:0:0:
256,192,53126,12,8,55434,0:0:0:0:
260,188,55895,6,0,P|248:232|240:276,1,75.000000298023
168,296,56357,2,0,P|168:240|160:212,1,75.000000298023,8|0,0:0|0:0,0:0:0:0:
164,148,56818,1,0,0:0:0:0:
96,180,57049,2,0,B|24:196,1,75.000000298023,0|8,0:0|0:0,0:0:0:0:
28,120,57511,2,0,B|108:104,1,75.000000298023,0|0,0:0|0:0,0:0:0:0:
164,148,57972,2,0,B|252:132,2,75.000000298023,0|8|0,0:0|0:0|0:0,0:0:0:0:
172,224,58664,6,0,P|208:236|240:272,1,75.000000298023
284,320,59126,2,0,P|336:352|416:312,1,150.000000596046,8|0,0:0|0:0,0:0:0:0:
348,276,59818,1,0,0:0:0:0:
300,216,60049,1,8,0:0:0:0:
240,260,60280,1,0,0:0:0:0:
224,272,60395,1,0,0:0:0:0:
208,284,60511,1,0,0:0:0:0:
148,328,60741,2,0,B|60:280,1,75.000000298023,0|8,0:0|0:0,0:0:0:0:
8,276,61203,2,0,B|16:236|64:212,1,75.000000298023,0|0,0:0|0:0,0:0:0:0:
116,180,61664,5,0,0:0:0:0:
180,220,61895,1,8,0:0:0:0:
180,144,62126,1,0,0:0:0:0:
244,180,62357,1,0,0:0:0:0:
240,104,62587,1,0,0:0:0:0:
308,140,62818,2,0,B|316:92|392:56|464:108|448:180,1,225.000000894069,8|0,0:0|0:0,0:0:0:0:
376,164,63741,2,0,B|376:260,1,75.000000298023,8|0,0:0|0:0,0:0:0:0:
312,280,64203,5,0,0:0:0:0:
248,316,64434,2,0,B|204:304|164:308,2,75.000000298023,0|8|0,0:0|0:0|0:0,0:0:0:0:
312,280,65126,1,0,0:0:0:0:
256,232,65357,2,0,P|208:216|176:192,2,75.000000298023,0|8|0,0:0|0:0|0:0,0:0:0:0:
328,208,66049,2,0,P|356:152|316:64,1,150.000000596046,0|8,0:0|0:0,0:0:0:0:
256,52,66741,1,0,0:0:0:0:
208,108,66972,6,0,P|168:100|124:104,1,75.000000298023,4|0,0:0|0:0,0:0:0:0:
76,152,67434,2,0,P|136:144|200:200,1,150.000000596046,8|0,0:0|0:0,0:0:0:0:
256,252,68126,1,0,0:0:0:0:
324,280,68357,2,0,P|360:288|408:276,1,75.000000298023,8|0,0:0|0:0,0:0:0:0:
432,216,68818,2,0,P|392:208|352:220,1,75.000000298023
292,180,69280,1,8,0:0:0:0:
292,180,69511,1,0,0:0:0:0:
432,216,69972,2,0,B|404:176|432:128|432:128|456:84|428:36,1,187.500000745057,0|8,0:0|0:0,0:0:0:0:
324,84,70895,5,0,0:0:0:0:
256,48,71126,1,8,0:0:0:0:
184,72,71357,1,0,0:0:0:0:
168,144,71587,1,0,0:0:0:0:
180,220,71818,2,0,B|191:294,1,75.000000298023,0|8,0:0|0:0,0:0:0:0:
264,280,72280,2,0,B|254:205,1,75.000000298023,0|4,0:0|0:0,0:0:0:0:
144,112,83587,5,4,0:0:0:0:
104,176,83818,1,0,0:0:0:0:
160,232,84049,1,8,0:0:0:0:
200,168,84280,1,0,0:0:0:0:
264,120,84511,1,0,0:0:0:0:
304,184,84741,2,0,B|336:232,2,37.5000001490115,0|0|8,0:0|0:0|0:0,0:0:0:0:
264,120,85203,1,0,0:0:0:0:
304,56,85434,6,0,B|344:48|384:56,1,75.000000298023,0|0,0:0|0:0,0:0:0:0:
432,112,85895,2,0,B|440:144|432:192,1,75.000000298023,8|0,0:0|0:0,0:0:0:0:
392,248,86357,2,0,B|352:256|312:248,2,75.000000298023,0|0|8,0:0|0:0|0:0,0:0:0:0:
248,288,87280,1,0,0:0:0:0:
184,248,87510,5,0,0:0:0:0:
228,188,87741,1,8,0:0:0:0:
268,124,87972,1,0,0:0:0:0:
284,52,88203,2,0,B|328:68|340:108,2,75.000000298023,0|0|8,0:0|0:0|0:0,0:0:0:0:
208,48,88895,6,0,B|128:48,1,75.000000298023,0|0,0:0|0:0,0:0:0:0:
76,96,89357,2,0,B|56:132|76:180,1,75.000000298023,0|8,0:0|0:0,0:0:0:0:
24,228,89818,1,0,0:0:0:0:
88,264,90049,1,0,0:0:0:0:
152,304,90280,1,0,0:0:0:0:
164,288,90395,1,0,0:0:0:0:
176,272,90510,1,8,0:0:0:0:
224,212,90741,1,0,0:0:0:0:
228,136,90972,6,0,B|228:56,1,75.000000298023,0|0,0:0|0:0,0:0:0:0:
304,60,91434,2,0,B|344:60|376:92,1,75.000000298023,8|0,0:0|0:0,0:0:0:0:
364,164,91895,2,0,B|308:164|284:196,1,75.000000298023,0|0,0:0|0:0,0:0:0:0:
224,212,92357,1,8,0:0:0:0:
164,336,92818,1,0,0:0:0:0:
164,336,93049,6,0,B|104:340|92:280,1,75.000000298023,0|8,0:0|0:0,0:0:0:0:
164,264,93510,2,0,B|220:208,1,75.000000298023,0|0,0:0|0:0,0:0:0:0:
268,156,93972,2,0,B|348:84,1,75.000000298023,0|8,0:0|0:0,0:0:0:0:
396,120,94434,1,0,0:0:0:0:
396,120,94664,6,0,P|448:136|440:224,1,150.000000596046,0|8,0:0|0:0,0:0:0:0:
476,288,95357,1,0,0:0:0:0:
400,284,95587,2,0,B|312:284,1,75.000000298023,0|0,0:0|0:0,0:0:0:0:
256,256,96049,2,0,B|232:176,1,75.000000298023,8|0,0:0|0:0,0:0:0:0:
288,120,96510,6,0,B|384:112,1,75.000000298023,0|0,0:0|0:0,0:0:0:0:
432,128,96972,1,8,0:0:0:0:
472,192,97203,1,0,0:0:0:0:
472,264,97434,1,0,0:0:0:0:
408,304,97664,2,0,B|432:352,2,37.5000001490115,0|0|8,0:0|0:0|0:0,0:0:0:0:
280,224,98357,1,0,0:0:0:0:
220,180,98587,5,0,0:0:0:0:
212,164,98703,1,0,0:0:0:0:
200,148,98818,2,0,B|288:148,1,75.000000298023,8|0,0:0|0:0,0:0:0:0:
264,72,99280,2,0,B|184:72,2,75.000000298023,0|0|8,0:0|0:0|0:0,0:0:0:0:
364,184,100203,5,0,0:0:0:0:
364,184,100434,2,0,B|468:184,1,75.000000298023,0|8,0:0|0:0,0:0:0:0:
504,148,100895,2,0,B|520:184|504:220,1,75.000000298023
440,260,101357,2,0,B|352:260,1,75.000000298023,0|8,0:0|0:0,0:0:0:0:
300,224,101818,1,0,0:0:0:0:
232,192,102049,6,0,B|152:192,1,75.000000298023,0|0,0:0|0:0,0:0:0:0:
108,252,102510,1,8,0:0:0:0:
160,308,102741,2,0,B|256:308,1,75.000000298023,0|0,0:0|0:0,0:0:0:0:
308,332,103203,1,0,0:0:0:0:
328,336,103318,1,0,0:0:0:0:
344,340,103434,1,8,0:0:0:0:
460,244,103895,1,0,0:0:0:0:
392,272,104126,5,0,0:0:0:0:
376,268,104241,1,0,0:0:0:0:
356,264,104357,2,0,B|304:196,1,75.000000298023,8|0,0:0|0:0,0:0:0:0:
376,156,104818,2,0,P|328:128|244:164,1,150.000000596046,0|8,0:0|0:0,0:0:0:0:
248,236,105511,2,0,B|191:285,1,75.000000298023,0|4,0:0|0:0,0:0:0:0:
124,248,105972,6,0,B|180:199,2,75.000000298023,0|8|0,0:0|0:0|0:0,0:0:0:0:
112,320,106664,2,0,P|68:296|68:200,1,150.000000596046,0|8,0:0|0:0,0:0:0:0:
128,164,107357,1,0,0:0:0:0:
128,164,107587,2,0,B|197:183|185:226|269:250,1,150.000000596046,0|8,0:0|0:0,0:0:0:0:
320,216,108280,1,0,0:0:0:0:
372,160,108510,5,0,0:0:0:0:
380,144,108626,1,0,0:0:0:0:
388,128,108741,2,0,P|396:88|384:48,1,75.000000298023,0|8,0:0|0:0,0:0:0:0:
316,40,109203,2,0,B|241:40,1,75.000000298023,0|0,0:0|0:0,0:0:0:0:
212,108,109664,2,0,B|137:108,1,75.000000298023,0|8,0:0|0:0,0:0:0:0:
116,180,110126,1,0,0:0:0:0:
116,180,110357,2,0,P|68:140|152:36,1,225.000000894069
136,108,111280,5,4,0:0:0:0:
188,160,111511,2,0,P|208:196|220:232,1,75.000000298023,0|8,0:0|0:0,0:0:0:0:
288,200,111972,2,0,P|296:160|312:124,1,75.000000298023
368,80,112434,1,0,0:0:0:0:
424,128,112664,2,0,P|437:159|445:199,1,75.000000298023,8|0,0:0|0:0,0:0:0:0:
376,224,113126,2,0,P|392:160|364:76,2,150.000000596046,0|8|4,0:0|0:0|0:0,0:0:0:0:
256,192,114280,12,8,116357,0:0:0:0:
92,188,116818,6,0,P|112:252|112:292,1,75.000000298023,4|0,0:0|0:0,0:0:0:0:
180,292,117280,2,0,P|188:240|196:208,1,75.000000298023,8|0,0:0|0:0,0:0:0:0:
176,144,117741,2,0,P|168:64|232:28,1,150.000000596046,0|8,0:0|0:0,0:0:0:0:
260,92,118434,1,0,0:0:0:0:
292,28,118664,2,0,P|344:64|336:144,1,150.000000596046,0|8,0:0|0:0,0:0:0:0:
268,172,119357,1,0,0:0:0:0:
256,248,119587,5,0,0:0:0:0:
208,304,119818,2,0,B|240:336|312:312,1,75.000000298023,0|8,0:0|0:0,0:0:0:0:
256,248,120280,1,0,0:0:0:0:
268,172,120511,1,0,0:0:0:0:
328,128,120741,1,0,0:0:0:0:
392,88,120972,2,0,B|464:48,1,75.000000298023,8|0,0:0|0:0,0:0:0:0:
392,88,121434,2,0,P|348:56|256:108,1,150.000000596046,0|8,0:0|0:0,0:0:0:0:
204,132,122126,6,0,P|148:120|128:104,1,75.000000298023
76,172,122587,2,0,P|100:216|100:252,1,75.000000298023,0|8,0:0|0:0,0:0:0:0:
128,312,123049,2,0,P|176:288|196:264,1,75.000000298023
252,316,123511,2,0,P|284:288|324:264,1,75.000000298023,0|8,0:0|0:0,0:0:0:0:
364,216,123972,1,0,0:0:0:0:
364,216,124203,2,8,B|404:152|404:152|428:80,1,150.000000596046,0|8,0:0|0:0,0:0:0:0:
427,81,124895,1,0,0:0:0:0:
356,36,125126,6,0,B|316:12|252:44,1,75.000000298023,0|0,0:0|0:0,0:0:0:0:
324,100,125587,2,0,B|276:116|236:92,1,75.000000298023,8|0,0:0|0:0,0:0:0:0:
188,60,126049,2,0,B|172:96|188:136,1,75.000000298023,0|0,0:0|0:0,0:0:0:0:
252,100,126510,2,0,B|268:140|252:176,1,75.000000298023,8|0,0:0|0:0,0:0:0:0:
220,240,126972,2,0,B|176:244|176:332|232:332|256:348|256:348|280:332|336:332|336:244|280:236,1,300.000001192092,0|12,0:0|0:0,0:0:0:0:
260,176,128126,6,0,B|260:88,1,75.000000298023,0|8,0:0|0:0,0:0:0:0:
332,116,128587,2,0,B|332:28,1,75.000000298023,0|0,0:0|0:0,0:0:0:0:
404,64,129049,2,0,B|404:160,1,75.000000298023,0|8,0:0|0:0,0:0:0:0:
476,124,129510,2,0,B|476:212,1,75.000000298023,0|0,0:0|0:0,0:0:0:0:
408,232,129972,2,0,B|371:251|336:232,2,75.000000298023,0|8|0,0:0|0:0|0:0,0:0:0:0:
280,308,130895,2,0,P|244:264|284:144,1,187.500000745057,0|8,0:0|0:0,0:0:0:0:
360,72,131818,5,0,0:0:0:0:
372,84,131934,1,0,0:0:0:0:
384,96,132049,2,0,B|396:140|376:188,1,75.000000298023,8|0,0:0|0:0,0:0:0:0:
436,220,132510,2,0,B|484:220,2,37.5000001490115,0|0|0,0:0|0:0|0:0,0:0:0:0:
396,284,132972,2,0,B|392:324|360:348,1,75.000000298023,8|0,0:0|0:0,0:0:0:0:
320,284,133434,5,4,0:0:0:0:
32,60,144511,6,0,B|146:113|241:-15|326:68,1,300.000001192092
264,112,146587,1,0,0:0:0:0:
220,172,146818,1,2,0:0:0:0:
264,112,147049,1,0,0:0:0:0:
328,152,147280,5,0,0:0:0:0:
328,152,147510,2,0,B|328:240,1,75.000000298023,0|2,0:0|0:0,0:0:0:0:
324,304,147972,1,0,0:0:0:0:
392,272,148203,1,0,0:0:0:0:
412,344,148434,5,0,0:0:0:0:
412,344,148664,2,0,B|468:328|468:264,2,75.000000298023,2|0|0,0:0|0:0|0:0,0:0:0:0:
392,272,149357,2,0,B|392:192,1,75.000000298023,0|2,0:0|0:0,0:0:0:0:
368,124,149818,1,0,0:0:0:0:
368,124,150049,2,0,B|208:120,2,150.000000596046,0|2|0,0:0|0:0|0:0,0:0:0:0:
436,92,151203,6,0,B|460:132|420:188,1,75.000000298023,0|2,0:0|0:0,0:0:0:0:
368,200,151664,2,0,B|332:224|284:200,1,75.000000298023
328,136,152126,1,0,0:0:0:0:
260,104,152357,1,2,0:0:0:0:
188,128,152587,1,0,0:0:0:0:
168,128,152703,1,0,0:0:0:0:
148,128,152818,5,4,0:0:0:0:
256,192,153049,12,0,155587,0:0:0:0:
212,160,156049,38,0,B|212:244,2,75.000000298023,8|0|0,0:0|0:0|0:0,0:0:0:0:
292,160,156741,2,0,B|292:264,1,75.000000298023,0|8,0:0|0:0,0:0:0:0:
316,308,157203,2,0,B|324:352|368:364,1,75.000000298023,0|0,0:0|0:0,0:0:0:0:
436,360,157664,2,0,B|484:344|484:280,1,75.000000298023,0|8,0:0|0:0,0:0:0:0:
408,292,158126,6,0,B|408:217,1,75.000000298023
332,224,158587,1,0,0:0:0:0:
348,152,158818,1,8,0:0:0:0:
348,152,159280,1,0,0:0:0:0:
276,128,159510,5,0,0:0:0:0:
264,112,159626,1,0,0:0:0:0:
252,100,159741,1,8,0:0:0:0:
200,44,159972,1,0,0:0:0:0:
168,112,160203,2,0,B|128:192|192:248,1,150.000000596046,0|8,0:0|0:0,0:0:0:0:
260,276,160895,1,0,0:0:0:0:
320,232,161126,6,0,B|372:240|404:188,2,75.000000298023,0|0|8,0:0|0:0|0:0,0:0:0:0:
336,160,161818,1,0,0:0:0:0:
340,140,161934,1,0,0:0:0:0:
344,120,162049,1,0,0:0:0:0:
288,72,162280,1,0,0:0:0:0:
228,116,162510,1,8,0:0:0:0:
176,168,162741,1,0,0:0:0:0:
136,232,162972,6,0,B|176:256|224:224,1,75.000000298023,0|0,0:0|0:0,0:0:0:0:
268,188,163434,2,0,B|304:172|344:192,1,75.000000298023,8|0,0:0|0:0,0:0:0:0:
392,248,163895,2,0,B|428:264|468:248,1,75.000000298023,0|0,0:0|0:0,0:0:0:0:
496,180,164357,1,8,0:0:0:0:
404,60,164818,1,0,0:0:0:0:
328,68,165049,5,0,0:0:0:0:
312,76,165164,1,0,0:0:0:0:
296,84,165280,1,8,0:0:0:0:
228,116,165511,1,0,0:0:0:0:
164,76,165741,1,0,0:0:0:0:
104,120,165972,1,0,0:0:0:0:
124,192,166203,1,8,0:0:0:0:
200,184,166434,6,0,B|236:204|284:176,1,75.000000298023,0|0,0:0|0:0,0:0:0:0:
324,236,166895,2,0,B|364:212|404:244,1,75.000000298023,0|8,0:0|0:0,0:0:0:0:
468,244,167357,2,0,B|480:160,1,75.000000298023,0|0,0:0|0:0,0:0:0:0:
484,96,167818,1,0,0:0:0:0:
484,76,167934,1,0,0:0:0:0:
484,56,168049,1,8,0:0:0:0:
412,36,168280,6,0,B|372:32|336:36,2,75.000000298023,0|0|0,0:0|0:0|0:0,0:0:0:0:
484,56,168972,1,8,0:0:0:0:
412,116,169203,1,0,0:0:0:0:
360,172,169434,2,0,B|368:208|360:248,2,75.000000298023,0|0|8,0:0|0:0|0:0,0:0:0:0:
284,40,170357,1,0,0:0:0:0:
236,96,170587,5,0,0:0:0:0:
236,116,170703,1,0,0:0:0:0:
236,136,170818,1,8,0:0:0:0:
168,168,171049,1,0,0:0:0:0:
164,244,171280,1,0,0:0:0:0:
236,264,171511,2,0,B|268:288|308:272,1,75.000000298023,0|8,0:0|0:0,0:0:0:0:
280,204,171972,6,0,B|304:180|348:180,1,75.000000298023,0|0,0:0|0:0,0:0:0:0:
424,184,172434,2,0,B|468:184|492:212,1,75.000000298023,0|8,0:0|0:0,0:0:0:0:
436,264,172895,2,0,P|436:312|420:344,1,75.000000298023
364,292,173357,1,0,0:0:0:0:
348,304,173472,1,0,0:0:0:0:
332,316,173587,1,8,0:0:0:0:
276,264,173818,1,0,0:0:0:0:
220,212,174049,5,0,0:0:0:0:
272,160,174280,1,0,0:0:0:0:
268,84,174511,2,0,B|220:92|196:140,1,75.000000298023,8|0,0:0|0:0,0:0:0:0:
148,172,174972,2,0,B|124:204|80:216,2,75.000000298023,0|0|8,0:0|0:0|0:0,0:0:0:0:
256,68,175895,1,0,0:0:0:0:
328,84,176126,5,0,0:0:0:0:
344,88,176241,1,0,0:0:0:0:
360,92,176357,1,8,0:0:0:0:
392,160,176587,1,0,0:0:0:0:
360,228,176818,1,0,0:0:0:0:
400,292,177049,1,0,0:0:0:0:
364,356,177280,1,8,0:0:0:0:
364,356,177511,6,0,B|328:336|324:288,1,75.000000298023,0|4,0:0|0:0,0:0:0:0:
296,228,177972,2,0,B|256:244|240:308,1,75.000000298023,0|8,0:0|0:0,0:0:0:0:
192,332,178434,2,0,B|152:264,1,75.000000298023,0|0,0:0|0:0,0:0:0:0:
128,196,178895,2,0,B|148:116,1,75.000000298023,0|8,0:0|0:0,0:0:0:0:
212,88,179357,1,0,0:0:0:0:
224,100,179472,1,0,0:0:0:0:
236,116,179587,1,0,0:0:0:0:
292,168,179818,1,0,0:0:0:0:
296,188,179934,1,0,0:0:0:0:
300,204,180049,2,0,B|224:204,2,75.000000298023,8|0|4,0:0|0:0|0:0,0:0:0:0:
372,224,180741,5,0,0:0:0:0:
424,280,180972,2,0,B|424:320|384:336,1,75.000000298023,8|0,0:0|0:0,0:0:0:0:
308,340,181434,2,0,B|264:320|260:272,1,75.000000298023,0|0,0:0|0:0,0:0:0:0:
336,272,181895,1,8,0:0:0:0:
296,208,182126,1,0,0:0:0:0:
228,176,182357,1,0,0:0:0:0:
164,216,182587,1,0,0:0:0:0:
152,232,182703,1,0,0:0:0:0:
144,248,182818,1,8,0:0:0:0:
96,308,183049,1,0,0:0:0:0:
96,308,183280,6,0,P|132:324|168:316,1,75.000000298023,4|0,0:0|0:0,0:0:0:0:
236,296,183741,2,0,P|268:256|236:168,1,150.000000596046,8|0,0:0|0:0,0:0:0:0:
196,232,184434,1,0,0:0:0:0:
156,168,184664,1,8,0:0:0:0:
148,152,184780,1,0,0:0:0:0:
140,136,184895,1,0,0:0:0:0:
148,60,185126,2,0,B|228:60,1,75.000000298023,0|0,0:0|0:0,0:0:0:0:
240,60,185472,1,0,0:0:0:0:
260,60,185587,2,0,P|272:100|260:136,1,75.000000298023,8|0,0:0|0:0,0:0:0:0:
256,192,186049,12,8,188357,0:0:0:0:
296,192,188818,5,4,0:0:0:0:
296,192,189049,2,0,B|296:112,1,75.000000298023,0|8,0:0|0:0,0:0:0:0:
368,120,189511,2,0,B|368:200,1,75.000000298023,0|0,0:0|0:0,0:0:0:0:
440,200,189972,2,0,B|464:240|464:280,1,75.000000298023,0|8,0:0|0:0,0:0:0:0:
464,344,190434,2,0,B|416:344|392:328,1,75.000000298023,0|0,0:0|0:0,0:0:0:0:
368,256,190895,2,0,B|328:240|280:256,1,75.000000298023,0|8,0:0|0:0,0:0:0:0:
232,296,191357,1,0,0:0:0:0:
228,220,191587,5,4,0:0:0:0:
176,164,191818,1,0,0:0:0:0:
240,124,192049,1,8,0:0:0:0:
304,84,192280,1,0,0:0:0:0:
368,44,192511,2,0,B|408:12|464:44,1,75.000000298023,0|0,0:0|0:0,0:0:0:0:
412,104,192972,1,8,0:0:0:0:
372,164,193203,1,0,0:0:0:0:
368,184,193318,1,0,0:0:0:0:
372,204,193434,1,0,0:0:0:0:
444,220,193664,2,0,B|456:260|444:300,1,75.000000298023,0|8,0:0|0:0,0:0:0:0:
388,340,194126,6,0,B|352:328|308:344,1,75.000000298023,0|4,0:0|0:0,0:0:0:0:
260,292,194587,2,0,B|220:220,1,75.000000298023,0|8,0:0|0:0,0:0:0:0:
184,164,195049,2,0,B|148:144|144:96,1,75.000000298023,0|0,0:0|0:0,0:0:0:0:
220,96,195511,1,0,0:0:0:0:
236,104,195626,1,0,0:0:0:0:
252,112,195741,1,8,0:0:0:0:
316,152,195972,1,0,0:0:0:0:
368,100,196203,2,0,P|428:108|460:192,1,150.000000596046,0|8,0:0|0:0,0:0:0:0:
388,172,196895,2,0,B|388:260,1,75.000000298023,0|4,0:0|0:0,0:0:0:0:
412,320,197357,6,0,B|372:328|340:304,1,75.000000298023,0|8,0:0|0:0,0:0:0:0:
304,240,197818,2,0,B|272:208|224:208,1,75.000000298023
168,180,198280,2,0,B|140:100,1,75.000000298023,0|8,0:0|0:0,0:0:0:0:
200,60,198741,1,0,0:0:0:0:
200,60,198972,2,0,P|280:40|344:76,1,150.000000596046,0|8,0:0|0:0,0:0:0:0:
408,92,199664,2,0,B|388:136|344:140,1,75.000000298023,0|4,0:0|0:0,0:0:0:0:
312,200,200126,6,0,B|276:216|267:258,1,75.000000298023,0|8,0:0|0:0,0:0:0:0:
340,272,200587,1,0,0:0:0:0:
340,292,200703,1,0,0:0:0:0:
340,312,200818,1,0,0:0:0:0:
272,344,201049,1,0,0:0:0:0:
208,308,201280,1,8,0:0:0:0:
208,308,201511,2,0,B|176:236,1,75.000000298023,0|0,0:0|0:0,0:0:0:0:
200,168,201972,2,0,B|236:160|280:168,1,75.000000298023,0|8,0:0|0:0,0:0:0:0:
324,224,202434,1,0,0:0:0:0:
396,248,202664,5,4,0:0:0:0:
384,172,202895,2,0,B|452:100,1,75.000000298023,0|8,0:0|0:0,0:0:0:0:
452,44,203357,1,0,0:0:0:0:
380,60,203587,2,0,B|316:124,1,75.000000298023,0|0,0:0|0:0,0:0:0:0:
256,148,204049,1,8,0:0:0:0:
255,148,204280,2,0,B|192:108,1,75.000000298023,0|0,0:0|0:0,0:0:0:0:
116,112,204741,1,0,0:0:0:0:
100,104,204857,1,0,0:0:0:0:
84,96,204972,2,0,L|40:96,2,37.5000001490115,8|0|0,0:0|0:0|0:0,0:0:0:0:
76,172,205434,6,0,B|84:248|167:282,1,150.000000596046,4|8,0:0|0:0,0:0:0:0:
240,288,206126,1,0,0:0:0:0:
264,216,206357,2,0,B|308:156|312:72,1,150.000000596046,0|8,0:0|0:0,0:0:0:0:
384,52,207048,1,0,0:0:0:0:
420,120,207280,2,0,P|380:172|360:260,1,150.000000596046,0|8,0:0|0:0,0:0:0:0:
344,324,207972,1,0,0:0:0:0:
416,308,208203,6,0,B|456:296|488:252,1,75.000000298023,4|0,0:0|0:0,0:0:0:0:
484,192,208664,2,0,P|456:152|448:116,1,75.000000298023,8|0,0:0|0:0,0:0:0:0:
376,112,209126,2,0,B|292:108,1,75.000000298023,0|0,0:0|0:0,0:0:0:0:
236,72,209587,2,0,B|196:48|140:80,1,75.000000298023,8|0,0:0|0:0,0:0:0:0:
120,128,210049,2,0,B|100:160|108:224,1,75.000000298023,0|0,0:0|0:0,0:0:0:0:
164,248,210511,2,0,B|116:296|52:272|36:224,1,150.000000596046,8|4,0:0|0:0,0:0:0:0:
52,156,211203,5,0,0:0:0:0:
120,128,211434,1,8,0:0:0:0:
136,120,211549,1,0,0:0:0:0:
152,112,211664,1,0,0:0:0:0:
224,128,211895,1,0,0:0:0:0:
292,92,212126,5,0,0:0:0:0:
292,92,212357,2,0,B|324:68|364:92,1,75.000000298023,8|0,0:0|0:0,0:0:0:0:
324,156,212818,2,0,B|348:196|324:236,2,75.000000298023,0|0|8,0:0|0:0|0:0,0:0:0:0:
260,196,213511,1,2,0:0:0:0:
216,300,213972,5,0,0:0:0:0:
228,316,214087,1,0,0:0:0:0:
240,332,214203,2,0,B|360:332,1,112.500000447034,0|8,0:0|0:0,0:0:0:0:
448,272,214895,1,0,0:0:0:0:
448,252,215011,1,0,0:0:0:0:
448,232,215126,6,0,B|448:152|392:156|392:76,1,150.000000596046,8|0,0:0|0:0,0:0:0:0:
372,24,215818,2,0,B|332:32|312:88,2,75.000000298023,0|8|0,0:0|0:0|0:0,0:0:0:0:
232,220,217895,5,4,0:0:0:0:
120,120,218356,5,8,0:0:0:0:
184,84,218587,1,0,0:0:0:0:
252,56,218818,2,0,B|348:32|404:104,1,150.000000596046,0|8,0:0|0:0,0:0:0:0:
424,156,219511,1,0,0:0:0:0:
488,124,219741,2,0,B|494:87,2,37.5000001490115,0|0|0,0:0|0:0|0:0,0:0:0:0:
424,156,220202,2,0,B|417:119,2,37.5000001490115,8|0|0,0:0|0:0|0:0,0:0:0:0:
464,220,220664,6,0,B|407:257|343:209|352:152,1,150.000000596046,4|8,0:0|0:0,0:0:0:0:
424,156,221357,2,0,B|424:68,1,75.000000298023,0|0,0:0|0:0,0:0:0:0:
496,84,221818,2,0,B|496:180,1,75.000000298023,0|8,0:0|0:0,0:0:0:0:
512,236,222280,2,0,B|492:272|440:284,1,75.000000298023,0|0,0:0|0:0,0:0:0:0:
384,308,222741,2,0,B|304:340,1,75.000000298023,0|8,0:0|0:0,0:0:0:0:
256,284,223202,2,0,B|200:204,1,75.000000298023,0|4,0:0|0:0,0:0:0:0:
200,148,223664,5,0,0:0:0:0:
264,109,223895,2,0,B|280:53|344:69,1,75.000000298023,8|0,0:0|0:0,0:0:0:0:
328,140,224357,2,0,B|316:180|252:184,1,75.000000298023,0|0,0:0|0:0,0:0:0:0:
201,148,224818,2,0,B|183:71|121:12,1,150.000000596046,8|0,0:0|0:0,0:0:0:0:
68,65,225511,2,0,B|44:137,1,75.000000298023,0|8,0:0|0:0,0:0:0:0:
113,164,225972,2,0,B|97:244,1,75.000000298023,0|4,0:0|0:0,0:0:0:0:
156,285,226433,5,0,0:0:0:0:
228,304,226664,2,0,B|264:336|320:296,1,75.000000298023,8|0,0:0|0:0,0:0:0:0:
356,260,227126,1,0,0:0:0:0:
308,196,227357,1,0,0:0:0:0:
236,220,227587,1,8,0:0:0:0:
196,156,227818,1,0,0:0:0:0:
124,180,228049,1,0,0:0:0:0:
84,116,228280,1,0,0:0:0:0:
72,128,228395,1,0,0:0:0:0:
60,144,228511,1,8,0:0:0:0:
44,216,228741,2,8,B|32:292,1,75.000000298023,0|4,0:0|0:0,0:0:0:0:
100,324,229203,5,0,0:0:0:0:
116,336,229318,1,0,0:0:0:0:
132,348,229434,1,8,0:0:0:0:
208,344,229664,2,0,B|304:344,1,75.000000298023,0|0,0:0|0:0,0:0:0:0:
340,292,230126,2,0,B|352:264|344:212,1,75.000000298023,0|8,0:0|0:0,0:0:0:0:
292,164,230587,1,0,0:0:0:0:
356,124,230818,2,0,B|328:76|244:76|220:140,2,150.000000596046,0|8|4,0:0|0:0|0:0,0:0:0:0:
424,156,231972,5,0,0:0:0:0:
364,200,232203,1,8,0:0:0:0:
320,260,232434,1,0,0:0:0:0:
320,260,232548,2,0,P|284:280|248:328,1,75.000000298023
184,312,233010,2,0,B|136:264|148:192,1,112.500000447034,8|0,0:0|0:0,0:0:0:0:
140,136,233587,2,0,B|92:96,2,37.5000001490115,0|0|0,0:0|0:0|0:0,0:0:0:0:
216,144,234049,2,0,B|376:144,1,150.000000596046,8|4,0:0|0:0,0:0:0:0:
436,168,234741,5,0,0:0:0:0:
432,248,234972,1,8,0:0:0:0:
428,268,235087,1,0,0:0:0:0:
424,288,235203,1,0,0:0:0:0:
360,324,235434,1,0,0:0:0:0:
288,300,235664,2,0,B|204:300,1,75.000000298023,0|8,0:0|0:0,0:0:0:0:
204,224,236126,2,0,B|280:224,1,75.000000298023,0|0,0:0|0:0,0:0:0:0:
272,148,236587,2,0,B|188:148,1,75.000000298023,0|8,0:0|0:0,0:0:0:0:
188,72,237048,2,0,B|276:72,1,75.000000298023,0|4,0:0|0:0,0:0:0:0:
332,100,237511,5,0,0:0:0:0:
344,84,237625,2,0,L|424:84,1,75.000000298023
432,72,237971,2,0,P|452:136|420:192,1,112.500000447034
368,264,238664,2,0,B|300:312,1,75.000000298023,8|0,0:0|0:0,0:0:0:0:
272,240,239126,2,0,B|192:192,1,75.000000298023,0|0,0:0|0:0,0:0:0:0:
152,248,239587,2,0,B|72:288,1,75.000000298023,8|0,0:0|0:0,0:0:0:0:
