osu file format v5

[General]
AudioFilename: Akiyamauni, ZUN - Septette for the Dead Princess.mp3
AudioLeadIn: 0
PreviewTime: -1
Countdown: 1
SampleSet: Soft
StackLeniency: 0.7
Mode: 0
LetterboxInBreaks: 1

[Metadata]
Title:Septette for the Dead Princess [Step 1: Easy Mode is for kids!]
Artist:Akiyamauni, ZUN
Creator:Sayuma
Version:Easy
Source:Scarlet Weather Rhapsody
Tags:Scarlet Weather Rhapsody Remilia Scarlet

[Difficulty]
HPDrainRate:5
CircleSize:5
OverallDifficulty:5
SliderMultiplier:1.4
SliderTickRate:1

[Events]
//Background and Video events
0,0,"4418d59a4a8277b9e55f49a4ea4c195547eef5c2.jpg"
//Break Periods
2,38679,47279
2,82729,87279
2,126696,135213
//Storyboard Layer 0 (Background)
//Storyboard Layer 1 (Failing)
//Storyboard Layer 2 (Passing)
//Storyboard Layer 3 (Foreground)
//Storyboard Sound Samples
//Background Colour Transformations
3,100,163,162,255

[TimingPoints]
4513,495.867768595041,4,2,0,100,1

[HitObjects]
352,32,8479,1,0
384,96,9554,1,0
416,160,10546,1,4
160,32,12529,5,0
128,96,13521,1,0
96,160,14512,1,4
384,96,16496,5,2
384,96,16909,1,2
128,96,18562,5,2
128,96,18893,1,2
352,352,20463,5,0
384,288,21537,1,0
416,224,22529,1,4
160,352,24512,5,0
128,288,25504,1,0
96,224,26496,1,4
416,160,28479,5,0
384,96,29471,1,0
352,32,30463,1,4
128,96,32529,5,2
128,96,32942,1,2
384,96,34430,5,2
384,96,34843,1,2
96,160,36496,5,0
128,96,37488,1,0
160,32,38479,1,12
96,192,48479,5,8
128,128,49471,1,8
192,96,49884,1,8
256,96,50463,1,8
320,96,51537,1,8
352,160,51868,1,8
352,224,52446,1,8
288,256,53438,1,8
224,256,54512,1,8
96,160,56496,5,2
96,224,58479,1,2
416,224,60463,5,2
416,160,62446,1,2
96,224,64430,5,2
96,160,66496,1,2
416,224,68562,5,2
416,160,70463,1,2
224,96,72529,5,2
288,96,74512,1,2
288,288,76496,5,2
224,288,78479,1,0
224,192,80463,5,2
288,192,82529,1,2
352,32,88479,5,0
384,96,89471,1,0
416,160,90463,1,0
288,160,92446,5,0
224,160,94512,1,0
160,32,96413,5,0
128,96,97488,1,0
96,160,98562,1,4
160,352,100463,5,0
128,288,101537,1,0
96,224,102529,1,4
192,192,104512,5,2
192,192,104926,1,2
320,192,106496,5,2
320,192,106827,1,2
352,352,108479,5,0
384,288,109471,1,0
416,224,110463,1,4
160,352,112446,5,0
128,288,113438,1,0
96,224,114512,1,4
160,32,116496,5,0
128,96,117488,1,0
96,160,118479,1,4
256,256,120546,5,2
256,256,120876,1,2
256,128,122446,5,2
256,128,122860,1,2
192,192,124430,5,0
256,192,125422,1,0
320,192,126496,1,4
32,64,136413,5,8
96,128,138479,1,8
160,192,140380,1,8
224,256,141537,1,8
288,320,142529,1,8
480,64,144512,5,2
416,128,146496,1,2
352,192,148397,1,2
288,256,150463,1,2
224,320,152446,1,2
256,32,154512,5,2
256,96,156496,1,2
256,160,158479,1,2
256,224,160463,1,2
256,288,162446,1,2
256,352,164512,1,2
256,288,166496,1,2
256,224,168479,1,2
256,160,170546,1,2
192,160,172446,1,0
256,224,173521,1,0
320,160,174512,1,4
320,224,176496,5,0
256,160,177488,1,0
192,224,178479,1,4
256,192,179884,12,8,188727
