osu file format v10

[General]
AudioFilename: mp3.mp3
AudioLeadIn: 2000
PreviewTime: 85957
Countdown: 0
SampleSet: Soft
StackLeniency: 0.4
Mode: 0
LetterboxInBreaks: 1

[Editor]
Bookmarks: 95,6715,19957,33198,46439,59681,72922,86163,99405,112646,125888,139129,152370,165612
DistanceSpacing: 1
BeatDivisor: 4
GridSize: 16

[Metadata]
Title:Yuuga ni Sakase, Sumizome no Sakura ~ Border of Life
TitleUnicode:Yuuga ni Sakase, Sumizome no Sakura ~ Border of Life
Artist:Akiyama Uni
ArtistUnicode:Akiyama Uni
Creator:impossiblexu
Version:Lunatic
Source:Touhou
Tags:Hisouten Scarlet Weather Rhapsody Yuyuko Saigyouji Verdisphena ZUN
BeatmapID:143362
BeatmapSetID:32380

[Difficulty]
HPDrainRate:4
CircleSize:4
OverallDifficulty:6
ApproachRate:8
SliderMultiplier:1.8
SliderTickRate:2

[Events]
//Background and Video events
0,0,"BG.jpg"
//Break Periods
//Storyboard Layer 0 (Background)
//Storyboard Layer 1 (Fail)
//Storyboard Layer 2 (Pass)
//Storyboard Layer 3 (Foreground)
//Storyboard Sound Samples
//Background Colour Transformations
3,100,163,162,255

[TimingPoints]
103,413.793103448276,4,2,0,80,1,0
6060,-100,4,1,0,50,0,0
6680,-100,4,2,0,90,0,0
10043,-100,4,2,1,90,0,0
31870,-100,4,1,0,55,0,0
32077,-100,4,2,0,90,0,0
32284,-100,4,1,0,50,0,0
32491,-100,4,1,0,65,0,0
32698,-100,4,1,0,80,0,0
32905,-100,4,1,0,95,0,0
33163,-100,4,2,0,80,0,0
84787,-100,4,1,0,80,0,0
85043,-100,4,2,0,80,0,0
85408,-100,4,1,0,80,0,0
85663,-100,4,2,1,80,0,0
111321,-100,4,1,0,60,0,0
111528,-100,4,2,0,90,0,0
111735,-100,4,1,0,50,0,0
111942,-100,4,1,0,65,0,0
112149,-100,4,1,0,80,0,0
112356,-100,4,1,0,95,0,0
112563,-100,4,2,0,80,0,0

[Colours]
Combo1 : 22,228,5
Combo2 : 251,64,227
Combo3 : 255,255,255
Combo4 : 17,185,227
Combo5 : 146,36,255
SliderBorder : 0,0,0

[HitObjects]
215,54,103,2,0,B|260:86|299:53,1,90,4|0,0:0|0:0,0:0:0
321,141,516,2,0,B|258:183|186:134,1,135
117,91,1034,2,0,B|60:162,1,90
98,186,1344,2,0,B|99:284,1,90
272,334,1758,5,4,0:0:0
344,281,1965,1,0,0:0:0
287,211,2171,2,0,B|351:163|307:70,1,135
237,136,2689,2,0,B|123:121,1,90
119,88,2999,2,0,B|39:162,1,90
58,319,3413,5,4,0:0:0
119,253,3620,1,0,0:0:0
185,313,3827,2,0,B|210:333|254:341|289:326|307:299,1,135
240,239,4344,2,0,B|285:226|303:193|309:149|279:116,1,135
205,161,4861,1,0,0:0:0
351,54,5068,6,0,B|399:186,4,135,4|0|0|0|0,0:0|0:0|0:0|0:0|0:0,0:0:0
398,181,6516,1,0,0:0:0
396,355,6723,6,0,B|278:355,1,90,4|2,0:0|0:0,0:0:0
197,355,7137,1,8,0:0:0
50,295,7344,6,0,B|168:295,1,90,2|0,0:0|0:0,0:0:0
249,295,7758,1,2,0:0:0
391,237,7965,6,0,B|286:238,1,90,8|2,0:0|0:0,0:0:0
253,34,8378,6,0,B|254:142,1,90,4|2,0:0|0:0,0:0:0
145,126,8792,1,8,0:0:0
200,282,8999,6,0,B|201:174,1,90,2|0,0:0|0:0,0:0:0
92,190,9413,1,2,0:0:0
387,188,9620,6,0,B|297:188,1,90,8|2,0:0|0:0,0:0:0
425,98,10034,6,0,B|478:117|504:170|500:222|474:267,1,180,4|8,0:0|0:0,0:0:0
358,81,10654,1,2,0:0:0
446,303,10861,6,0,B|424:347|372:366|317:357|279:314,1,180,0|8,0:0|0:0,0:0:0
483,246,11482,1,2,0:0:0
236,286,11689,6,0,B|192:271|159:223|170:160|202:123,1,180,4|8,0:0|0:0,0:0:0
299,112,12309,2,0,B|264:195,1,90,2|0,0:0|0:0,0:0:0
440,115,12723,2,0,B|358:155,1,90,2|8,0:0|0:0,0:0:0
500,172,13137,1,2,0:0:0
500,172,13344,6,0,B|462:203|481:258,1,90,4|2,0:0|0:0,0:0:0
370,255,13758,1,8,0:0:0
293,90,13965,6,0,B|331:121|312:176,1,90,2|0,0:0|0:0,0:0:0
423,173,14378,1,2,0:0:0
490,25,14585,6,0,B|452:56|471:111,1,90,8|2,0:0|0:0,0:0:0
291,21,14999,6,0,B|253:54|202:29,1,90,4|2,0:0|0:0,0:0:0
98,33,15413,1,8,0:0:0
8,137,15620,6,0,B|46:170|97:145,1,90,2|0,0:0|0:0,0:0:0
201,149,16034,1,2,0:0:0
295,252,16240,6,0,B|257:285|206:257,1,90,8|2,0:0|0:0,0:0:0
319,154,16654,6,0,B|365:161|400:191|418:243|397:305,1,180,4|8,0:0|0:0,0:0:0
451,167,17275,1,2,0:0:0
288,31,17482,6,0,B|302:77|339:107|390:113|445:94,1,180,0|8,0:0|0:0,0:0:0
319,156,18102,1,2,0:0:0
115,119,18309,6,0,B|148:100|204:106|255:147|254:194,1,180,4|8,0:0|0:0,0:0:0
138,237,18930,6,0,B|139:333,1,90,2|0,0:0|0:0,0:0:0
65,235,19344,2,0,B|66:332,2,90,2|4|2,0:0|0:0|0:0,0:0:0
220,277,19965,6,0,B|317:277,1,90,4|2,0:0|0:0,0:0:0
408,232,20378,1,8,0:0:0
364,54,20585,6,0,B|366:164,1,90,2|0,0:0|0:0,0:0:0
270,53,20999,1,2,0:0:0
179,143,21206,6,0,B|289:143,1,90,8|2,0:0|0:0,0:0:0
47,96,21620,6,0,B|24:98|9:62|25:30|61:31,1,90,4|2,0:0|0:0,0:0:0
153,68,22034,1,8,0:0:0
48,224,22240,6,0,B|25:226|10:190|26:158|62:159,1,90,2|0,0:0|0:0,0:0:0
154,196,22654,1,2,0:0:0
47,356,22861,6,0,B|24:358|9:322|25:290|61:291,1,90,8|2,0:0|0:0,0:0:0
271,319,23275,6,0,B|243:356|185:369|128:352|99:309,1,180,4|8,0:0|0:0,0:0:0
189,264,23896,1,2,0:0:0
353,265,24102,6,0,B|319:235|301:182|319:132|354:106,1,180,0|8,0:0|0:0,0:0:0
428,183,24723,1,2,0:0:0
302,44,24930,6,0,B|274:81|216:94|159:77|130:34,1,180,4|8,0:0|0:0,0:0:0
50,107,25551,2,0,B|14:126|39:156|0:182,1,90,2|0,0:0|0:0,0:0:0
83,252,25965,2,0,B|49:284|82:304|50:341,2,90,2|8|2,0:0|0:0|0:0,0:0:0
254,195,26585,6,0,B|254:101,2,90,4|2|8,0:0|0:0|0:0,0:0:0
335,267,27206,6,0,B|335:357,2,90,2|0|2,0:0|0:0|0:0,0:0:0
184,148,27827,6,0,B|184:49,1,90,8|2,0:0|0:0,0:0:0
367,49,28240,6,0,B|453:108,2,90,4|2|8,0:0|0:0|0:0,0:0:0
465,197,28861,6,0,B|390:146,2,90,2|0|2,0:0|0:0|0:0,0:0:0
264,59,29482,6,0,B|350:118,1,90,8|2,0:0|0:0,0:0:0
161,149,29896,6,0,B|161:348,1,180,4|8,0:0|0:0,0:0:0
52,329,30516,1,2,0:0:0
268,332,30723,6,0,B|460:332,1,180,4|8,0:0|0:0,0:0:0
448,223,31344,1,2,0:0:0
285,142,31551,6,0,B|375:143,1,90,4|2,0:0|0:0,0:0:0
398,37,31965,2,0,B|247:36,2,135
487,100,32792,1,0,0:0:0
487,100,32999,1,0,0:0:0
423,187,33206,6,0,B|456:217|473:276|457:325|419:365,1,180,4|8,0:0|0:0,0:0:0
340,352,33827,1,0,0:0:0
284,281,34034,2,0,B|245:311|199:279,2,90,0|0|8,0:0|0:0|0:0,0:0:0
133,181,34861,6,0,B|192:175|228:127|223:72|199:29,1,180,4|8,0:0|0:0,0:0:0
295,26,35482,1,0,0:0:0
364,83,35689,2,0,B|406:56|458:89,2,90,0|0|8,0:0|0:0|0:0,0:0:0
413,256,36516,6,0,B|389:294|339:316|284:296|254:258,1,180,4|8,0:0|0:0,0:0:0
334,215,37137,1,0,0:0:0
290,136,37344,2,0,B|390:136,1,90
290,60,37758,2,0,B|386:61,1,90,8|0,0:0|0:0,0:0:0
211,60,38171,6,0,B|191:97|132:117|69:95|47:52,1,180,4|4,0:0|0:0,0:0:0
131,176,38896,2,0,B|107:197|93:237|105:277|128:305,1,135,4|0,0:0|0:0,0:0:0
192,241,39413,2,0,B|286:242,1,90,4|0,0:0|0:0,0:0:0
311,156,39827,6,0,B|501:157,1,180,4|8,0:0|0:0,0:0:0
492,66,40447,1,0,0:0:0
401,65,40654,2,0,B|304:65,2,90,0|0|8,0:0|0:0|0:0,0:0:0
220,58,41482,6,0,B|187:141|187:141|221:244,1,180,4|8,0:0|0:0,0:0:0
272,142,42103,2,0,B|302:228,1,90
380,270,42516,2,0,B|350:356,2,90,0|8|0,0:0|0:0|0:0,0:0:0
457,222,43137,6,0,B|418:207|400:149|413:89|466:72,2,180,4|8|0,0:0|0:0|0:0,0:0:0
367,213,44171,2,0,B|266:233,1,90,0|8,0:0|0:0,0:0:0
202,182,44585,1,0,0:0:0
225,94,44792,6,0,B|35:126,1,180,4|4,0:0|0:0,0:0:0
152,39,45516,2,0,B|293:18,1,135,4|0,0:0|0:0,0:0:0
377,71,46034,2,0,B|285:85,1,90,4|0,0:0|0:0,0:0:0
453,116,46447,6,0,B|497:139|521:184|521:240|491:284,1,180,4|8,0:0|0:0,0:0:0
427,208,47068,1,0,0:0:0
383,287,47275,2,0,B|282:298,2,90,0|0|8,0:0|0:0|0:0,0:0:0
222,205,48103,6,0,B|197:172|142:159|82:180|64:229,1,180,4|8,0:0|0:0,0:0:0
29,140,48723,1,0,0:0:0
111,103,48930,2,0,B|161:73|144:17,2,90,0|0|8,0:0|0:0|0:0,0:0:0
291,95,49758,6,0,B|320:67|368:52|427:69|462:103,1,180,4|8,0:0|0:0,0:0:0
404,171,50378,2,0,B|403:269,1,90
341,168,50792,2,0,B|340:266,1,90,0|8,0:0|0:0,0:0:0
274,167,51206,1,0,0:0:0
207,78,51413,6,0,B|155:101|139:148|147:208|185:242,1,180,4|4,0:0|0:0,0:0:0
40,211,52137,2,0,B|80:211|109:235|123:276|109:324,1,135,4|0,0:0|0:0,0:0:0
182,361,52654,1,4,0:0:0
260,316,52861,1,0,0:0:0
246,226,53068,6,0,B|273:191|319:172|373:183|417:221,1,180,4|8,0:0|0:0,0:0:0
483,164,53689,1,0,0:0:0
423,96,53896,2,0,B|397:4,2,90,0|0|8,0:0|0:0|0:0,0:0:0
243,77,54723,6,0,B|226:64|197:54|167:67|164:90|157:112|127:126|93:123|80:100,1,180,4|8,0:0|0:0,0:0:0
23,173,55344,1,0,0:0:0
82,240,55551,2,0,B|44:275|73:323,2,90,0|0|8,0:0|0:0|0:0,0:0:0
253,186,56378,6,0,B|438:187,1,180,4|8,0:0|0:0,0:0:0
342,116,56999,1,0,0:0:0
252,46,57206,2,0,B|437:47,1,180,0|8,0:0|0:0,0:0:0
490,115,57827,1,0,0:0:0
490,205,58034,6,0,B|490:300,1,90,4|0,0:0|0:0,0:0:0
402,317,58447,2,0,B|400:177,2,135,4|4|4,0:0|0:0|0:0,0:0:0
311,316,59275,1,4,0:0:0
312,182,59482,1,4,0:0:0
204,244,59689,6,0,B|177:282|127:304|67:282|42:243,1,180,4|8,0:0|0:0,0:0:0
148,101,60516,2,0,B|148:11,1,90
215,71,60930,2,0,B|215:170,1,90,8|2,0:0|0:0,0:0:0
375,77,61344,6,0,B|421:72|469:93|492:141|482:192,1,180,4|8,0:0|0:0,0:0:0
316,257,62171,1,0,0:0:0
289,170,62378,2,0,B|391:170,2,90,0|8|2,0:0|0:0|0:0,0:0:0
127,94,62999,6,0,B|126:205,2,90,4|0|8,0:0|0:0|0:0,0:0:0
61,183,63620,2,0,B|61:93,2,90
149,250,64240,2,0,B|56:251,1,90,8|2,0:0|0:0,0:0:0
219,247,64654,6,0,B|244:282|300:299|350:285|384:239,1,180,4|8,0:0|0:0,0:0:0
456,204,65275,2,0,B|431:169|375:152|326:162|294:205,1,180
254,120,65896,1,8,0:0:0
254,120,66103,1,2,0:0:0
128,34,66309,6,0,B|79:38|38:59|17:123|37:169,1,180,4|8,0:0|0:0,0:0:0
181,261,67137,2,0,B|211:291|179:314|207:348,1,90
282,299,67551,2,0,B|324:299|314:333|366:338,1,90,8|2,0:0|0:0,0:0:0
261,186,67965,6,0,B|291:217|340:232|397:219|431:187,1,180,4|8,0:0|0:0,0:0:0
277,89,68792,1,0,0:0:0
233,9,68999,1,0,0:0:0
153,50,69206,1,8,0:0:0
190,131,69413,1,2,0:0:0
46,211,69620,6,0,B|230:211,1,180,4|8,0:0|0:0,0:0:0
275,336,70344,2,0,B|294:309|337:299|386:316|406:349,1,135
480,305,70861,1,8,0:0:0
484,215,71068,1,2,0:0:0
405,170,71275,6,0,B|367:162|340:125|345:78|369:55,2,135,4|0|0,0:0|0:0|0:0,0:0:0
319,198,72103,2,0,B|221:224,1,90,0|0,0:0|0:0,0:0:0
168,157,72516,2,0,B|254:133,1,90,4|0,0:0|0:0,0:0:0
131,79,72930,6,0,B|77:91|52:142|65:197|101:226,1,180,4|8,0:0|0:0,0:0:0
204,365,73758,2,0,B|212:259,1,90
295,246,74171,2,0,B|288:335,1,90,8|2,0:0|0:0,0:0:0
382,219,74585,6,0,B|424:186|414:120|394:82|341:70,1,180,4|8,0:0|0:0,0:0:0
261,58,75206,2,0,B|157:52,1,90
81,63,75620,2,0,B|8:130,1,90,0|8,0:0|0:0,0:0:0
14,214,76034,1,2,0:0:0
164,155,76240,6,0,B|202:166|232:227|204:300|147:308,1,180,4|8,0:0|0:0,0:0:0
255,321,76861,2,0,B|266:283|327:253|400:281|408:338,1,180
445,238,77482,2,0,B|508:165,1,90,8|2,0:0|0:0,0:0:0
373,32,77896,6,0,B|418:107|418:107|355:176,2,180,4|8|0,0:0|0:0|0:0,0:0:0
300,85,78930,1,0,0:0:0
225,135,79137,1,8,0:0:0
151,186,79344,1,2,0:0:0
304,174,79551,6,0,B|353:186|390:236|384:282|356:331,1,180,4|8,0:0|0:0,0:0:0
185,286,80378,2,0,B|147:318|95:287,1,90
34,228,80792,2,0,B|68:189|43:141,1,90,8|2,0:0|0:0,0:0:0
115,24,81206,6,0,B|137:61|197:76|257:58|277:13,1,180,4|8,0:0|0:0,0:0:0
448,57,82034,2,0,B|356:54,1,90
486,122,82447,2,0,B|394:119,1,90,8|2,0:0|0:0,0:0:0
290,227,82861,6,0,B|253:256|273:311,2,90,4|0|8,0:0|0:0|0:0,0:0:0
199,228,83482,2,0,B|165:267|109:275|58:247|43:197,1,180,4|0,0:0|0:0,0:0:0
48,119,84103,2,0,B|48:14,1,90,8|2,0:0|0:0,0:0:0
177,66,84516,5,4,0:0:0
287,68,84723,2,0,B|386:67,1,90
245,187,85137,5,0,0:0:0
417,187,85344,2,0,B|516:186,1,90
439,282,85758,1,4,0:0:0
225,275,85965,1,0,0:0:0
371,360,86171,6,0,B|273:360,1,90,4|2,0:0|0:0,0:0:0
325,260,86585,1,8,0:0:0
320,84,86792,6,0,B|321:182,1,90,2|0,0:0|0:0,0:0:0
225,122,87206,1,2,0:0:0
53,122,87413,6,0,B|147:122,1,90,8|2,0:0|0:0,0:0:0
54,277,87827,6,0,B|95:257|101:302|155:279,1,90,4|2,0:0|0:0,0:0:0
248,280,88240,1,8,0:0:0
160,186,88447,6,0,B|201:206|207:161|261:184,1,90,2|0,0:0|0:0,0:0:0
354,178,88861,1,2,0:0:0
267,70,89068,6,0,B|308:50|314:95|368:72,1,90,8|2,0:0|0:0,0:0:0
495,187,89482,6,0,B|459:217|443:267|464:333|495:366,1,180,4|8,0:0|0:0,0:0:0
377,330,90103,1,2,0:0:0
213,236,90309,6,0,B|249:268|299:285|359:267|391:229,1,180,0|8,0:0|0:0,0:0:0
297,169,90930,1,2,0:0:0
360,39,91137,6,0,B|350:92|298:119|243:92|234:29,1,180,4|8,0:0|0:0,0:0:0
73,41,91758,2,0,B|170:41,1,90,2|0,0:0|0:0,0:0:0
118,204,92171,2,0,B|118:109,1,90,2|8,0:0|0:0,0:0:0
118,277,92585,1,2,0:0:0
191,116,92792,6,0,B|191:212,1,90,4|2,0:0|0:0,0:0:0
262,287,93206,1,8,0:0:0
262,118,93413,6,0,B|262:214,1,90,2|0,0:0|0:0,0:0:0
339,287,93827,1,2,0:0:0
338,121,94034,6,0,B|338:217,1,90,8|2,0:0|0:0,0:0:0
339,41,94447,6,0,B|298:65|249:40,1,90,4|2,0:0|0:0,0:0:0
144,41,94861,1,8,0:0:0
75,219,95068,6,0,B|101:173|75:130,1,90,2|0,0:0|0:0,0:0:0
79,24,95482,1,2,0:0:0
232,137,95689,6,0,B|193:165|147:138,1,90,8|2,0:0|0:0,0:0:0
291,208,96103,6,0,B|332:220|354:277|336:333|294:354,1,180,4|8,0:0|0:0,0:0:0
217,278,96723,1,2,0:0:0
391,208,96930,6,0,B|350:220|328:277|346:333|388:354,1,180,0|8,0:0|0:0,0:0:0
463,276,97551,1,2,0:0:0
409,111,97758,6,0,B|391:154|334:176|277:153|263:107,1,180,4|8,0:0|0:0,0:0:0
338,33,98378,2,0,B|248:13,1,90,2|0,0:0|0:0,0:0:0
144,38,98792,2,0,B|86:117,1,90,2|4,0:0|0:0,0:0:0
6,41,99206,1,2,0:0:0
6,41,99413,6,0,B|38:77|14:124,1,90,4|2,0:0|0:0,0:0:0
28,231,99827,1,8,0:0:0
207,182,100034,6,0,B|172:214|117:192,1,90,2|0,0:0|0:0,0:0:0
98,293,100447,1,2,0:0:0
268,311,100654,6,0,B|240:265|181:280,1,90,8|2,0:0|0:0,0:0:0
228,101,101068,6,0,B|326:101,1,90,4|2,0:0|0:0,0:0:0
426,103,101482,1,8,0:0:0
371,277,101689,6,0,B|370:170,1,90,2|0,0:0|0:0,0:0:0
478,187,102103,1,2,0:0:0
468,360,102309,6,0,B|363:360,1,90,8|2,0:0|0:0,0:0:0
237,237,102723,6,0,B|225:251|225:251|213:231|213:231|202:252|202:252|191:232|191:232|181:253|181:253|166:232|166:232|154:253|154:253|139:241,1,180,4|8,0:0|0:0,0:0:0
57,170,103344,1,2,0:0:0
174,28,103551,2,0,B|188:40|188:40|168:52|168:52|189:63|189:63|169:74|169:74|190:84|190:84|169:99|169:99|190:111|190:111|178:126,1,180,0|8,0:0|0:0,0:0:0
286,127,104171,1,2,0:0:0
458,51,104378,6,0,B|396:85|396:85|413:107|418:144|408:177|382:191,1,180,4|8,0:0|0:0,0:0:0
481,126,104999,2,0,B|484:176|453:224,1,90,2|0,0:0|0:0,0:0:0
355,240,105413,2,0,B|325:275|336:334,1,90,2|8,0:0|0:0,0:0:0
228,350,105827,1,0,0:0:0
72,270,106034,6,0,B|157:205,1,90,4|2,0:0|0:0,0:0:0
144,107,106447,1,8,0:0:0
246,230,106654,6,0,B|331:165,1,90,2|0,0:0|0:0,0:0:0
318,67,107068,1,2,0:0:0
416,189,107275,6,0,B|501:124,1,90,8|2,0:0|0:0,0:0:0
479,333,107689,6,0,B|408:262,1,90,4|2,0:0|0:0,0:0:0
326,332,108103,1,8,0:0:0
157,269,108309,6,0,B|220:332,1,90,2|0,0:0|0:0,0:0:0
77,330,108723,1,2,0:0:0
88,149,108930,6,0,B|17:215,1,90,8|2,0:0|0:0,0:0:0
144,79,109344,6,0,B|169:117|224:133|282:116|308:67,1,180,4|8,0:0|0:0,0:0:0
397,32,109965,1,2,0:0:0
267,187,110171,6,0,B|288:150|345:135|402:150|427:202,1,180,4|8,0:0|0:0,0:0:0
496,113,110792,1,2,0:0:0
341,227,110999,6,0,B|342:319,1,90,4|2,0:0|0:0,0:0:0
233,322,111413,2,0,B|142:321|142:321|141:378,2,135
185,225,112240,1,0,0:0:0
185,225,112447,1,0,0:0:0
111,39,112654,6,0,B|136:73|196:87|246:69|279:35,1,180,4|8,0:0|0:0,0:0:0
363,42,113275,1,0,0:0:0
362,132,113482,2,0,B|343:175|380:176|359:227,2,90,0|0|8,0:0|0:0|0:0,0:0:0
482,266,114309,6,0,B|441:254|388:259|348:298|343:362,1,180,4|8,0:0|0:0,0:0:0
264,304,114930,2,0,B|169:304,1,90
92,263,115344,1,0,0:0:0
76,174,115551,2,0,B|104:133|80:83,1,90,8|0,0:0|0:0,0:0:0
260,104,115965,6,0,B|291:72|343:60|391:75|427:111,1,180,4|8,0:0|0:0,0:0:0
500,62,116585,2,8,B|501:167,1,90,0|0,0:0|0:0,0:0:0
433,212,116999,2,0,B|433:316,1,90,0|8,0:0|0:0,0:0:0
365,361,117413,1,0,0:0:0
221,251,117620,6,0,B|40:250,1,180,4|4,0:0|0:0,0:0:0
195,184,118344,2,0,B|47:184,1,135,4|0,0:0|0:0,0:0:0
172,119,118861,2,0,B|78:118,1,90,4|0,0:0|0:0,0:0:0
249,57,119275,6,0,B|286:50|341:59|375:102|378:159,1,180,4|8,0:0|0:0,0:0:0
465,309,120103,1,0,0:0:0
420,231,120309,1,0,0:0:0
343,278,120516,2,0,B|308:239|254:262,1,90,8|0,0:0|0:0,0:0:0
215,58,120930,6,0,B|171:72|156:138|188:187|240:195,1,180,4|8,0:0|0:0,0:0:0
384,95,121758,2,0,B|277:116,2,90,0|0|8,0:0|0:0|0:0,0:0:0
469,123,122378,1,0,0:0:0
437,315,122585,6,0,B|474:283|477:219|439:173|389:170,1,180,4|8,0:0|0:0,0:0:0
373,257,123206,1,0,0:0:0
283,246,123413,2,0,B|320:328,1,90
228,297,123827,2,0,B|190:214,1,90,8|0,0:0|0:0,0:0:0
282,70,124240,6,0,B|252:104|204:116|147:107|117:66,1,180,4|4,0:0|0:0,0:0:0
23,165,124965,2,0,B|55:170|79:200|82:256|49:286,1,135,4|0,0:0|0:0,0:0:0
147,291,125482,2,0,B|232:341,1,90,4|0,0:0|0:0,0:0:0
348,206,125896,6,0,B|325:247|272:264|214:243|188:197,1,180,4|8,0:0|0:0,0:0:0
274,46,126723,2,0,B|253:86|293:93|268:146,2,90,0|0|8,0:0|0:0|0:0,0:0:0
362,66,127344,1,0,0:0:0
478,183,127551,6,0,B|447:206|423:253|437:311|475:344,1,180,4|8,0:0|0:0,0:0:0
343,216,128378,2,0,B|372:262|338:308,2,90,0|0|8,0:0|0:0|0:0,0:0:0
264,260,128999,1,0,0:0:0
128,146,129206,6,0,B|136:189|186:223|239:219|284:177,1,180,4|8,0:0|0:0,0:0:0
218,114,129827,2,0,B|314:92,1,90
394,106,130240,1,0,0:0:0
397,195,130447,2,0,B|446:211|439:272,1,90,8|0,0:0|0:0,0:0:0
298,333,130861,6,0,B|93:331,1,180,4|4,0:0|0:0,0:0:0
209,231,131585,2,0,B|186:208|175:166|184:134|217:107,1,135,4|0,0:0|0:0,0:0:0
283,166,132103,2,0,B|384:167,1,90,4|0,0:0|0:0,0:0:0
499,93,132516,6,0,B|464:117|447:157|455:202|472:240|508:259,1,180,4|8,0:0|0:0,0:0:0
426,309,133137,1,0,0:0:0
343,273,133344,2,0,B|308:246|252:246|196:272|184:329,1,180,0|8,0:0|0:0,0:0:0
62,46,134171,6,0,B|158:46,1,90,4|0,0:0|0:0,0:0:0
200,122,134585,2,0,B|322:124,1,90,8|0,0:0|0:0,0:0:0
354,187,134999,2,0,B|453:185,2,90,0|0|8,0:0|0:0|0:0,0:0:0
289,250,135620,1,0,0:0:0
127,172,135827,6,0,B|91:198|71:250|95:305|125:333,1,180,4|8,0:0|0:0,0:0:0
178,248,136447,1,0,0:0:0
222,325,136654,2,0,B|317:354,1,90
391,315,137068,2,0,B|501:333,1,90,8|0,0:0|0:0,0:0:0
480,187,137482,6,0,B|439:95|481:1,1,180,4|4,0:0|0:0,0:0:0
344,40,138206,2,0,B|290:79|212:55,1,135,4|4,0:0|0:0,0:0:0
96,108,138723,1,4,0:0:0
223,178,138930,1,4,0:0:0
93,231,139137,6,0,B|136:222|186:250|204:301|184:364,1,180,4|8,0:0|0:0,0:0:0
349,266,139965,2,0,B|414:336,1,90
496,196,140378,2,0,B|420:257,1,90,8|2,0:0|0:0,0:0:0
283,97,140792,6,0,B|323:79|382:89|417:134|414:188,1,180,4|8,0:0|0:0,0:0:0
233,165,141620,1,0,0:0:0
321,182,141827,2,0,B|269:274,1,90,0|8,0:0|0:0,0:0:0
189,238,142240,1,2,0:0:0
177,87,142447,6,0,B|134:97|95:132|92:191|106:231,1,180,4|8,0:0|0:0,0:0:0
33,306,143068,2,0,B|69:282|126:283|172:313|182:364,1,180
256,308,143689,2,0,B|289:345|338:329,1,90,8|2,0:0|0:0,0:0:0
344,159,144103,6,0,B|317:246,2,90,4|0|8,0:0|0:0|0:0,0:0:0
293,48,144723,2,0,B|266:135,2,90
191,109,145344,1,8,0:0:0
191,109,145551,1,2,0:0:0
41,217,145758,6,0,B|62:182|112:160|166:163|207:205,1,180,4|8,0:0|0:0,0:0:0
373,150,146585,1,0,0:0:0
300,203,146792,2,0,B|321:290,2,90,0|8|2,0:0|0:0|0:0,0:0:0
407,67,147413,6,0,B|456:95|475:138|464:197|419:236,1,180,4|8,0:0|0:0,0:0:0
268,291,148240,2,0,B|188:347,1,90
143,267,148654,2,0,B|216:215,1,90,8|2,0:0|0:0,0:0:0
106,74,149068,5,4,0:0:0
164,142,149275,1,0,0:0:0
235,86,149482,2,0,B|249:116|284:135|323:134|356:111,2,135,8|0|0,0:0|0:0|0:0,0:0:0
308,33,150309,1,8,0:0:0
308,33,150516,1,2,0:0:0
427,153,150723,6,0,B|485:276,2,135,4|0|0,0:0|0:0|0:0,0:0:0
378,229,151551,2,0,B|375:334,1,90,0|0,0:0|0:0,0:0:0
296,363,151965,2,0,B|298:273,1,90,4|0,0:0|0:0,0:0:0
136,192,152378,6,0,B|164:169|219:156|272:171|306:207,1,180,4|8,0:0|0:0,0:0:0
256,28,153206,2,0,B|317:92,1,90
190,28,153620,2,0,B|129:92,1,90,8|2,0:0|0:0,0:0:0
217,253,154034,6,0,B|191:233|191:197|221:169|251:167|251:124|236:89|213:82,2,180,4|8|0,0:0|0:0|0:0,0:0:0
295,208,155068,1,0,0:0:0
384,211,155275,1,8,0:0:0
459,260,155482,1,2,0:0:0
467,40,155689,6,0,B|424:64|412:116|431:171|488:199,1,180,4|8,0:0|0:0,0:0:0
381,52,156309,2,0,B|202:100,1,180
67,36,156930,2,0,B|105:69|159:39,1,90,8|2,0:0|0:0,0:0:0
41,161,157344,5,4,0:0:0
41,251,157551,1,0,0:0:0
131,251,157758,2,0,B|240:250|240:250|240:286,2,135,8|0|0,0:0|0:0|0:0,0:0:0
131,160,158585,2,0,B|232:160,1,90,8|2,0:0|0:0,0:0:0
387,83,158999,6,0,B|348:106|326:159|351:212|386:241,1,180,4|8,0:0|0:0,0:0:0
427,159,159620,1,0,0:0:0
505,115,159827,2,0,B|506:225,1,90
438,265,160240,2,0,B|438:367,1,90,8|2,0:0|0:0,0:0:0
297,299,160654,6,0,B|269:332|219:351|157:334|130:292,1,180,4|8,0:0|0:0,0:0:0
138,200,161275,1,0,0:0:0
215,138,161482,2,0,B|214:244,2,90,0|0|8,0:0|0:0|0:0,0:0:0
305,138,162103,1,2,0:0:0
177,73,162309,6,0,B|208:47|256:30|319:47|351:81,1,180,4|8,0:0|0:0,0:0:0
344,251,162930,6,0,B|318:278|270:299|216:284|180:253,1,180,4|0,0:0|0:0,0:0:0
259,159,163551,5,8,0:0:0
259,159,163758,1,2,0:0:0
259,159,163965,1,4,0:0:0
256,192,164068,12,4,165620,0:0:0
