osu file format v10

[General]
AudioFilename: mp3.mp3
AudioLeadIn: 2000
PreviewTime: 85957
Countdown: 0
SampleSet: Soft
StackLeniency: 0.4
Mode: 0
LetterboxInBreaks: 1

[Editor]
Bookmarks: 95,6715,19957,33198,46439,59681,72922,86163,99405,112646,125888,139129,152370,165612
DistanceSpacing: 1.1
BeatDivisor: 4
GridSize: 16

[Metadata]
Title:Yuuga ni Sakase, Sumizome no Sakura ~ Border of Life
TitleUnicode:Yuuga ni Sakase, Sumizome no Sakura ~ Border of Life
Artist:Akiyama Uni
ArtistUnicode:Akiyama Uni
Creator:impossiblexu
Version:Hard
Source:Touhou
Tags:Hisouten Scarlet Weather Rhapsody Yuyuko Saigyouji Verdisphena ZUN
BeatmapID:105966
BeatmapSetID:32380

[Difficulty]
HPDrainRate:3
CircleSize:3
OverallDifficulty:4
ApproachRate:5
SliderMultiplier:1.4
SliderTickRate:2

[Events]
//Background and Video events
0,0,"BG.jpg"
//Break Periods
//Storyboard Layer 0 (Background)
//Storyboard Layer 1 (Fail)
//Storyboard Layer 2 (Pass)
//Storyboard Layer 3 (Foreground)
//Storyboard Sound Samples
//Background Colour Transformations
3,100,163,162,255

[TimingPoints]
103,413.793103448276,4,2,0,80,1,0
4861,-100,4,1,0,60,0,0
6620,-100,4,2,0,90,0,0
19447,-100,4,1,0,60,0,0
19861,-100,4,2,0,90,0,0
31758,-100,4,1,0,60,0,0
33103,-100,4,2,0,80,0,0
84206,-100,4,1,0,60,0,0
86068,-100,4,2,0,90,0,0
98896,-100,4,1,0,60,0,0
99309,-100,4,2,0,90,0,0
111312,-100,4,1,0,60,0,0
112554,-100,4,2,0,80,0,0

[Colours]
Combo1 : 22,228,5
Combo2 : 251,64,227
Combo3 : 255,255,255
Combo4 : 17,185,227
Combo5 : 146,36,255
SliderBorder : 0,0,0

[HitObjects]
162,47,103,2,0,P|214:17|274:37|283:99|343:110|396:71,1,245
272,181,1344,1,0,0:0:0
151,143,1758,2,0,P|121:193|141:253|203:262|214:322|180:368,1,245,0|0,0:3|0:0,0:3:0
28,324,2999,1,0,0:0:0
51,200,3413,6,0,P|51:51,1,140
177,59,4240,2,0,P|334:58,1,140
435,48,5068,2,0,P|500:80|434:101|434:101|501:126|431:150|431:150|505:175|434:190|434:190|505:216|429:240|429:240|431:248,1,350
434,243,6309,5,0,0:0:0
433,244,6516,1,4,0:0:0
432,249,6723,2,0,P|425:285|392:308|352:308|321:283,1,140,4|8,0:0|0:0,0:0:0
368,223,7344,2,2,P|350:202|300:195|261:218|253:255,1,140,2|2,0:0|0:0,0:0:0
183,242,7965,1,8,0:0:0
187,92,8378,6,0,P|39:92,1,140,0|8,0:0|0:0,0:0:0
48,162,8999,2,2,P|196:163,1,140,2|2,0:0|0:0,0:0:0
248,127,9620,1,8,0:0:0
367,53,10034,6,0,P|409:48|441:72|460:104|448:151,1,140,0|8,0:0|0:0,0:0:0
333,217,10861,2,0,P|366:240|370:280|360:316|318:343,1,140,0|4,0:0|0:0,0:0:0
192,303,11689,2,0,P|167:344|102:362|30:341|10:291,2,210,4|2|2,0:0|0:0|0:0,0:0:0
192,303,13137,5,2,0:0:0
192,303,13344,1,0,0:0:0
165,165,13758,1,8,0:0:0
165,165,13965,1,2,0:0:0
298,206,14378,1,2,0:0:0
298,206,14585,1,8,0:0:0
262,70,14999,2,0,P|280:46|305:37|340:47|351:68|359:88|394:101|433:92|460:59,1,210,0|2,0:0|0:0,0:0:0
388,193,16034,1,2,0:0:0
388,193,16240,1,8,0:0:0
445,320,16654,6,0,P|309:371,1,140,0|8,0:0|0:0,0:0:0
195,293,17482,2,0,P|39:305,1,140,0|4,0:0|0:0,0:0:0
36,159,18309,2,0,P|88:127|68:58,1,140,4|2,0:0|0:0,0:0:0
70,59,18930,2,2,P|227:50,1,140
215,52,19551,5,4,0:0:0
221,52,19758,1,0,0:0:0
227,55,19965,2,0,P|268:52|301:75|308:126|293:161,1,140,4|8,0:0|0:0,0:0:0
224,126,20585,2,2,P|189:157|188:199|204:243|238:275|309:278,1,210,2|8,0:0|0:0,0:0:0
419,217,21620,2,0,P|500:217,2,70,0|0|8,0:0|0:0|0:0,0:0:0
441,150,22240,2,2,P|374:144|334:82|384:23|452:33,1,210,2|8,0:0|0:0,0:0:0
307,35,23275,5,0,0:0:0
239,157,23689,1,8,0:0:0
133,65,24103,1,0,0:0:0
81,194,24516,1,4,0:0:0
188,284,24930,2,0,P|223:324|268:346|326:346|385:318,2,210,4|2|2,0:0|0:0|0:0,0:0:0
188,284,26378,5,2,0:0:0
188,284,26585,2,0,P|190:136,1,140,0|8,0:0|0:0,0:0:0
255,168,27206,2,2,P|256:95|256:95|305:28,1,140
359,70,27827,1,8,0:0:0
374,208,28240,2,0,P|416:176|476:191|514:226|518:282|504:317,2,210,0|2|8,0:0|0:0|0:0,0:0:0
267,299,29896,6,0,P|109:298,1,140,0|8,0:0|0:0,0:0:0
36,191,30723,2,0,P|176:191,1,140,0|4,0:0|0:0,0:0:0
295,117,31551,2,0,P|318:164|368:194|433:193|481:146,1,210,4|0,0:0|0:0,0:0:0
414,25,32585,2,0,P|398:84,4,35,0|0|0|0|4,0:0|0:0|0:0|0:0|0:0,0:0:0
344,33,33206,6,0,P|197:33,1,140,4|0,0:0|0:0,0:0:0
87,81,34034,2,0,P|88:235,1,140,0|8,0:0|0:0,0:0:0
177,309,34861,2,0,P|225:273|302:256|384:278|446:364,1,280
494,234,36103,1,8,0:0:0
449,116,36516,6,0,P|282:149,2,140
356,29,37758,1,8,0:0:0
228,36,38171,2,0,P|197:45|197:45|199:80|165:77|165:77|172:113|137:113|137:113|145:143|109:142|109:142|118:173|80:170|80:170|82:207|47:205|47:205|51:241|20:244,1,350,4|0,0:0|0:0,0:0:0
26,246,39413,5,4,0:0:0
27,250,39620,1,0,0:0:0
27,254,39827,2,0,P|154:337,1,140,4|0,0:0|0:0,0:0:0
219,229,40654,2,0,P|347:166,1,140,0|8,0:0|0:0,0:0:0
271,64,41482,2,0,P|253:121|182:172|77:163|24:93,1,280
140,35,42723,1,8,0:0:0
142,161,43137,6,0,P|143:306,1,140
259,253,43965,2,0,P|258:113,1,140,0|8,0:0|0:0,0:0:0
377,72,44792,2,0,P|424:59|424:59|413:82|454:70|454:70|441:95|477:82|477:82|468:108|503:96|503:96|510:153,2,210,4|0|4,0:0|0:0|0:0,0:0:0
377,72,46240,5,0,0:0:0
377,72,46447,1,4,0:0:0
323,186,46861,1,0,0:0:0
206,137,47275,2,0,P|201:171|169:204|124:198|89:181,1,140,0|8,0:0|0:0,0:0:0
50,301,48103,1,0,0:0:0
162,357,48516,1,0,0:0:0
253,270,48930,2,0,P|272:298|319:309|358:306|397:272,1,140,0|8,0:0|0:0,0:0:0
322,171,49758,6,0,P|307:125|248:85|187:91|142:109,2,210,0|0|8,0:0|0:0|0:0,0:0:0
387,63,51413,2,0,P|464:82|464:82|409:154|409:154|495:183|495:183|441:265,1,350,4|0,0:0|0:0,0:0:0
452,259,52654,5,4,0:0:0
454,263,52861,1,0,0:0:0
457,265,53068,2,0,P|302:264,1,140,4|0,0:0|0:0,0:0:0
216,188,53896,1,0,0:0:0
316,263,54309,1,8,0:0:0
216,188,54723,2,0,P|59:188,2,140
143,84,55965,1,8,0:0:0
260,127,56378,5,0,0:0:0
260,127,56585,1,0,0:0:0
260,127,56792,2,0,P|409:127,1,140
400,127,57413,2,0,P|400:277,1,140
400,267,58034,5,4,0:0:0
274,267,58447,1,4,0:0:0
147,267,58861,1,4,0:0:0
20,267,59275,1,0,0:0:0
81,156,59689,6,0,P|131:194|230:209|298:159|331:81,1,280,4|2,0:0|0:0,0:0:0
439,55,60930,1,0,0:0:0
372,161,61344,2,0,P|441:156|514:203|518:287|490:371,1,280,0|2,0:0|0:0,0:0:0
401,274,62585,1,0,0:0:0
288,330,62999,6,0,P|141:328,2,140,0|0|2,0:0|0:0|0:0,0:0:0
214,227,64240,1,0,0:0:0
214,227,64447,2,0,P|180:185|191:149|223:134|254:105|255:76|221:36,1,210
97,51,65482,1,2,0:0:0
46,166,65896,5,0,0:0:0
46,166,66103,1,0,0:0:0
46,166,66309,2,0,P|100:184|95:265,2,140,0|0|2,0:0|0:0|0:0,0:0:0
167,132,67551,1,0,0:0:0
167,132,67758,1,0,0:0:0
167,132,67965,2,0,P|187:81|264:95,2,140,0|0|2,0:0|0:0|0:0,0:0:0
262,214,69206,1,0,0:0:0
338,114,69620,6,0,P|450:240,2,140,0|0|2,0:0|0:0|0:0,0:0:0
234,41,70861,1,0,0:0:0
139,123,71275,2,0,P|42:147|43:270,2,210,4|0|4,0:0|0:0|0:0,0:0:0
139,123,72723,5,0,0:0:0
139,123,72930,2,0,P|287:122,2,140,4|0|2,0:0|0:0|0:0,0:0:0
211,226,74171,1,0,0:0:0
334,198,74585,2,0,P|335:341,2,140,0|0|2,0:0|0:0|0:0,0:0:0
419,105,75827,1,0,0:0:0
303,54,76240,6,0,P|264:99|182:80,1,140
190,88,76861,2,2,P|119:77|89:141,1,140
87,127,77482,1,0,0:0:0
168,225,77896,2,0,P|230:257|230:257|229:326|229:326|163:353,2,210,0|2|0,0:0|0:0|0:0,0:0:0
168,225,79344,5,0,0:0:0
168,225,79551,2,0,P|201:166|166:99,1,140
300,48,80378,2,0,P|264:91|298:162,1,140,2|0,0:0|0:0,0:0:0
295,160,80999,1,0,0:0:0
295,160,81206,2,0,P|335:212|292:267,2,140,0|0|2,0:0|0:0|0:0,0:0:0
410,110,82447,6,0,P|412:22,2,70,0|0|4,0:0|0:0|0:0,0:0:0
463,212,83275,1,0,0:0:0
463,212,83482,1,4,0:0:0
337,213,83896,1,0,0:0:0
337,213,84103,2,0,P|336:291,1,70,4|0,0:0|0:0,0:0:0
336,282,84516,6,0,P|280:314|213:273,1,140
217,281,85137,2,0,P|157:246|95:289,2,140,4|4|4,0:0|0:0|0:0,0:0:0
217,281,86171,5,4,0:0:0
315,180,86585,1,8,0:0:0
315,180,86792,2,2,P|271:139|289:65,1,140
342,115,87413,1,8,0:0:0
473,67,87827,1,0,0:0:0
448,199,88240,1,8,0:0:0
448,199,88447,2,2,P|391:214|366:289,1,140
438,272,89068,1,8,0:0:0
292,321,89482,6,0,P|225:304|146:321,1,140,0|8,0:0|0:0,0:0:0
156,317,90103,1,0,0:0:0
156,317,90309,2,0,P|181:251|149:181,1,140,0|4,0:0|0:0,0:0:0
158,189,90930,1,0,0:0:0
158,189,91137,2,0,P|219:213|277:182|279:111|206:74,1,210,4|0,0:0|0:0,0:0:0
361,31,92171,1,0,0:0:0
361,31,92378,2,0,P|435:54,1,70,2|0,0:0|0:0,0:0:0
428,52,92792,5,0,0:0:0
329,174,93206,1,8,0:0:0
322,98,93413,2,2,P|280:104|253:128|243:177|260:210,1,140
315,250,94034,2,0,P|267:310,1,70,8|0,0:0|0:0,0:0:0
200,337,94447,1,0,0:0:0
70,253,94861,1,8,0:0:0
143,228,95068,2,2,P|112:201|95:160|113:114|154:92,1,140
187,162,95689,1,8,0:0:0
301,58,96103,6,0,P|430:124,1,140,0|8,0:0|0:0,0:0:0
288,192,96930,2,0,P|159:258,1,140,0|4,0:0|0:0,0:0:0
306,313,97758,1,4,0:0:0
456,283,98171,2,2,P|395:274|355:217|368:143|417:116,1,210
407,120,98999,5,0,0:0:0
409,116,99206,1,4,0:0:0
408,112,99413,2,0,P|249:112,1,140,4|8,0:0|0:0,0:0:0
228,45,100034,2,2,P|137:81|165:187,1,210,2|8,0:0|0:0,0:0:0
238,303,101068,2,0,P|272:323|266:369,2,70,0|0|8,0:0|0:0|0:0,0:0:0
276,235,101689,2,2,P|428:234,1,140
418,157,102309,1,8,0:0:0
309,48,102723,6,0,P|251:76|181:46,1,140,0|8,0:0|0:0,0:0:0
165,202,103551,2,0,P|98:175|40:203,1,140,0|4,0:0|0:0,0:0:0
111,340,104378,2,0,P|257:341,1,140,4|0,0:0|0:0,0:0:0
234,265,104999,2,2,P|456:264,1,210,6|2,0:0|0:0,0:0:0
443,264,105827,5,0,0:0:0
443,264,106034,1,4,0:0:0
446,110,106447,1,8,0:0:0
443,187,106654,2,2,P|226:188,1,210,2|8,0:0|0:0,0:0:0
85,122,107689,2,0,P|85:276,1,140,0|8,0:0|0:0,0:0:0
162,263,108309,2,2,P|162:123,1,140
239,122,108930,1,8,0:0:0
374,48,109344,6,0,P|443:69|455:152,1,140,4|8,0:0|0:0,0:0:0
398,171,109965,1,0,0:0:0
431,239,110171,2,0,P|420:315|341:312,1,140,4|8,0:0|0:0,0:0:0
302,284,110792,1,0,0:0:0
239,329,110999,2,0,P|185:300|160:345|100:320,2,140,4|0|0,0:0|0:0|0:0,0:0:0
239,329,112034,6,0,P|221:243,1,70
224,260,112447,1,4,0:0:0
224,260,112654,2,0,P|264:195|221:139,1,140,4|0,0:0|0:0,0:0:0
116,188,113482,1,0,0:0:0
127,62,113896,1,8,0:0:0
252,56,114309,2,0,P|303:24|391:54,2,140
331,154,115551,1,8,0:0:0
220,213,115965,6,0,P|214:304|100:329,2,210,0|0|8,0:0|0:0|0:0,0:0:0
220,213,117413,1,0,0:0:0
220,213,117620,2,0,P|359:169,2,140,4|0|0,0:0|0:0|0:0,0:0:0
255,92,118861,1,4,0:0:0
143,33,119275,6,0,P|87:62|85:137,1,140,4|0,0:0|0:0,0:0:0
91,258,120103,1,0,0:0:0
195,328,120516,1,8,0:0:0
316,295,120930,2,0,P|461:294,2,140
319,168,122171,1,8,0:0:0
218,91,122585,6,0,P|206:118|171:142|134:147|89:138,2,140
331,35,123827,2,0,P|414:36,1,70,8|0,0:0|0:0,0:0:0
400,35,124240,2,0,P|457:62|486:100|498:154|493:212|476:249|445:287,1,280,4|0,0:0|0:0,0:0:0
454,274,125275,6,0,P|359:284,1,70,0|4,0:0|0:0,0:0:0
384,281,125689,2,0,P|309:289,1,70,0|4,0:0|0:0,0:0:0
199,239,126309,1,0,0:0:0
315,191,126723,1,0,0:0:0
189,175,127137,1,8,0:0:0
278,85,127551,2,0,P|338:110|400:78,2,140
158,44,128792,1,8,0:0:0
51,110,129206,5,0,0:0:0
94,228,129620,2,0,P|174:224|247:322,1,210
246,322,130447,5,8,0:0:0
247,326,130654,1,0,0:0:0
248,332,130861,2,0,P|335:333,1,70,4|0,0:0|0:0,0:0:0
353,279,131275,2,0,P|491:279|491:279|491:187,1,210
489,203,132103,5,4,0:0:0
489,199,132309,1,0,0:0:0
489,195,132516,2,0,P|423:168|399:85,1,140,4|0,0:0|0:0,0:0:0
281,58,133344,2,0,P|214:26|150:60,1,140,0|8,0:0|0:0,0:0:0
59,129,134171,1,0,0:0:0
143,222,134585,1,0,0:0:0
44,300,134999,1,0,0:0:0
143,222,135413,1,8,0:0:0
243,146,135827,6,0,P|372:199|372:199|507:144,1,280
374,111,137068,1,8,0:0:0
374,111,137275,1,0,0:0:0
374,111,137482,2,0,P|375:35,3,70,4|0|0|0,0:0|0:0|0:0|0:0,0:0:0
311,39,138309,2,0,P|168:39,1,140,0|4,0:0|0:0,0:0:0
171,39,138930,5,0,0:0:0
171,39,139137,2,0,P|146:42|110:67|104:111|123:156,1,140,4|0,0:0|0:0,0:0:0
243,121,139965,1,2,0:0:0
181,230,140378,1,0,0:0:0
274,315,140792,2,0,P|433:315,2,140,0|0|2,0:0|0:0|0:0,0:0:0
339,206,142034,1,0,0:0:0
463,186,142447,6,0,P|444:111|363:70|280:80|230:153,1,280,0|2,0:0|0:0,0:0:0
169,35,143689,2,0,P|85:39|48:103|54:197|146:233,1,280
256,276,144930,2,0,P|256:354,1,70,2|0,0:0|0:0,0:0:0
256,346,145344,2,0,P|341:347,1,70
325,346,145758,5,0,0:0:0
409,252,146171,2,0,P|449:196|381:181|412:115,1,140,0|2,0:0|0:0,0:0:0
293,70,146999,2,0,P|264:59|254:19,2,70
169,96,147827,2,0,P|156:153|87:132|75:206,1,140,0|2,0:0|0:0,0:0:0
90,320,148654,1,0,0:0:0
211,287,149068,6,0,P|255:336|341:356|410:350|482:302,1,280,0|2,0:0|0:0,0:0:0
339,269,150309,1,0,0:0:0
442,187,150723,2,0,P|340:204|236:146,2,210,4|2|4,0:0|0:0|0:0,0:0:0
352,98,152378,5,4,0:0:0
229,66,152792,2,0,P|74:97,1,140,0|2,0:0|0:0,0:0:0
34,206,153620,2,0,P|47:279,2,70
151,251,154447,2,0,P|175:188|256:153|355:186|376:263,1,280
422,138,155689,6,0,P|489:181|503:257|470:343,2,210,0|2|0,0:0|0:0|0:0,0:0:0
422,138,157137,5,0,0:0:0
422,138,157344,2,0,P|279:159,1,140
157,152,158171,2,0,P|280:81,1,140,2|0,0:0|0:0,0:0:0
226,202,158999,5,0,0:0:0
138,292,159413,2,0,P|165:321|202:334|249:331|278:310,1,140,0|2,0:0|0:0,0:0:0
375,253,160240,1,0,0:0:0
375,253,160447,1,0,0:0:0
375,253,160654,1,0,0:0:0
284,164,161068,2,0,P|251:100|331:96|306:25,1,140,0|2,0:0|0:0,0:0:0
182,37,161896,1,0,0:0:0
90,122,162309,6,0,P|129:134|162:166|166:210|157:261|121:293|89:294,1,210,4|4,0:0|0:0,0:0:0
224,340,163344,1,0,0:0:0
224,340,163551,2,0,P|313:319,1,70,4|0,0:0|0:0,0:0:0
256,192,163965,12,4,165620,0:0:0
