osu file format v13

[General]
AudioFilename: The Grimoire of Alice.mp3
AudioLeadIn: 0
PreviewTime: 0
Countdown: 0
SampleSet: Normal
StackLeniency: 0.3
Mode: 0
LetterboxInBreaks: 0
WidescreenStoryboard: 1

[Editor]
DistanceSpacing: 0.8
BeatDivisor: 4
GridSize: 8
TimelineZoom: 1.4

[Metadata]
Title:The Grimoire of Alice
TitleUnicode:The Grimoire of Alice
Artist:Akiyama Uni
ArtistUnicode:あきやまうに
Creator:Hollow Wings
Version:Lunatic
Source:Touhou
Tags:th12.3 fxtz Tasofro Twilight Frontier 黄昏フロンティア zun u2 hisoutensoku アリス·マーガトロイド Alice Margatroid
BeatmapID:344620
BeatmapSetID:123839

[Difficulty]
HPDrainRate:6
CircleSize:3
OverallDifficulty:7
ApproachRate:9
SliderMultiplier:1.8
SliderTickRate:1

[Events]
//Background and Video events
0,0,"The Grimoire of Alice.jpg",0,0
//Break Periods
2,88952,94490
2,176839,182377
//Storyboard Layer 0 (Background)
//Storyboard Layer 1 (Fail)
//Storyboard Layer 2 (Pass)
//Storyboard Layer 3 (Foreground)
//Storyboard Sound Samples
//Background Colour Transformations
3,100,163,162,255

[TimingPoints]
-825,422.535211267606,4,1,1,60,1,0
20,-100,4,1,1,60,0,1
653,-100,4,1,1,60,0,0
865,-100,4,1,1,60,0,1
6991,-100,4,1,1,60,0,0
7203,-100,4,1,1,70,0,1
7414,-100,4,1,1,70,0,0
7625,-100,4,1,1,60,0,1
7836,-100,4,1,1,60,0,0
21146,-66.6666666666667,4,1,1,65,0,0
34667,-100,4,1,1,60,0,0
47766,-100,4,1,1,60,0,1
47977,-100,4,1,1,60,0,0
48189,-66.6666666666667,4,1,1,60,0,1
48400,-66.6666666666667,4,1,1,60,0,0
61710,-66.6666666666667,4,1,1,60,0,1
61921,-66.6666666666667,4,1,1,60,0,0
75231,-100,4,1,1,40,0,0
80301,-100,4,1,1,45,0,0
81991,-100,4,1,1,50,0,0
83682,-100,4,1,1,55,0,0
85372,-100,4,1,1,60,0,0
87062,-100,4,1,1,70,0,0
87907,-100,4,1,1,90,0,0
88752,-100,4,1,1,100,0,0
95090,-100,4,1,1,70,0,1
95301,-100,4,1,1,70,0,0
95513,-100,4,1,1,60,0,1
95724,-100,4,1,1,60,0,0
109034,-66.6666666666667,4,1,1,65,0,0
122555,-100,4,1,1,60,0,0
135653,-100,4,1,1,60,0,1
135865,-100,4,1,1,60,0,0
136076,-66.6666666666667,4,1,1,60,0,1
136287,-66.6666666666667,4,1,1,60,0,0
149597,-66.6666666666667,4,1,1,60,0,1
149808,-66.6666666666667,4,1,1,60,0,0
163118,-100,4,1,1,40,0,0
168189,-100,4,1,1,45,0,0
169879,-100,4,1,1,50,0,0
171569,-100,4,1,1,55,0,0
173259,-100,4,1,1,60,0,0
174949,-100,4,1,1,70,0,0
175794,-100,4,1,1,90,0,0
176639,-100,4,1,1,100,0,0
182977,-100,4,1,1,70,0,1
183189,-100,4,1,1,70,0,0
183400,-100,4,1,1,60,0,1
183611,-100,4,1,1,60,0,0

[Colours]
Combo1 : 255,30,221
Combo2 : 255,30,30
Combo3 : 242,115,0
Combo4 : 255,255,15
Combo5 : 108,255,38
Combo6 : 36,146,255
Combo7 : 40,72,255
Combo8 : 131,30,255

[HitObjects]
279,214,20,118,0,L|320:196,1,45,2|0,0:0|0:0,0:0:0:0:
421,154,231,2,0,L|462:136,1,45,0|0,0:0|0:0,0:0:0:0:
125,123,442,2,0,L|166:105,1,45,2|0,0:0|0:0,0:0:0:0:
265,61,653,2,0,L|306:43,1,45,0|0,0:0|0:0,0:0:0:0:
433,308,865,5,6,0:0:0:0:
433,308,1182,1,0,0:0:0:0:
384,194,1287,1,10,0:0:0:0:
279,339,1498,6,0,B|193:359|193:359|151:337,1,135
384,194,2132,2,0,L|294:190,1,90,10|0,0:0|0:0,0:0:0:0:
117,185,2555,5,2,0:0:0:0:
117,185,2872,1,0,0:0:0:0:
204,274,2977,1,10,0:0:0:0:
282,112,3188,6,0,B|240:34|240:34|180:9,1,135
103,273,3822,2,0,L|117:184,1,90,10|0,0:0|0:0,0:0:0:0:
40,348,4245,5,2,0:0:0:0:
40,348,4562,1,0,0:0:0:0:
174,344,4667,1,10,0:0:0:0:
38,175,4879,6,0,B|79:187|79:187|183:173,1,135
368,321,5513,2,0,L|483:306,1,90,10|0,0:0|0:0,0:0:0:0:
472,248,5829,1,0,0:0:0:0:
453,188,5935,6,0,L|361:173,1,90,10|8,0:0|0:0,0:0:0:0:
226,370,6358,1,10,0:0:0:0:
102,347,6463,1,0,0:0:0:0:
92,321,6675,5,8,0:0:0:0:
38,175,6886,101,0,0:0:0:0:
82,293,6991,1,8,0:0:0:0:
212,168,7203,6,0,L|219:123,1,45,10|0,0:0|0:0,0:0:0:0:
324,95,7414,2,0,L|316:139,1,45
143,61,7625,5,6,0:0:0:0:
185,300,7942,1,0,0:0:0:0:
164,178,8048,1,10,0:0:0:0:
164,178,8259,6,0,L|193:355,1,180
250,161,8893,1,10,0:0:0:0:
113,373,9104,2,0,L|105:322,1,45
82,195,9315,5,2,0:0:0:0:
457,247,9632,1,0,0:0:0:0:
332,228,9738,1,10,0:0:0:0:
332,228,9949,6,0,B|304:241|304:241|221:223,1,90,0|2,0:0|0:0,0:0:0:0:
187,208,10266,1,0,0:0:0:0:
127,184,10372,2,0,L|104:93,1,90,0|10,0:0|0:0,0:0:0:0:
28,240,10794,2,0,L|12:188,1,45
239,108,11005,5,2,0:0:0:0:
28,240,11322,1,0,0:0:0:0:
157,196,11428,1,10,0:0:0:0:
330,342,11639,6,0,B|342:373|342:373|386:276|386:276|374:229,1,180
240,357,12273,1,10,0:0:0:0:
416,366,12484,1,0,0:0:0:0:
330,342,12590,1,0,0:0:0:0:
270,272,12696,6,0,L|252:169,1,90,2|0,0:0|0:0,0:0:0:0:
169,156,13013,1,0,0:0:0:0:
181,244,13118,2,0,L|73:239,2,90,10|0|2,0:0|0:0|0:0,0:0:0:0:
101,330,13646,2,0,L|35:328,1,45,8|0,0:0|0:0,0:0:0:0:
82,77,13963,6,0,L|16:75,1,45,10|0,0:0|0:0,0:0:0:0:
247,134,14175,2,0,L|291:135,1,45,0|0,0:0|0:0,0:0:0:0:
436,198,14386,5,2,0:0:0:0:
184,302,14703,1,0,0:0:0:0:
310,250,14809,1,10,0:0:0:0:
74,338,15020,6,0,B|41:204|41:204|78:150,1,180
157,303,15653,1,10,0:0:0:0:
188,143,15865,2,0,L|217:105,1,45
310,250,16076,5,2,0:0:0:0:
91,254,16393,1,0,0:0:0:0:
236,277,16499,1,10,0:0:0:0:
27,124,16710,6,0,B|8:178|8:178|30:202,1,90,0|2,0:0|0:0,0:0:0:0:
101,85,17027,2,0,B|122:106|122:106|99:167,1,90
159,231,17344,2,0,L|141:272,1,45,10|0,0:0|0:0,0:0:0:0:
101,352,17555,1,0,0:0:0:0:
316,363,17766,5,2,0:0:0:0:
289,56,18083,1,0,0:0:0:0:
335,174,18189,1,10,0:0:0:0:
456,18,18400,6,0,L|398:105,1,90,0|2,0:0|0:0,0:0:0:0:
343,105,18717,1,0,0:0:0:0:
283,125,18822,2,0,B|213:141|213:141|179:129,1,90,0|10,0:0|0:0,0:0:0:0:
66,68,19245,2,0,L|93:111,1,45
124,218,19456,6,0,L|100:358,1,135,2|0,0:0|0:0,0:0:0:0:
242,275,19879,2,0,B|312:259|312:259|354:282,1,90,10|0,0:0|0:0,0:0:0:0:
377,309,20196,5,0,0:0:0:0:
333,173,20301,1,10,0:0:0:0:
405,117,20513,101,0,0:0:0:0:
384,249,20618,1,8,0:0:0:0:
250,193,20830,5,0,0:0:0:0:
200,68,20936,1,8,0:0:0:0:
204,318,21146,5,6,0:0:0:0:
204,318,21463,1,0,0:0:0:0:
117,213,21569,2,0,L|250:193,1,135.000005149842,10|0,0:0|0:0,0:0:0:0:
447,337,21991,5,2,0:0:0:0:
214,262,22203,1,0,0:0:0:0:
457,262,22414,1,10,0:0:0:0:
226,183,22625,2,0,L|143:159,1,67.5000025749208
70,134,22836,5,2,0:0:0:0:
70,134,23153,1,0,0:0:0:0:
161,34,23259,1,10,0:0:0:0:
75,262,23470,1,0,0:0:0:0:
342,99,23682,6,0,L|425:62,2,67.5000025749208,2|0|0,0:0|0:0|0:0,0:0:0:0:
167,170,24104,1,10,0:0:0:0:
362,322,24315,2,0,L|425:368,1,67.5000025749208
367,236,24526,5,2,0:0:0:0:
367,236,24844,1,0,0:0:0:0:
233,247,24949,1,10,0:0:0:0:
406,77,25160,1,0,0:0:0:0:
468,310,25372,5,2,0:0:0:0:
315,123,25583,1,0,0:0:0:0:
377,356,25795,1,10,0:0:0:0:
180,138,26005,2,0,L|164:205,1,67.5000025749208
144,287,26217,5,2,0:0:0:0:
144,287,26534,1,0,0:0:0:0:
14,322,26639,1,10,0:0:0:0:
39,39,26850,1,0,0:0:0:0:
144,287,27062,6,0,L|224:330,1,67.5000025749208,2|8,0:0|0:0,0:0:0:0:
285,368,27273,1,0,0:0:0:0:
479,181,27484,2,0,L|401:228,1,67.5000025749208,10|0,0:0|0:0,0:0:0:0:
283,198,27696,2,0,L|340:162,1,67.5000025749208,0|0,0:0|0:0,0:0:0:0:
400,314,27907,5,2,0:0:0:0:
400,314,28224,1,0,0:0:0:0:
267,295,28329,1,10,0:0:0:0:
367,72,28541,1,0,0:0:0:0:
400,314,28752,5,2,0:0:0:0:
174,222,28963,1,0,0:0:0:0:
400,314,29175,1,10,0:0:0:0:
101,322,29386,2,0,L|83:238,1,67.5000025749208
68,162,29597,5,2,0:0:0:0:
68,162,29914,1,0,0:0:0:0:
120,37,30020,1,10,0:0:0:0:
310,187,30231,1,0,0:0:0:0:
120,37,30442,5,2,0:0:0:0:
203,267,30654,1,0,0:0:0:0:
420,107,30865,2,0,L|337:106,1,67.5000025749208,10|0,0:0|0:0,0:0:0:0:
258,110,31076,1,0,0:0:0:0:
482,24,31287,5,2,0:0:0:0:
179,224,31604,1,0,0:0:0:0:
310,187,31710,1,10,0:0:0:0:
66,168,31921,1,0,0:0:0:0:
286,326,32132,6,0,L|376:311,1,67.5000025749208,2|0,0:0|0:0,0:0:0:0:
448,301,32344,1,0,0:0:0:0:
350,257,32555,2,0,L|437:269,1,67.5000025749208,10|0,0:0|0:0,0:0:0:0:
144,184,32766,2,0,L|77:193,1,67.5000025749208
229,264,32978,6,0,B|289:271|289:271|425:351,1,202.500007724762,2|0,0:0|0:0,0:0:0:0:
248,349,33400,2,0,B|147:339|147:339|108:371,1,135.000005149842,10|0,0:0|0:0,0:0:0:0:
108,315,33717,5,0,0:0:0:0:
144,184,33823,1,10,0:0:0:0:
158,278,34034,101,0,0:0:0:0:
138,144,34139,1,8,0:0:0:0:
43,238,34351,5,0,0:0:0:0:
60,103,34457,1,8,0:0:0:0:
388,70,34667,6,0,B|368:51|368:51|216:47,1,180,6|2,0:0|0:0,0:0:0:0:
391,291,35513,2,0,B|374:267|374:267|265:244|265:244|241:194,1,180,2|2,2:0|0:0,0:0:0:0:
255,345,36146,1,0,0:0:0:0:
255,345,36780,5,10,0:0:0:0:
323,79,37203,2,0,L|301:27,1,45
395,241,37414,1,0,0:0:0:0:
357,158,37625,1,10,0:0:0:0:
430,324,37836,1,0,0:0:0:0:
67,288,38048,6,0,B|90:246|90:246|254:232,1,180,6|2,0:0|0:0,0:0:0:0:
30,182,38893,2,0,B|77:47|77:47|124:44,1,180,2|2,2:0|0:0,0:0:0:0:
165,141,39526,1,0,0:0:0:0:
259,337,39949,6,0,L|142:349,1,90,0|10,0:0|0:0,0:0:0:0:
37,165,40583,2,0,L|89:169,1,45,2|0,0:0|0:0,0:0:0:0:
261,178,40794,1,0,0:0:0:0:
146,230,41005,1,10,0:0:0:0:
297,56,41216,1,0,0:0:0:0:
433,178,41428,6,0,L|472:371,1,180,6|2,0:0|0:0,0:0:0:0:
256,113,42273,2,0,B|298:129|298:129|326:269,1,180,2|2,2:0|0:0,0:0:0:0:
352,367,42906,1,0,0:0:0:0:
159,366,43541,5,10,0:0:0:0:
428,252,43963,2,0,L|481:277,1,45
306,202,44174,1,0,0:0:0:0:
82,245,44385,1,10,0:0:0:0:
255,296,44596,1,0,0:0:0:0:
200,125,44808,6,0,B|63:148|63:148|119:163,1,180,6|2,0:0|0:0,0:0:0:0:
341,74,45653,2,0,B|303:80|303:80|460:128,1,180,2|2,2:0|0:0,0:0:0:0:
324,174,46286,1,0,0:0:0:0:
72,214,46710,6,0,L|100:121,1,90,0|10,0:0|0:0,0:0:0:0:
385,294,47344,2,0,L|359:236,1,45,6|0,0:0|0:0,0:0:0:0:
324,174,47554,1,0,0:0:0:0:
162,190,47766,2,0,L|185:146,1,45,2|0,0:0|0:0,0:0:0:0:
93,318,47977,2,0,L|116:276,1,45
228,59,48189,5,6,0:0:0:0:
8,209,48400,2,0,L|82:160,1,67.5000025749208,0|0,0:0|0:0,0:0:0:0:
162,190,48611,2,0,L|234:144,1,67.5000025749208,10|0,0:0|0:0,0:0:0:0:
228,59,48822,2,0,L|304:11,1,67.5000025749208,0|0,0:0|0:0,0:0:0:0:
381,65,49034,1,2,0:0:0:0:
112,58,49245,1,0,0:0:0:0:
381,65,49456,1,10,0:0:0:0:
228,60,49667,5,0,0:0:0:0:
381,65,49773,1,0,0:0:0:0:
381,65,49984,5,0,0:0:0:0:
381,65,50090,2,0,L|399:130,1,67.5000025749208,0|0,0:0|0:0,0:0:0:0:
283,183,50301,2,0,L|301:248,1,67.5000025749208,10|0,0:0|0:0,0:0:0:0:
438,256,50513,2,0,L|458:328,1,67.5000025749208,0|0,0:0|0:0,0:0:0:0:
346,382,50724,1,2,0:0:0:0:
283,183,50935,1,0,0:0:0:0:
82,243,51146,1,10,0:0:0:0:
199,283,51358,5,0,0:0:0:0:
64,332,51464,1,0,0:0:0:0:
64,332,51675,5,0,0:0:0:0:
64,332,51781,2,0,L|43:251,1,67.5000025749208,0|0,0:0|0:0,0:0:0:0:
283,183,51991,2,0,L|262:102,1,67.5000025749208,10|0,0:0|0:0,0:0:0:0:
64,165,52203,2,0,L|43:84,1,67.5000025749208,0|0,0:0|0:0,0:0:0:0:
280,23,52415,1,2,0:0:0:0:
178,172,52626,1,0,0:0:0:0:
186,345,52837,1,10,0:0:0:0:
358,352,53049,5,0,0:0:0:0:
415,224,53153,1,0,0:0:0:0:
415,224,53365,5,0,0:0:0:0:
415,224,53471,2,0,L|358:174,1,67.5000025749208,0|0,0:0|0:0,0:0:0:0:
224,263,53682,2,0,L|167:213,1,67.5000025749208,10|0,0:0|0:0,0:0:0:0:
204,57,53894,2,0,L|147:7,1,67.5000025749208,0|0,0:0|0:0,0:0:0:0:
22,103,54104,1,10,0:0:0:0:
191,141,54315,5,0,0:0:0:0:
56,131,54421,1,8,0:0:0:0:
364,181,54632,1,0,0:0:0:0:
229,171,54738,2,0,L|143:161,1,67.5000025749208,8|0,0:0|0:0,0:0:0:0:
55,230,54949,6,0,L|123:197,1,67.5000025749208,2|0,0:0|0:0,0:0:0:0:
56,131,55160,2,0,L|116:101,1,67.5000025749208,0|0,0:0|0:0,0:0:0:0:
225,263,55372,2,0,L|285:233,1,67.5000025749208,10|0,0:0|0:0,0:0:0:0:
229,171,55583,2,0,L|289:141,1,67.5000025749208,0|0,0:0|0:0,0:0:0:0:
414,67,55794,2,0,L|474:37,1,67.5000025749208,2|0,0:0|0:0,0:0:0:0:
410,159,56005,2,0,L|470:129,1,67.5000025749208,0|0,0:0|0:0,0:0:0:0:
281,17,56217,1,10,0:0:0:0:
221,326,56428,5,0,0:0:0:0:
275,199,56534,1,0,0:0:0:0:
275,199,56745,5,0,0:0:0:0:
275,199,56851,2,0,L|300:261,1,67.5000025749208,0|0,0:0|0:0,0:0:0:0:
398,254,57062,2,0,L|423:316,1,67.5000025749208,10|0,0:0|0:0,0:0:0:0:
145,152,57273,2,0,L|173:221,1,67.5000025749208
221,326,57484,1,2,0:0:0:0:
33,104,57696,1,0,0:0:0:0:
409,139,57907,1,10,0:0:0:0:
58,354,58118,5,0,0:0:0:0:
170,266,58224,1,0,0:0:0:0:
170,266,58435,5,0,0:0:0:0:
170,266,58541,2,0,L|95:250,1,67.5000025749208,0|0,0:0|0:0,0:0:0:0:
166,146,58752,2,0,L|91:130,1,67.5000025749208,10|0,0:0|0:0,0:0:0:0:
170,31,58963,2,0,L|95:15,1,67.5000025749208,0|0,0:0|0:0,0:0:0:0:
284,11,59175,1,2,0:0:0:0:
368,281,59386,1,0,0:0:0:0:
88,222,59597,1,10,0:0:0:0:
419,200,59808,5,0,0:0:0:0:
333,338,59914,1,0,0:0:0:0:
333,338,60125,5,0,0:0:0:0:
333,338,60231,2,0,L|372:273,1,67.5000025749208,0|0,0:0|0:0,0:0:0:0:
224,242,60442,2,0,L|263:177,1,67.5000025749208,10|0,0:0|0:0,0:0:0:0:
88,222,60653,2,0,L|127:157,1,67.5000025749208,0|0,0:0|0:0,0:0:0:0:
259,184,60865,6,0,L|202:53,1,135.000005149842,10|0,0:0|0:0,0:0:0:0:
70,40,61182,2,0,L|126:170,1,135.000005149842,8|0,0:0|0:0,0:0:0:0:
205,60,61498,1,8,0:0:0:0:
205,60,61710,5,6,0:0:0:0:
428,296,61921,2,0,L|354:247,1,67.5000025749208,0|0,0:0|0:0,0:0:0:0:
259,184,62132,2,0,L|187:138,1,67.5000025749208,10|0,0:0|0:0,0:0:0:0:
89,72,62343,2,0,L|13:24,1,67.5000025749208,0|0,0:0|0:0,0:0:0:0:
84,202,62555,1,2,0:0:0:0:
381,119,62766,1,0,0:0:0:0:
154,318,62977,1,10,0:0:0:0:
451,235,63188,5,0,0:0:0:0:
342,260,63294,1,0,0:0:0:0:
342,260,63505,5,0,0:0:0:0:
342,260,63611,2,0,L|324:325,1,67.5000025749208,0|0,0:0|0:0,0:0:0:0:
236,285,63822,2,0,L|218:350,1,67.5000025749208,10|0,0:0|0:0,0:0:0:0:
451,236,64034,2,0,L|431:308,1,67.5000025749208,0|0,0:0|0:0,0:0:0:0:
259,184,64245,1,2,0:0:0:0:
419,344,64456,1,0,0:0:0:0:
381,119,64667,1,10,0:0:0:0:
198,166,64879,5,0,0:0:0:0:
318,147,64985,1,0,0:0:0:0:
318,147,65196,5,0,0:0:0:0:
318,147,65302,2,0,L|336:81,1,67.5000025749208,0|0,0:0|0:0,0:0:0:0:
95,80,65512,2,0,L|116:-1,1,67.5000025749208,10|0,0:0|0:0,0:0:0:0:
222,74,65724,2,0,L|243:-7,1,67.5000025749208,0|0,0:0|0:0,0:0:0:0:
170,254,65936,1,2,0:0:0:0:
435,196,66147,1,0,0:0:0:0:
212,348,66358,1,10,0:0:0:0:
82,174,66570,5,0,0:0:0:0:
210,159,66676,1,0,0:0:0:0:
210,159,66886,5,0,0:0:0:0:
210,159,66992,2,0,L|267:109,1,67.5000025749208,0|0,0:0|0:0,0:0:0:0:
257,279,67203,2,0,L|314:229,1,67.5000025749208,10|0,0:0|0:0,0:0:0:0:
403,137,67415,2,0,L|460:87,1,67.5000025749208,0|0,0:0|0:0,0:0:0:0:
468,252,67625,1,10,0:0:0:0:
293,273,67836,5,0,0:0:0:0:
427,258,67942,1,8,0:0:0:0:
25,307,68153,1,0,0:0:0:0:
154,290,68259,2,0,L|240:280,1,67.5000025749208,8|0,0:0|0:0,0:0:0:0:
429,358,68470,6,0,L|361:325,1,67.5000025749208,2|0,0:0|0:0,0:0:0:0:
427,258,68681,2,0,L|367:228,1,67.5000025749208,0|0,0:0|0:0,0:0:0:0:
265,162,68893,2,0,L|205:132,1,67.5000025749208,10|0,0:0|0:0,0:0:0:0:
258,256,69104,2,0,L|198:226,1,67.5000025749208,0|0,0:0|0:0,0:0:0:0:
85,337,69315,2,0,L|25:307,1,67.5000025749208,2|0,0:0|0:0,0:0:0:0:
93,245,69526,2,0,L|33:215,1,67.5000025749208,0|0,0:0|0:0,0:0:0:0:
47,120,69738,1,10,0:0:0:0:
285,195,69949,5,0,0:0:0:0:
139,238,70055,1,0,0:0:0:0:
139,238,70266,5,0,0:0:0:0:
139,238,70372,2,0,L|113:300,1,67.5000025749208,0|0,0:0|0:0,0:0:0:0:
285,195,70583,2,0,L|259:257,1,67.5000025749208,10|0,0:0|0:0,0:0:0:0:
429,144,70794,2,0,L|401:213,1,67.5000025749208
364,296,71005,1,2,0:0:0:0:
469,47,71217,1,0,0:0:0:0:
186,119,71428,1,10,0:0:0:0:
172,362,71639,5,0,0:0:0:0:
61,224,71745,1,0,0:0:0:0:
61,224,71956,5,0,0:0:0:0:
61,224,72062,2,0,L|135:241,1,67.5000025749208,0|0,0:0|0:0,0:0:0:0:
251,184,72273,2,0,L|325:201,1,67.5000025749208,10|0,0:0|0:0,0:0:0:0:
440,126,72484,2,0,L|514:143,1,67.5000025749208,0|0,0:0|0:0,0:0:0:0:
251,184,72696,1,2,0:0:0:0:
47,47,72907,1,0,0:0:0:0:
163,261,73118,1,10,0:0:0:0:
206,106,73329,5,0,0:0:0:0:
163,261,73435,1,0,0:0:0:0:
163,261,73646,5,0,0:0:0:0:
163,261,73752,2,0,L|124:196,1,67.5000025749208,0|0,0:0|0:0,0:0:0:0:
380,156,73963,2,0,L|341:91,1,67.5000025749208,10|0,0:0|0:0,0:0:0:0:
56,262,74175,2,0,L|17:197,1,67.5000025749208,0|0,0:0|0:0,0:0:0:0:
273,157,74386,6,0,L|234:92,1,67.5000025749208,2|0,0:0|0:0,0:0:0:0:
163,158,74597,2,0,L|124:93,1,67.5000025749208,0|8,0:0|0:0,0:0:0:0:
426,287,74808,2,0,L|387:352,1,67.5000025749208,0|0,0:0|0:0,0:0:0:0:
316,286,75019,2,0,L|277:351,1,67.5000025749208,0|0,0:0|0:0,0:0:0:0:
56,262,75231,5,6,0:0:0:0:
195,127,75442,2,0,L|163:158,1,45
80,24,75759,1,0,0:0:0:0:
116,24,75865,1,0,0:0:0:0:
150,35,75970,1,0,0:0:0:0:
177,60,76076,1,2,0:0:0:0:
192,92,76182,1,0,0:0:0:0:
196,127,76287,1,0,0:0:0:0:
187,162,76393,1,0,0:0:0:0:
168,192,76498,1,0,0:0:0:0:
164,227,76604,1,0,0:0:0:0:
175,261,76710,1,0,0:0:0:0:
200,286,76815,1,0,0:0:0:0:
234,296,76921,5,2,0:0:0:0:
415,304,77132,2,0,L|382:271,1,45
328,136,77449,1,0,0:0:0:0:
364,136,77555,1,0,0:0:0:0:
398,147,77660,1,0,0:0:0:0:
425,172,77766,1,2,0:0:0:0:
440,204,77872,1,0,0:0:0:0:
444,239,77977,1,0,0:0:0:0:
435,274,78083,1,0,0:0:0:0:
416,304,78188,1,0,0:0:0:0:
381,330,78294,1,0,0:0:0:0:
347,336,78400,1,0,0:0:0:0:
313,324,78505,1,0,0:0:0:0:
288,298,78611,5,2,0:0:0:0:
195,127,78822,2,0,L|136:100,1,45
32,272,79139,1,0,0:0:0:0:
64,288,79245,1,0,0:0:0:0:
99,293,79350,1,0,0:0:0:0:
135,282,79456,1,2,0:0:0:0:
162,260,79562,1,0,0:0:0:0:
181,230,79667,1,0,0:0:0:0:
188,195,79773,1,0,0:0:0:0:
185,160,79878,1,0,0:0:0:0:
196,126,79984,1,0,0:0:0:0:
221,101,80090,1,0,0:0:0:0:
254,89,80195,1,0,0:0:0:0:
289,95,80301,5,2,0:0:0:0:
360,289,80513,2,0,L|403:235,1,45
394,57,80830,1,0,0:0:0:0:
358,57,80936,1,0,0:0:0:0:
324,68,81041,1,0,0:0:0:0:
289,95,81146,2,0,L|272:146,1,45,2|0,0:0|0:0,0:0:0:0:
173,141,81358,1,0,0:0:0:0:
150,169,81463,2,0,L|167:220,1,45
100,288,81675,1,0,0:0:0:0:
102,324,81780,2,0,L|156:361,1,45
241,338,81992,5,2,0:0:0:0:
80,224,82203,2,0,L|61:168,1,45
269,235,82520,1,0,0:0:0:0:
297,257,82626,1,0,0:0:0:0:
331,269,82731,1,0,0:0:0:0:
367,266,82837,1,2,0:0:0:0:
399,250,82943,1,0,0:0:0:0:
423,225,83048,1,0,0:0:0:0:
438,192,83154,1,0,0:0:0:0:
441,157,83259,1,0,0:0:0:0:
431,123,83365,1,0,0:0:0:0:
398,137,83471,1,0,0:0:0:0:
363,135,83576,1,0,0:0:0:0:
332,117,83682,5,2,0:0:0:0:
141,116,83893,2,0,L|184:125,1,45
158,341,84210,1,0,0:0:0:0:
122,341,84316,1,0,0:0:0:0:
88,330,84421,1,0,0:0:0:0:
61,305,84527,1,2,0:0:0:0:
46,273,84633,1,0,0:0:0:0:
42,238,84738,1,0,0:0:0:0:
51,203,84844,1,0,0:0:0:0:
70,173,84949,1,0,0:0:0:0:
92,145,85055,1,0,0:0:0:0:
68,118,85161,1,0,0:0:0:0:
58,84,85266,1,0,0:0:0:0:
67,49,85372,5,2,0:0:0:0:
151,241,85583,2,0,L|206:258,1,45
246,84,85900,1,0,0:0:0:0:
282,90,86006,1,0,0:0:0:0:
318,84,86111,1,0,0:0:0:0:
349,66,86217,1,2,0:0:0:0:
368,34,86323,1,0,0:0:0:0:
399,51,86428,1,0,0:0:0:0:
419,80,86534,1,0,0:0:0:0:
430,114,86639,1,0,0:0:0:0:
438,149,86745,1,0,0:0:0:0:
433,184,86851,1,0,0:0:0:0:
425,219,86956,1,0,0:0:0:0:
431,254,87062,5,2,0:0:0:0:
322,346,87273,2,0,L|272:356,1,45
40,299,87590,1,0,0:0:0:0:
76,299,87696,1,0,0:0:0:0:
110,288,87801,1,0,0:0:0:0:
140,268,87907,2,0,L|153:225,1,45,6|0,0:0|0:0,0:0:0:0:
227,62,88118,1,0,0:0:0:0:
251,88,88224,2,0,L|235:139,1,45,0|2,0:0|0:0,0:0:0:0:
255,310,88435,1,0,0:0:0:0:
291,307,88541,2,0,L|304:264,1,45
373,97,88752,5,6,0:0:0:0:
291,174,95090,102,0,L|284:129,1,45
179,101,95301,2,0,L|187:145,1,45
360,67,95512,5,6,0:0:0:0:
223,282,95829,1,0,0:0:0:0:
103,247,95935,1,10,0:0:0:0:
379,236,96146,6,0,B|305:353|305:353|358:348,1,180
291,174,96780,1,10,0:0:0:0:
434,338,96991,2,0,L|496:328,1,45
430,195,97202,5,2,0:0:0:0:
178,320,97519,1,0,0:0:0:0:
303,301,97625,1,10,0:0:0:0:
161,182,97836,6,0,B|189:195|189:195|272:177,1,90,0|2,0:0|0:0,0:0:0:0:
291,174,98153,1,0,0:0:0:0:
339,166,98259,2,0,L|316:253,1,90,0|10,0:0|0:0,0:0:0:0:
365,79,98682,2,0,L|402:104,1,45
387,282,98892,5,2,0:0:0:0:
107,42,99209,1,0,0:0:0:0:
236,86,99315,1,10,0:0:0:0:
90,257,99527,6,0,B|164:311|164:311|262:277,1,180
107,42,100160,1,10,0:0:0:0:
90,257,100371,1,0,0:0:0:0:
178,222,100477,1,0,0:0:0:0:
271,193,100583,6,0,L|289:90,1,90,2|0,0:0|0:0,0:0:0:0:
361,163,100900,1,0,0:0:0:0:
343,255,101005,2,0,L|235:297,2,90,10|0|2,0:0|0:0|0:0,0:0:0:0:
327,349,101533,2,0,L|284:365,1,45,8|0,0:0|0:0,0:0:0:0:
377,74,101850,6,0,L|443:52,1,45,10|0,0:0|0:0,0:0:0:0:
473,207,102062,2,0,L|428:223,1,45
292,106,102273,5,2,0:0:0:0:
152,341,102590,1,0,0:0:0:0:
26,289,102696,1,10,0:0:0:0:
242,289,102907,6,0,B|379:278|379:278|419:227,1,180
320,364,103540,1,10,0:0:0:0:
379,155,103752,2,0,L|330:167,1,45,0|0,0:0|0:0,0:0:0:0:
170,207,103963,5,2,0:0:0:0:
444,231,104280,1,0,0:0:0:0:
299,254,104386,1,10,0:0:0:0:
132,115,104597,6,0,B|254:112,1,90,0|2,0:0|0:0,0:0:0:0:
269,30,104914,2,0,B|329:128,1,90
388,61,105231,2,0,L|411:99,1,45,10|0,0:0|0:0,0:0:0:0:
502,94,105442,1,0,0:0:0:0:
264,360,105653,5,2,0:0:0:0:
388,61,105970,1,0,0:0:0:0:
342,179,106076,1,10,0:0:0:0:
134,121,106287,6,0,L|192:208,1,90,0|2,0:0|0:0,0:0:0:0:
172,248,106604,1,0,0:0:0:0:
159,300,106709,2,0,B|233:292|233:292|263:304,1,90,0|10,0:0|0:0,0:0:0:0:
410,306,107132,2,0,L|364:270,1,45
224,164,107343,6,0,L|248:304,1,135,2|0,0:0|0:0,0:0:0:0:
429,186,107766,2,0,B|359:170|359:170|317:193,1,90,10|0,0:0|0:0,0:0:0:0:
351,233,108083,5,0,0:0:0:0:
395,97,108188,1,10,0:0:0:0:
323,46,108400,101,0,0:0:0:0:
344,178,108505,1,8,0:0:0:0:
186,268,108717,5,0,0:0:0:0:
136,143,108823,1,8,0:0:0:0:
344,178,109033,5,6,0:0:0:0:
344,178,109350,1,0,0:0:0:0:
431,73,109456,2,0,L|298:53,1,135.000005149842,10|0,0:0|0:0,0:0:0:0:
220,288,109878,5,2,0:0:0:0:
453,213,110090,1,0,0:0:0:0:
298,321,110301,1,10,0:0:0:0:
441,134,110512,2,0,L|494:66,1,67.5000025749208
453,213,110723,5,2,0:0:0:0:
453,213,111040,1,0,0:0:0:0:
406,86,111146,1,10,0:0:0:0:
372,353,111357,1,0,0:0:0:0:
146,247,111569,6,0,L|67:207,2,67.5000025749208,2|0|0,0:0|0:0|0:0,0:0:0:0:
15,279,111991,1,10,0:0:0:0:
301,203,112202,2,0,L|221:227,1,67.5000025749208
392,175,112413,5,2,0:0:0:0:
392,175,112731,1,0,0:0:0:0:
378,308,112836,1,10,0:0:0:0:
309,42,113047,1,0,0:0:0:0:
250,209,113259,5,2,0:0:0:0:
403,22,113470,1,0,0:0:0:0:
341,255,113682,1,10,0:0:0:0:
158,166,113892,2,0,L|174:233,1,67.5000025749208
138,83,114104,5,2,0:0:0:0:
138,83,114421,1,0,0:0:0:0:
265,122,114526,1,10,0:0:0:0:
18,140,114737,1,0,0:0:0:0:
343,160,114949,6,0,L|423:117,1,67.5000025749208,2|8,0:0|0:0,0:0:0:0:
265,122,115160,1,0,0:0:0:0:
107,308,115371,2,0,L|29:261,1,67.5000025749208,10|0,0:0|0:0,0:0:0:0:
211,302,115583,2,0,L|268:338,1,67.5000025749208
157,219,115794,5,2,0:0:0:0:
157,219,116111,1,0,0:0:0:0:
290,200,116216,1,10,0:0:0:0:
22,241,116428,1,0,0:0:0:0:
239,350,116639,5,2,0:0:0:0:
505,300,116850,1,0,0:0:0:0:
239,350,117062,1,10,0:0:0:0:
331,94,117273,2,0,L|360:10,1,67.5000025749208
290,200,117484,5,2,0:0:0:0:
290,200,117801,1,0,0:0:0:0:
195,103,117907,1,10,0:0:0:0:
432,204,118118,1,0,0:0:0:0:
354,31,118329,5,2,0:0:0:0:
361,274,118541,1,0,0:0:0:0:
433,75,118752,2,0,L|512:35,1,67.5000025749208,10|0,0:0|0:0,0:0:0:0:
354,31,118963,1,0,0:0:0:0:
59,52,119174,5,2,0:0:0:0:
286,337,119491,1,0,0:0:0:0:
155,300,119597,1,10,0:0:0:0:
480,170,119808,1,0,0:0:0:0:
216,229,120019,6,0,L|127:201,1,67.5000025749208,2|0,0:0|0:0,0:0:0:0:
280,165,120231,1,0,0:0:0:0:
433,75,120442,2,0,L|346:52,1,67.5000025749208,10|0,0:0|0:0,0:0:0:0:
280,165,120653,2,0,L|349:185,1,67.5000025749208
192,144,120865,6,0,B|39:105|39:105|55:158,1,202.500007724762,2|0,0:0|0:0,0:0:0:0:
49,229,121287,2,0,B|150:219|150:219|196:248,1,135.000005149842,10|0,0:0|0:0,0:0:0:0:
228,275,121604,5,0,0:0:0:0:
192,144,121710,1,10,0:0:0:0:
366,276,121921,101,0,0:0:0:0:
397,142,122026,1,8,0:0:0:0:
403,331,122238,5,0,0:0:0:0:
386,196,122344,1,8,0:0:0:0:
146,311,122555,6,0,B|136:285|136:285|192:143,1,180,6|2,0:0|0:0,0:0:0:0:
48,231,123400,2,0,B|176:184|176:184|194:137,1,180,2|2,2:0|0:0,0:0:0:0:
30,349,124033,1,0,0:0:0:0:
146,311,124667,5,10,0:0:0:0:
358,104,125090,2,0,L|380:52,1,45
264,122,125301,1,0,0:0:0:0:
327,189,125512,1,10,0:0:0:0:
419,176,125724,1,0,0:0:0:0:
466,332,125935,6,0,B|426:306|426:306|279:276,1,180,6|2,0:0|0:0,0:0:0:0:
55,208,126780,2,0,B|22:238|22:238|39:328|39:328|100:342,1,180,2|2,2:0|0:0,0:0:0:0:
124,153,127413,1,0,0:0:0:0:
120,265,127836,6,0,L|224:243,1,90,0|10,0:0|0:0,0:0:0:0:
167,340,128470,2,0,L|217:330,1,45,2|0,0:0|0:0,0:0:0:0:
309,313,128681,1,0,0:0:0:0:
353,175,128892,1,10,0:0:0:0:
397,38,129103,1,0,0:0:0:0:
489,29,129315,6,0,L|427:223,1,180,6|2,0:0|0:0,0:0:0:0:
160,104,130160,2,0,B|175:62|175:62|10:90,1,180,2|2,2:0|0:0,0:0:0:0:
243,117,130793,1,0,0:0:0:0:
300,327,131428,5,10,0:0:0:0:
71,221,131850,2,0,L|51:175,1,45
150,260,132061,1,0,0:0:0:0:
306,237,132272,1,10,0:0:0:0:
223,202,132483,1,0,0:0:0:0:
381,364,132695,6,0,B|403:377|403:377|410:201,1,180,6|2,0:0|0:0,0:0:0:0:
151,259,133540,2,0,B|301:333|301:333|306:291,1,180,2|2,2:0|0:0,0:0:0:0:
368,173,134175,1,0,0:0:0:0:
368,173,134597,6,0,L|340:80,1,90,0|10,0:0|0:0,0:0:0:0:
386,337,135231,2,0,L|412:279,1,45,6|0,0:0|0:0,0:0:0:0:
297,362,135441,1,0,0:0:0:0:
154,221,135653,2,0,L|131:177,1,45,2|0,0:0|0:0,0:0:0:0:
51,220,135864,2,0,L|28:178,1,45
253,223,136076,5,6,0:0:0:0:
99,301,136287,2,0,L|134:360,1,67.5000025749208,0|0,0:0|0:0,0:0:0:0:
118,163,136498,2,0,L|154:221,1,67.5000025749208,10|0,0:0|0:0,0:0:0:0:
348,225,136709,2,0,L|383:282,1,67.5000025749208,0|0,0:0|0:0,0:0:0:0:
301,145,136921,1,2,0:0:0:0:
51,220,137132,1,0,0:0:0:0:
62,90,137343,1,10,0:0:0:0:
348,225,137554,5,0,0:0:0:0:
477,186,137660,1,0,0:0:0:0:
477,186,137871,5,0,0:0:0:0:
477,186,137977,2,0,L|459:251,1,67.5000025749208,0|0,0:0|0:0,0:0:0:0:
395,46,138188,2,0,L|377:111,1,67.5000025749208,10|0,0:0|0:0,0:0:0:0:
246,129,138400,2,0,L|226:201,1,67.5000025749208,0|0,0:0|0:0,0:0:0:0:
348,225,138611,1,2,0:0:0:0:
113,149,138822,1,0,0:0:0:0:
348,225,139033,1,10,0:0:0:0:
199,306,139245,5,0,0:0:0:0:
331,290,139351,1,0,0:0:0:0:
331,290,139562,5,0,0:0:0:0:
331,290,139668,2,0,L|352:209,1,67.5000025749208,0|0,0:0|0:0,0:0:0:0:
432,376,139878,2,0,L|453:295,1,67.5000025749208,10|0,0:0|0:0,0:0:0:0:
182,371,140090,2,0,L|203:290,1,67.5000025749208,0|0,0:0|0:0,0:0:0:0:
306,374,140302,1,2,0:0:0:0:
494,200,140513,1,0,0:0:0:0:
246,129,140724,1,10,0:0:0:0:
339,22,140936,5,0,0:0:0:0:
246,129,141042,1,0,0:0:0:0:
246,129,141252,5,0,0:0:0:0:
246,129,141358,2,0,L|216:59,1,67.5000025749208,0|0,0:0|0:0,0:0:0:0:
165,248,141569,2,0,L|135:178,1,67.5000025749208,10|0,0:0|0:0,0:0:0:0:
82,369,141781,2,0,L|52:299,1,67.5000025749208,0|0,0:0|0:0,0:0:0:0:
201,334,141991,1,10,0:0:0:0:
271,188,142202,5,0,0:0:0:0:
406,206,142308,1,8,0:0:0:0:
165,248,142519,1,0,0:0:0:0:
305,266,142625,2,0,L|337:355,1,67.5000025749208,8|0,0:0|0:0,0:0:0:0:
462,353,142836,6,0,L|436:282,1,67.5000025749208,2|0,0:0|0:0,0:0:0:0:
406,206,143047,2,0,L|383:142,1,67.5000025749208,0|0,0:0|0:0,0:0:0:0:
305,266,143259,2,0,L|282:202,1,67.5000025749208,10|0,0:0|0:0,0:0:0:0:
244,121,143470,2,0,L|221:57,1,67.5000025749208,0|0,0:0|0:0,0:0:0:0:
204,329,143681,2,0,L|181:265,1,67.5000025749208,2|0,0:0|0:0,0:0:0:0:
154,179,143892,2,0,L|131:115,1,67.5000025749208,0|0,0:0|0:0,0:0:0:0:
100,28,144104,1,10,0:0:0:0:
374,217,144315,5,0,0:0:0:0:
344,70,144421,1,0,0:0:0:0:
344,70,144632,5,0,0:0:0:0:
344,70,144738,2,0,L|410:57,1,67.5000025749208,0|0,0:0|0:0,0:0:0:0:
374,217,144949,2,0,L|439:203,1,67.5000025749208,10|0,0:0|0:0,0:0:0:0:
240,173,145160,2,0,L|312:157,1,67.5000025749208
271,312,145371,1,2,0:0:0:0:
105,134,145583,1,0,0:0:0:0:
345,71,145794,1,10,0:0:0:0:
288,243,146005,5,0,0:0:0:0:
137,261,146111,1,0,0:0:0:0:
137,261,146322,5,0,0:0:0:0:
137,261,146428,2,0,L|62:245,1,67.5000025749208,0|0,0:0|0:0,0:0:0:0:
288,243,146639,2,0,L|213:227,1,67.5000025749208,10|0,0:0|0:0,0:0:0:0:
440,231,146850,2,0,L|374:217,1,67.5000025749208,0|0,0:0|0:0,0:0:0:0:
151,174,147062,1,2,0:0:0:0:
426,315,147273,1,0,0:0:0:0:
125,347,147484,1,10,0:0:0:0:
328,90,147695,5,0,0:0:0:0:
440,209,147801,1,0,0:0:0:0:
440,209,148012,5,0,0:0:0:0:
440,209,148118,2,0,L|514:193,1,67.5000025749208,0|0,0:0|0:0,0:0:0:0:
288,243,148329,2,0,L|362:227,1,67.5000025749208,10|0,0:0|0:0,0:0:0:0:
136,278,148540,2,0,L|210:262,1,67.5000025749208,0|0,0:0|0:0,0:0:0:0:
106,93,148752,6,0,L|246:119,1,135.000005149842,10|0,0:0|0:0,0:0:0:0:
288,244,149069,2,0,L|148:218,1,135.000005149842,8|0,0:0|0:0,0:0:0:0:
238,117,149385,1,8,0:0:0:0:
238,117,149597,5,6,0:0:0:0:
102,336,149808,2,0,L|147:259,1,67.5000025749208,0|0,0:0|0:0,0:0:0:0:
206,175,150019,2,0,L|248:100,1,67.5000025749208,10|0,0:0|0:0,0:0:0:0:
255,303,150230,2,0,L|298:224,1,67.5000025749208,0|0,0:0|0:0,0:0:0:0:
356,139,150442,1,2,0:0:0:0:
55,208,150653,1,0,0:0:0:0:
356,139,150864,1,10,0:0:0:0:
126,91,151075,5,0,0:0:0:0:
177,213,151181,1,0,0:0:0:0:
177,213,151392,5,0,0:0:0:0:
177,213,151498,2,0,L|195:278,1,67.5000025749208,0|0,0:0|0:0,0:0:0:0:
305,222,151709,2,0,L|323:287,1,67.5000025749208,10|0,0:0|0:0,0:0:0:0:
436,235,151921,2,0,L|456:307,1,67.5000025749208,0|0,0:0|0:0,0:0:0:0:
305,222,152132,1,2,0:0:0:0:
75,362,152343,1,0,0:0:0:0:
248,104,152554,1,10,0:0:0:0:
233,330,152766,5,0,0:0:0:0:
177,213,152872,1,0,0:0:0:0:
177,213,153083,5,0,0:0:0:0:
177,213,153189,2,0,L|150:151,1,67.5000025749208,0|0,0:0|0:0,0:0:0:0:
378,113,153399,2,0,L|350:36,1,67.5000025749208,10|0,0:0|0:0,0:0:0:0:
248,104,153611,2,0,L|216:26,1,67.5000025749208,0|0,0:0|0:0,0:0:0:0:
305,222,153823,1,2,0:0:0:0:
452,27,154034,1,0,0:0:0:0:
410,320,154245,1,10,0:0:0:0:
48,197,154457,5,0,0:0:0:0:
144,301,154563,1,0,0:0:0:0:
144,301,154773,5,0,0:0:0:0:
144,301,154879,2,0,L|87:351,1,67.5000025749208,0|0,0:0|0:0,0:0:0:0:
229,169,155090,2,0,L|172:219,1,67.5000025749208,10|0,0:0|0:0,0:0:0:0:
450,175,155302,2,0,L|393:225,1,67.5000025749208,0|0,0:0|0:0,0:0:0:0:
328,107,155512,1,10,0:0:0:0:
344,147,155723,5,0,0:0:0:0:
210,132,155829,1,8,0:0:0:0:
443,51,156040,1,0,0:0:0:0:
314,68,156146,2,0,L|228:78,1,67.5000025749208,8|0,0:0|0:0,0:0:0:0:
33,116,156357,6,0,L|107:105,1,67.5000025749208,2|0,0:0|0:0,0:0:0:0:
29,256,156569,2,0,L|95:246,1,67.5000025749208,0|0,0:0|0:0,0:0:0:0:
205,91,156780,2,0,L|271:81,1,67.5000025749208,10|0,0:0|0:0,0:0:0:0:
198,227,156991,2,0,L|264:217,1,67.5000025749208,0|0,0:0|0:0,0:0:0:0:
377,62,157203,2,0,L|443:52,1,67.5000025749208,2|0,0:0|0:0,0:0:0:0:
370,197,157414,2,0,L|436:187,1,67.5000025749208,0|0,0:0|0:0,0:0:0:0:
355,328,157625,1,10,0:0:0:0:
247,146,157836,5,0,0:0:0:0:
236,289,157942,1,0,0:0:0:0:
236,289,158153,5,0,0:0:0:0:
236,289,158259,2,0,L|249:354,1,67.5000025749208
339,203,158470,2,0,L|352:268,1,67.5000025749208,10|0,0:0|0:0,0:0:0:0:
443,117,158681,2,0,L|457:190,1,67.5000025749208
482,317,158892,1,2,0:0:0:0:
218,223,159104,1,0,0:0:0:0:
420,36,159315,1,10,0:0:0:0:
98,181,159527,5,0,0:0:0:0:
30,36,159632,1,0,0:0:0:0:
30,36,159843,5,0,0:0:0:0:
30,36,159949,2,0,L|60:105,1,67.5000025749208,0|0,0:0|0:0,0:0:0:0:
249,54,160160,2,0,L|279:123,1,67.5000025749208,10|0,0:0|0:0,0:0:0:0:
469,73,160371,2,0,L|499:142,1,67.5000025749208,0|0,0:0|0:0,0:0:0:0:
366,65,160583,1,2,0:0:0:0:
98,182,160794,1,0,0:0:0:0:
412,167,161005,1,10,0:0:0:0:
128,349,161216,5,0,0:0:0:0:
290,363,161322,1,0,0:0:0:0:
290,363,161533,5,0,0:0:0:0:
290,363,161639,2,0,L|329:298,1,67.5000025749208,0|0,0:0|0:0,0:0:0:0:
377,225,161850,2,0,L|416:160,1,67.5000025749208,10|0,0:0|0:0,0:0:0:0:
461,328,162062,2,0,L|500:263,1,67.5000025749208,0|0,0:0|0:0,0:0:0:0:
286,130,162273,6,0,L|325:65,1,67.5000025749208,2|0,0:0|0:0,0:0:0:0:
158,60,162484,2,0,L|197:-5,1,67.5000025749208,0|8,0:0|0:0,0:0:0:0:
179,326,162695,2,0,L|218:261,1,67.5000025749208,0|0,0:0|0:0,0:0:0:0:
51,251,162907,2,0,L|90:186,1,67.5000025749208,0|0,0:0|0:0,0:0:0:0:
377,225,163118,5,6,0:0:0:0:
177,159,163329,2,0,L|210:190,1,45
473,188,163646,1,0,0:0:0:0:
437,188,163752,1,0,0:0:0:0:
403,199,163857,1,0,0:0:0:0:
376,224,163963,1,2,0:0:0:0:
361,256,164069,1,0,0:0:0:0:
357,291,164174,1,0,0:0:0:0:
366,326,164280,1,0,0:0:0:0:
330,320,164385,1,0,0:0:0:0:
300,300,164491,1,0,0:0:0:0:
280,270,164597,1,0,0:0:0:0:
278,234,164702,1,0,0:0:0:0:
292,202,164808,5,2,0:0:0:0:
331,29,165019,2,0,L|356:88,1,45
98,32,165336,1,0,0:0:0:0:
134,32,165442,1,0,0:0:0:0:
168,43,165547,1,0,0:0:0:0:
195,68,165653,1,2,0:0:0:0:
210,100,165759,1,0,0:0:0:0:
214,135,165864,1,0,0:0:0:0:
205,170,165970,1,0,0:0:0:0:
186,200,166075,1,0,0:0:0:0:
151,226,166181,1,0,0:0:0:0:
117,232,166287,1,0,0:0:0:0:
83,220,166392,1,0,0:0:0:0:
58,194,166498,5,2,0:0:0:0:
266,301,166709,2,0,L|226:247,1,45
480,272,167026,1,0,0:0:0:0:
448,288,167132,1,0,0:0:0:0:
413,293,167237,1,0,0:0:0:0:
377,282,167343,1,2,0:0:0:0:
350,260,167449,1,0,0:0:0:0:
331,230,167554,1,0,0:0:0:0:
324,195,167660,1,0,0:0:0:0:
335,161,167765,1,0,0:0:0:0:
366,178,167871,1,0,0:0:0:0:
402,179,167977,1,0,0:0:0:0:
434,164,168082,1,0,0:0:0:0:
455,136,168188,5,2,0:0:0:0:
221,119,168400,2,0,L|300:89,1,45
62,183,168717,1,0,0:0:0:0:
98,183,168823,1,0,0:0:0:0:
132,194,168928,1,0,0:0:0:0:
167,221,169033,2,0,L|184:272,1,45,2|0,0:0|0:0,0:0:0:0:
269,329,169245,1,0,0:0:0:0:
292,301,169350,2,0,L|275:250,1,45
232,154,169562,1,0,0:0:0:0:
221,119,169667,2,0,L|167:84,1,45
78,68,169879,5,2,0:0:0:0:
120,316,170090,2,0,L|69:359,1,45
455,158,170407,1,0,0:0:0:0:
462,123,170513,1,0,0:0:0:0:
458,87,170618,1,0,0:0:0:0:
439,56,170724,1,2,0:0:0:0:
411,34,170830,1,0,0:0:0:0:
378,23,170935,1,0,0:0:0:0:
342,24,171041,1,0,0:0:0:0:
309,37,171146,1,0,0:0:0:0:
283,61,171252,1,0,0:0:0:0:
249,74,171358,1,0,0:0:0:0:
213,79,171463,1,0,0:0:0:0:
177,71,171569,5,2,0:0:0:0:
334,159,171780,2,0,L|370:106,1,45
84,342,172097,1,0,0:0:0:0:
120,342,172203,1,0,0:0:0:0:
154,331,172308,1,0,0:0:0:0:
181,306,172414,1,2,0:0:0:0:
196,274,172520,1,0,0:0:0:0:
200,239,172625,1,0,0:0:0:0:
191,204,172731,1,0,0:0:0:0:
172,174,172836,1,0,0:0:0:0:
204,188,172942,1,0,0:0:0:0:
240,196,173048,1,0,0:0:0:0:
274,188,173153,1,0,0:0:0:0:
301,164,173259,5,2,0:0:0:0:
359,343,173470,2,0,L|416:336,1,45
430,161,173787,1,0,0:0:0:0:
449,129,173893,1,0,0:0:0:0:
458,96,173998,1,0,0:0:0:0:
452,60,174104,1,2,0:0:0:0:
432,31,174210,1,0,0:0:0:0:
437,66,174315,1,0,0:0:0:0:
418,96,174421,1,0,0:0:0:0:
393,121,174526,1,0,0:0:0:0:
362,140,174632,1,0,0:0:0:0:
326,145,174738,1,0,0:0:0:0:
290,138,174843,1,0,0:0:0:0:
260,117,174949,5,2,0:0:0:0:
82,117,175160,2,0,L|68:74,1,45
104,345,175477,1,0,0:0:0:0:
112,310,175583,1,0,0:0:0:0:
130,279,175688,1,0,0:0:0:0:
156,254,175794,2,0,L|200:249,1,45,6|0,0:0|0:0,0:0:0:0:
374,247,176005,1,0,0:0:0:0:
363,214,176111,2,0,L|310:202,1,45,0|2,0:0|0:0,0:0:0:0:
214,132,176322,1,0,0:0:0:0:
198,100,176428,2,0,L|227:65,1,45
365,80,176639,5,6,0:0:0:0:
187,100,182977,102,0,L|180:151,1,45
271,162,183189,2,0,L|264:213,1,45,0|0,0:0|0:0,0:0:0:0:
353,224,183399,5,6,0:0:0:0:
