osu file format v13

[General]
AudioFilename: The Grimoire of Alice.mp3
AudioLeadIn: 0
PreviewTime: 0
Countdown: 0
SampleSet: Normal
StackLeniency: 0.7
Mode: 0
LetterboxInBreaks: 0
WidescreenStoryboard: 1

[Editor]
DistanceSpacing: 0.8
BeatDivisor: 4
GridSize: 8
TimelineZoom: 1.7

[Metadata]
Title:The Grimoire of Alice
TitleUnicode:The Grimoire of Alice
Artist:Akiyama Uni
ArtistUnicode:あきやまうに
Creator:Hollow Wings
Version:Extra
Source:Touhou
Tags:th12.3 fxtz Tasofro Twilight Frontier 黄昏フロンティア zun u2 hisoutensoku アリス·マーガトロイド Alice Margatroid
BeatmapID:316018
BeatmapSetID:123839

[Difficulty]
HPDrainRate:7
CircleSize:2
OverallDifficulty:8
ApproachRate:9
SliderMultiplier:2
SliderTickRate:1

[Events]
//Background and Video events
0,0,"The Grimoire of Alice.jpg",0,0
//Break Periods
2,88952,94490
2,176839,182377
//Storyboard Layer 0 (Background)
//Storyboard Layer 1 (Fail)
//Storyboard Layer 2 (Pass)
//Storyboard Layer 3 (Foreground)
//Storyboard Sound Samples
//Background Colour Transformations
3,100,163,162,255

[TimingPoints]
-825,422.535211267606,4,1,1,60,1,0
20,-100,4,1,1,60,0,1
653,-100,4,1,1,60,0,0
865,-100,4,1,1,60,0,1
6991,-100,4,1,1,60,0,0
7203,-100,4,1,1,70,0,1
7414,-100,4,1,1,70,0,0
7625,-100,4,1,1,60,0,1
7836,-100,4,1,1,60,0,0
21146,-66.6666666666667,4,1,1,65,0,0
34667,-100,4,1,1,60,0,0
47766,-100,4,1,1,60,0,1
47977,-100,4,1,1,60,0,0
48189,-66.6666666666667,4,1,1,60,0,1
48400,-66.6666666666667,4,1,1,60,0,0
61710,-66.6666666666667,4,1,1,60,0,1
61921,-66.6666666666667,4,1,1,60,0,0
75231,-100,4,1,1,40,0,0
80301,-100,4,1,1,45,0,0
81991,-100,4,1,1,50,0,0
83682,-100,4,1,1,55,0,0
85372,-100,4,1,1,60,0,0
87062,-100,4,1,1,70,0,0
87907,-100,4,1,1,90,0,0
88752,-100,4,1,1,100,0,0
95090,-100,4,1,1,70,0,1
95301,-100,4,1,1,70,0,0
95513,-100,4,1,1,60,0,1
95724,-100,4,1,1,60,0,0
109034,-66.6666666666667,4,1,1,65,0,0
122555,-100,4,1,1,60,0,0
135653,-100,4,1,1,60,0,1
135865,-100,4,1,1,60,0,0
136076,-66.6666666666667,4,1,1,60,0,1
136287,-66.6666666666667,4,1,1,60,0,0
149597,-66.6666666666667,4,1,1,60,0,1
149808,-66.6666666666667,4,1,1,60,0,0
163118,-100,4,1,1,40,0,0
168189,-100,4,1,1,45,0,0
169879,-100,4,1,1,50,0,0
171569,-100,4,1,1,55,0,0
173259,-100,4,1,1,60,0,0
174949,-100,4,1,1,70,0,0
175794,-100,4,1,1,90,0,0
176639,-100,4,1,1,100,0,0
182977,-100,4,1,1,70,0,1
183189,-100,4,1,1,70,0,0
183400,-100,4,1,1,60,0,1
183611,-100,4,1,1,60,0,0

[Colours]
Combo1 : 255,30,221
Combo2 : 255,30,30
Combo3 : 242,115,0
Combo4 : 255,255,15
Combo5 : 108,255,38
Combo6 : 36,146,255
Combo7 : 40,72,255
Combo8 : 131,30,255

[HitObjects]
24,40,20,102,0,L|68:91,1,50,2|0,0:0|0:0,0:0:0:0:
144,40,231,2,0,L|188:91,1,50
264,40,442,2,0,L|308:91,1,50,2|0,0:0|0:0,0:0:0:0:
384,40,653,2,0,L|428:91,1,50
504,40,865,5,6,0:0:0:0:
335,253,1182,1,0,0:0:0:0:
256,192,1287,5,10,0:0:0:0:
360,364,1498,2,0,B|408:359|408:359|454:340|454:340|499:366,1,150
256,192,2132,5,10,0:0:0:0:
7,362,2344,1,0,0:0:0:0:
9,181,2555,2,0,B|84:204|84:204|167:196,1,150,2|0,0:0|0:0,0:0:0:0:
256,192,2977,5,10,0:0:0:0:
459,322,3189,2,0,B|442:224|442:224|455:172,1,150
256,192,3822,5,10,0:0:0:0:
503,20,4034,1,0,0:0:0:0:
270,80,4245,2,0,B|154:111|154:111|197:149,1,150,2|0,0:0|0:0,0:0:0:0:
256,192,4667,5,10,0:0:0:0:
46,37,4879,1,0,0:0:0:0:
31,304,5090,2,0,L|28:359,1,50,2|0,0:0|0:0,0:0:0:0:
256,192,5513,5,10,0:0:0:0:
177,370,5724,1,0,0:0:0:0:
122,293,5829,1,0,0:0:0:0:
163,208,5935,1,10,0:0:0:0:
46,37,6146,1,8,0:0:0:0:
256,192,6358,5,10,0:0:0:0:
315,260,6463,1,0,0:0:0:0:
375,26,6675,1,8,0:0:0:0:
403,305,6886,1,0,0:0:0:0:
330,357,6991,1,8,0:0:0:0:
256,192,7203,5,10,0:0:0:0:
179,144,7309,1,0,0:0:0:0:
91,162,7414,1,0,0:0:0:0:
38,235,7520,1,0,0:0:0:0:
64,320,7625,6,0,B|177:300|177:300|226:269,1,150,6|0,0:0|0:0,0:0:0:0:
256,192,8048,1,10,0:0:0:0:
266,23,8259,6,0,L|426:6,1,150
512,43,8682,1,0,0:0:0:0:
256,192,8893,5,10,0:0:0:0:
35,41,9104,1,0,0:0:0:0:
52,129,9210,1,0,0:0:0:0:
121,71,9315,1,2,0:0:0:0:
341,220,9632,1,0,0:0:0:0:
256,192,9738,5,10,0:0:0:0:
73,348,9949,2,0,B|132:337|132:337|239:348,1,150
322,360,10372,1,0,0:0:0:0:
256,192,10583,5,10,0:0:0:0:
54,62,10794,2,0,L|50:111,1,50
148,69,11005,2,0,L|136:234,1,150,2|0,0:0|0:0,0:0:0:0:
256,192,11428,5,10,0:0:0:0:
491,342,11639,2,0,L|384:326,1,100,0|2,0:0|0:0,0:0:0:0:
303,373,11956,2,0,L|237:363,1,50
256,192,12273,5,10,0:0:0:0:
418,19,12484,1,0,0:0:0:0:
319,36,12590,1,0,0:0:0:0:
220,57,12696,2,0,B|248:92|248:92|238:164|238:164|256:192,1,150,2|0,0:0|0:0,0:0:0:0:
256,192,13118,5,10,0:0:0:0:
92,367,13329,1,0,0:0:0:0:
41,292,13435,1,0,0:0:0:0:
102,223,13541,2,0,L|121:163,2,50,10|0|0,0:0|0:0|0:0,0:0:0:0:
42,118,13858,2,0,L|27:53,2,50,8|2|0,0:0|0:0|0:0,0:0:0:0:
155,76,14175,2,0,L|172:25,1,50,8|0,0:0|0:0,0:0:0:0:
194,269,14386,5,0,0:0:0:0:
194,269,14703,1,0,0:0:0:0:
256,192,14808,5,8,0:0:0:0:
499,194,15020,2,0,L|357:145,1,150,0|0,0:0|0:0,0:0:0:0:
345,42,15442,1,0,0:0:0:0:
256,192,15653,5,10,0:0:0:0:
420,269,15865,1,0,0:0:0:0:
509,301,15970,1,0,0:0:0:0:
336,317,16076,2,0,L|194:268,1,150,2|0,0:0|0:0,0:0:0:0:
256,192,16498,5,10,0:0:0:0:
9,364,16710,1,0,0:0:0:0:
420,269,17027,1,0,0:0:0:0:
509,301,17132,1,0,0:0:0:0:
256,192,17344,5,10,0:0:0:0:
54,61,17555,2,0,L|119:45,1,50
2,177,17766,2,0,L|149:137,1,150,2|0,0:0|0:0,0:0:0:0:
256,192,18189,5,10,0:0:0:0:
503,22,18400,2,0,B|477:52|477:52|460:177,1,150
367,124,18822,1,0,0:0:0:0:
271,93,18928,1,0,0:0:0:0:
256,192,19034,5,10,0:0:0:0:
160,164,19139,1,0,0:0:0:0:
65,132,19245,2,0,L|77:200,1,50
31,350,19456,2,0,B|70:333|70:333|157:349|157:349|196:333,1,150,2|0,0:0|0:0,0:0:0:0:
256,192,19879,5,10,0:0:0:0:
435,355,20090,1,0,0:0:0:0:
481,276,20196,1,0,0:0:0:0:
434,200,20301,1,10,0:0:0:0:
256,192,20513,1,0,0:0:0:0:
209,268,20618,1,8,0:0:0:0:
47,40,20829,1,0,0:0:0:0:
136,54,20935,1,8,0:0:0:0:
256,296,21146,5,6,0:0:0:0:
256,296,21463,1,0,0:0:0:0:
256,192,21569,5,10,0:0:0:0:
426,362,21780,1,0,0:0:0:0:
426,362,22097,1,0,0:0:0:0:
486,275,22203,1,0,0:0:0:0:
256,192,22414,5,10,0:0:0:0:
71,370,22625,1,0,0:0:0:0:
11,283,22731,1,0,0:0:0:0:
115,274,22836,2,0,B|152:313|152:313|279:291,1,150.000005722046,2|0,0:0|0:0,0:0:0:0:
360,174,23153,1,0,0:0:0:0:
256,192,23259,5,10,0:0:0:0:
363,65,23470,1,0,0:0:0:0:
469,34,23576,2,0,L|452:195,1,150.000005722046
332,362,23893,1,0,0:0:0:0:
247,297,23998,1,0,0:0:0:0:
256,192,24104,6,0,L|266:107,1,75.0000028610231,10|0,0:0|0:0,0:0:0:0:
156,236,24315,2,0,L|166:152,1,75.0000028610231,0|0,0:0|0:0,0:0:0:0:
55,278,24527,2,0,L|74:119,1,150.000005722046,2|0,0:0|0:0,0:0:0:0:
247,297,24844,1,0,0:0:0:0:
256,192,24949,5,10,0:0:0:0:
428,72,25160,1,0,0:0:0:0:
419,177,25265,1,0,0:0:0:0:
84,312,25477,1,0,0:0:0:0:
93,207,25583,1,0,0:0:0:0:
256,192,25794,5,10,0:0:0:0:
6,82,26005,1,0,0:0:0:0:
111,88,26111,1,0,0:0:0:0:
216,92,26217,2,0,B|345:104|345:104|328:116,1,150.000005722046,2|0,0:0|0:0,0:0:0:0:
183,269,26534,1,0,0:0:0:0:
256,192,26639,5,10,0:0:0:0:
467,21,26851,1,0,0:0:0:0:
364,40,26956,1,0,0:0:0:0:
261,65,27062,2,0,L|252:139,1,75.0000028610231,10|0,0:0|0:0,0:0:0:0:
240,245,27273,2,0,L|232:320,1,75.0000028610231,0|8,0:0|0:0,0:0:0:0:
83,92,27484,2,0,L|74:166,1,75.0000028610231,2|0,0:0|0:0,0:0:0:0:
62,272,27696,2,0,L|52:356,1,75.0000028610231,8|0,0:0|0:0,0:0:0:0:
155,220,27907,5,2,0:0:0:0:
155,220,28224,1,0,0:0:0:0:
256,192,28329,5,10,0:0:0:0:
467,21,28541,2,0,B|447:99|447:99|479:244,1,225.000008583069
477,345,28963,1,0,0:0:0:0:
256,192,29175,5,10,0:0:0:0:
43,26,29386,1,0,0:0:0:0:
7,108,29491,1,0,0:0:0:0:
47,190,29597,1,2,0:0:0:0:
256,352,29808,1,0,0:0:0:0:
300,271,29914,1,0,0:0:0:0:
256,192,30020,5,10,0:0:0:0:
459,242,30231,1,0,0:0:0:0:
502,321,30336,1,0,0:0:0:0:
47,370,30548,1,0,0:0:0:0:
4,291,30653,1,0,0:0:0:0:
256,192,30865,5,10,0:0:0:0:
43,26,31076,1,0,0:0:0:0:
13,112,31182,1,0,0:0:0:0:
102,95,31287,1,2,0:0:0:0:
311,119,31498,1,0,0:0:0:0:
346,203,31604,1,0,0:0:0:0:
256,192,31710,5,10,0:0:0:0:
162,367,31921,1,0,0:0:0:0:
250,336,32027,1,0,0:0:0:0:
476,44,32238,1,0,0:0:0:0:
387,26,32344,1,0,0:0:0:0:
256,192,32555,5,10,0:0:0:0:
495,308,32766,1,0,0:0:0:0:
434,376,32872,1,0,0:0:0:0:
345,362,32977,2,0,B|320:338|320:338|244:349|244:349|109:322,1,225.000008583069,2|0,0:0|0:0,0:0:0:0:
256,192,33400,5,10,0:0:0:0:
490,49,33611,1,0,0:0:0:0:
400,41,33717,1,0,0:0:0:0:
311,34,33822,1,10,0:0:0:0:
50,283,34034,1,0,0:0:0:0:
137,263,34139,1,8,0:0:0:0:
188,59,34351,1,0,0:0:0:0:
99,51,34456,1,8,0:0:0:0:
307,294,34667,6,0,B|334:251|334:251|418:251|418:251|466:148|466:148|403:173,1,300,6|0,0:0|0:0,0:0:0:0:
186,238,35513,2,0,B|119:266|119:266|74:353|74:353|104:342,1,200,2|2,2:0|0:0,0:0:0:0:
184,118,36146,2,0,B|208:60|208:60|123:24|123:24|81:38,1,200
256,192,36780,5,10,0:0:0:0:
321,255,36886,1,0,0:0:0:0:
464,146,37097,1,0,0:0:0:0:
209,29,37308,1,0,0:0:0:0:
274,94,37414,2,0,L|337:120,1,50,4|0,0:0|0:0,0:0:0:0:
256,192,37625,5,14,0:0:0:0:
321,255,37731,1,0,0:0:0:0:
32,345,38048,2,0,B|68:230|68:230|45:122|45:122|74:60,1,300,6|0,0:0|0:0,0:0:0:0:
350,77,38893,2,0,B|378:132|378:132|356:237|356:237|365:267,1,200,2|2,2:0|0:0,0:0:0:0:
146,267,39527,2,0,B|156:237|156:237|134:132|134:132|161:77,1,200
256,192,40160,5,10,0:0:0:0:
89,338,40372,1,0,0:0:0:0:
0,351,40477,2,0,L|6:288,1,50
368,355,40794,1,0,0:0:0:0:
256,192,41006,5,10,0:0:0:0:
396,23,41217,1,0,0:0:0:0:
165,86,41428,2,0,B|119:95|119:95|168:144|168:144|150:277|150:277|195:315,1,300,6|0,0:0|0:0,0:0:0:0:
61,178,42273,2,0,B|12:123|12:123|29:29|29:29|-1:38,1,200,2|2,2:0|0:0,0:0:0:0:
274,98,42907,2,0,B|432:70|432:70|470:104,1,200
256,192,43541,5,10,0:0:0:0:
201,264,43647,1,0,0:0:0:0:
464,360,43858,1,0,0:0:0:0:
120,328,44069,1,0,0:0:0:0:
111,228,44175,2,0,L|153:178,1,50,4|0,0:0|0:0,0:0:0:0:
256,192,44386,5,14,0:0:0:0:
274,98,44491,1,0,0:0:0:0:
448,301,44808,2,0,B|468:366|468:366|317:347|317:347|227:365,1,300,6|0,0:0|0:0,0:0:0:0:
240,62,45653,2,0,B|265:26|265:26|388:49|388:49|336:64,1,200,2|2,2:0|0:0,0:0:0:0:
103,241,46287,2,0,B|76:134|76:134|103:70,1,150
180,119,46710,2,0,L|172:143,2,25
256,192,46921,6,0,L|283:302,1,100,10|0,0:0|0:0,0:0:0:0:
375,258,47238,2,0,L|393:329,1,50,0|6,0:0|0:0,0:0:0:0:
119,254,47555,1,0,0:0:0:0:
84,171,47660,1,0,0:0:0:0:
172,181,47766,1,2,0:0:0:0:
137,98,47872,1,0,0:0:0:0:
227,108,47977,1,0,0:0:0:0:
192,26,48083,1,0,0:0:0:0:
378,56,48189,5,6,0:0:0:0:
286,280,48400,1,0,0:0:0:0:
344,211,48505,1,0,0:0:0:0:
256,192,48611,5,10,0:0:0:0:
317,125,48717,1,0,0:0:0:0:
227,108,48822,1,0,0:0:0:0:
284,40,48928,1,0,0:0:0:0:
192,26,49034,2,0,B|85:44|85:44|31:29,1,150.000005722046,2|0,0:0|0:0,0:0:0:0:
256,192,49456,5,10,0:0:0:0:
443,98,49667,1,0,0:0:0:0:
499,245,49773,1,0,0:0:0:0:
74,85,49984,2,0,L|8:41,2,75.0000028610231
256,192,50301,6,0,L|336:243,1,75.0000028610231,10|0,0:0|0:0,0:0:0:0:
119,254,50513,2,0,L|185:300,1,75.0000028610231
291,374,50724,2,0,B|408:359|408:359|439:370,1,150.000005722046,2|0,0:0|0:0,0:0:0:0:
256,192,51146,5,10,0:0:0:0:
18,322,51358,1,0,0:0:0:0:
169,368,51463,1,0,0:0:0:0:
264,84,51675,1,0,0:0:0:0:
421,149,51780,2,0,L|329:173,1,75.0000028610231
256,192,51991,6,0,L|178:211,1,75.0000028610231,10|0,0:0|0:0,0:0:0:0:
436,41,52203,2,0,L|336:66,1,75.0000028610231
157,109,52414,2,0,L|12:145,1,150.000005722046,2|0,0:0|0:0,0:0:0:0:
256,192,52836,5,10,0:0:0:0:
497,215,53048,1,0,0:0:0:0:
417,350,53153,1,0,0:0:0:0:
12,145,53365,1,0,0:0:0:0:
106,176,53470,2,0,L|177:125,1,75.0000028610231
256,192,53682,6,0,L|327:141,1,75.0000028610231,10|0,0:0|0:0,0:0:0:0:
264,57,53893,2,0,L|335:6,1,75.0000028610231
396,92,54104,1,10,0:0:0:0:
31,71,54315,1,0,0:0:0:0:
45,220,54421,2,0,L|116:169,1,75.0000028610231,8|2,0:0|0:0,0:0:0:0:
184,118,54632,1,0,0:0:0:0:
198,267,54738,2,0,L|269:216,1,75.0000028610231,8|0,0:0|0:0,0:0:0:0:
405,51,54949,5,2,0:0:0:0:
305,22,55054,1,0,0:0:0:0:
329,124,55160,1,0,0:0:0:0:
229,95,55265,1,0,0:0:0:0:
256,192,55372,5,10,0:0:0:0:
156,163,55477,1,0,0:0:0:0:
176,266,55583,1,0,0:0:0:0:
76,237,55688,1,0,0:0:0:0:
96,340,55794,2,0,L|16:326,1,75.0000028610231,2|0,0:0|0:0,0:0:0:0:
52,48,56005,2,0,L|132:62,1,75.0000028610231
256,192,56217,5,10,0:0:0:0:
405,52,56428,1,0,0:0:0:0:
229,95,56534,2,0,B|140:140|140:140|100:195,1,150.000005722046
96,340,56851,2,0,L|176:341,1,75.0000028610231
256,192,57062,5,10,0:0:0:0:
270,296,57168,1,0,0:0:0:0:
374,313,57273,1,0,0:0:0:0:
422,219,57379,1,0,0:0:0:0:
349,144,57484,2,0,B|346:108|346:108|403:52|403:52|417:15,1,150.000005722046,2|0,0:0|0:0,0:0:0:0:
256,192,57907,5,10,0:0:0:0:
498,147,58118,1,0,0:0:0:0:
481,309,58224,1,0,0:0:0:0:
146,93,58435,1,0,0:0:0:0:
81,177,58541,2,0,L|20:259,1,75.0000028610231
256,192,58752,6,0,L|169:183,1,75.0000028610231,10|0,0:0|0:0,0:0:0:0:
437,120,58963,2,0,L|538:131,1,75.0000028610231
325,30,59175,2,0,L|331:111,1,75.0000028610231,2|0,0:0|0:0,0:0:0:0:
486,281,59386,2,0,L|491:358,1,75.0000028610231
256,192,59597,5,10,0:0:0:0:
437,120,59808,1,0,0:0:0:0:
234,86,59914,2,0,B|131:56|131:56|61:71,1,150.000005722046
114,343,60231,2,0,L|23:324,1,75.0000028610231
256,192,60442,5,10,0:0:0:0:
350,240,60548,1,0,0:0:0:0:
326,342,60653,1,0,0:0:0:0:
221,350,60759,1,0,0:0:0:0:
175,255,60865,2,0,L|88:239,2,75.0000028610231,10|0|0,0:0|0:0|0:0,0:0:0:0:
256,192,61182,1,8,0:0:0:0:
350,240,61287,2,0,L|426:213,1,75.0000028610231,2|0,0:0|0:0,0:0:0:0:
45,152,61498,2,0,L|117:129,1,75.0000028610231
130,372,61710,5,6,0:0:0:0:
389,297,61921,2,0,L|316:314,1,75.0000028610231
256,192,62132,5,10,0:0:0:0:
346,135,62238,2,0,L|375:55,2,75.0000028610231
442,182,62555,1,2,0:0:0:0:
137,33,62766,1,0,0:0:0:0:
256,192,62977,5,10,0:0:0:0:
46,142,63188,1,0,0:0:0:0:
77,290,63294,2,0,B|151:202|151:202|142:168,1,150.000005722046
115,67,63611,1,0,0:0:0:0:
217,94,63717,1,0,0:0:0:0:
256,192,63822,5,10,0:0:0:0:
321,111,63928,1,0,0:0:0:0:
426,102,64034,1,0,0:0:0:0:
500,176,64139,2,0,L|397:198,1,75.0000028610231,0|2,0:0|0:0,0:0:0:0:
489,370,64456,1,0,0:0:0:0:
256,192,64667,5,10,0:0:0:0:
40,29,64879,1,0,0:0:0:0:
195,54,64984,1,0,0:0:0:0:
312,363,65196,1,0,0:0:0:0:
208,363,65301,1,0,0:0:0:0:
176,261,65407,1,0,0:0:0:0:
256,192,65513,5,10,0:0:0:0:
334,121,65618,2,0,L|297:44,1,75.0000028610231
195,54,65829,1,0,0:0:0:0:
94,22,65935,2,0,B|76:127|76:127|99:164,1,150.000005722046,2|0,0:0|0:0,0:0:0:0:
256,192,66357,5,10,0:0:0:0:
481,353,66569,1,0,0:0:0:0:
332,262,66675,1,0,0:0:0:0:
0,262,66886,1,0,0:0:0:0:
90,210,66992,1,0,0:0:0:0:
180,261,67097,1,0,0:0:0:0:
256,192,67203,5,10,0:0:0:0:
332,261,67308,1,0,0:0:0:0:
422,210,67413,1,0,0:0:0:0:
512,262,67519,1,0,0:0:0:0:
256,344,67625,2,0,B|172:357|172:357|90:329,1,150.000005722046,10|0,0:0|0:0,0:0:0:0:
25,69,67942,2,0,L|99:50,1,75.0000028610231,8|2,0:0|0:0,0:0:0:0:
204,44,68153,1,0,0:0:0:0:
297,93,68259,1,8,0:0:0:0:
392,47,68365,1,0,0:0:0:0:
422,210,68470,6,0,L|416:294,1,75.0000028610231,2|0,0:0|0:0,0:0:0:0:
180,262,68682,2,0,L|192:339,1,75.0000028610231
256,192,68893,5,10,0:0:0:0:
297,93,68998,2,0,L|302:19,2,75.0000028610231
403,106,69316,1,2,0:0:0:0:
435,205,69421,1,0,0:0:0:0:
391,301,69527,1,0,0:0:0:0:
298,349,69632,1,0,0:0:0:0:
256,192,69738,5,10,0:0:0:0:
24,262,69949,1,0,0:0:0:0:
152,353,70055,2,0,B|248:367|248:367|298:349,1,150.000005722046
391,301,70372,1,0,0:0:0:0:
361,201,70478,1,0,0:0:0:0:
256,192,70583,5,10,0:0:0:0:
180,99,70689,2,0,L|276:82,1,75.0000028610231
359,94,70900,1,0,0:0:0:0:
435,22,71005,2,0,B|403:127|403:127|411:173,1,150.000005722046,2|0,0:0|0:0,0:0:0:0:
256,192,71428,5,10,0:0:0:0:
491,324,71639,1,0,0:0:0:0:
489,96,71745,1,0,0:0:0:0:
161,242,71956,1,0,0:0:0:0:
164,135,72062,2,0,L|152:52,1,75.0000028610231
256,192,72273,5,10,0:0:0:0:
256,296,72379,1,0,0:0:0:0:
347,244,72484,2,0,L|366:155,1,75.0000028610231
384,36,72696,2,0,L|304:56,1,75.0000028610231,2|0,0:0|0:0,0:0:0:0:
92,341,72907,2,0,L|190:350,1,75.0000028610231
256,192,73118,5,10,0:0:0:0:
23,255,73329,1,0,0:0:0:0:
22,28,73435,2,0,B|103:47|103:47|168:107,1,150.000005722046
162,367,73752,2,0,L|92:341,1,75.0000028610231
256,192,73963,5,10,0:0:0:0:
347,244,74069,1,0,0:0:0:0:
346,139,74175,1,0,0:0:0:0:
438,190,74280,1,0,0:0:0:0:
322,366,74386,2,0,L|240:354,1,75.0000028610231,2|0,0:0|0:0,0:0:0:0:
73,301,74597,1,0,0:0:0:0:
161,242,74703,1,8,0:0:0:0:
154,35,74808,2,0,L|115:109,1,75.0000028610231,2|0,0:0|0:0,0:0:0:0:
455,363,75020,2,0,L|432:267,1,75.0000028610231
144,362,75231,5,6,0:0:0:0:
332,215,75442,2,0,L|343:156,1,50
84,52,75759,1,0,0:0:0:0:
141,11,75865,1,0,0:0:0:0:
212,17,75970,1,0,0:0:0:0:
268,58,76076,1,2,0:0:0:0:
281,127,76182,1,0,0:0:0:0:
270,197,76288,1,0,0:0:0:0:
284,265,76393,1,0,0:0:0:0:
345,299,76498,1,0,0:0:0:0:
413,279,76604,1,0,0:0:0:0:
454,221,76710,1,0,0:0:0:0:
443,152,76815,1,0,0:0:0:0:
392,103,76921,5,2,0:0:0:0:
129,197,77132,2,0,L|143:246,1,50
359,201,77449,1,0,0:0:0:0:
427,183,77555,1,0,0:0:0:0:
483,224,77660,1,0,0:0:0:0:
496,293,77766,1,2,0:0:0:0:
464,357,77872,1,0,0:0:0:0:
395,370,77978,1,0,0:0:0:0:
335,335,78083,1,0,0:0:0:0:
268,309,78189,1,0,0:0:0:0:
198,317,78294,1,0,0:0:0:0:
131,340,78400,1,0,0:0:0:0:
63,323,78505,1,0,0:0:0:0:
11,275,78611,5,2,0:0:0:0:
314,198,78822,2,0,L|361:213,1,50
339,33,79139,1,0,0:0:0:0:
268,36,79245,1,0,0:0:0:0:
209,73,79350,1,0,0:0:0:0:
177,135,79456,1,2,0:0:0:0:
206,198,79562,1,0,0:0:0:0:
219,266,79668,1,0,0:0:0:0:
201,333,79773,1,0,0:0:0:0:
134,352,79879,1,0,0:0:0:0:
66,343,79984,1,0,0:0:0:0:
23,289,80090,1,0,0:0:0:0:
23,219,80196,1,0,0:0:0:0:
55,158,80301,5,2,0:0:0:0:
267,60,80513,2,0,L|216:15,1,50
220,266,80829,1,0,0:0:0:0:
248,331,80935,1,0,0:0:0:0:
312,361,81041,1,0,0:0:0:0:
381,346,81146,2,0,L|450:333,1,50,2|0,0:0|0:0,0:0:0:0:
435,227,81358,1,0,0:0:0:0:
399,166,81463,2,0,L|360:110,1,50
265,167,81674,1,0,0:0:0:0:
198,150,81780,2,0,L|154:97,1,50
187,18,81991,5,2,0:0:0:0:
366,151,82203,2,0,L|390:86,1,50
62,33,82519,1,0,0:0:0:0:
36,98,82625,1,0,0:0:0:0:
36,168,82730,1,0,0:0:0:0:
54,236,82836,1,2,0:0:0:0:
95,294,82942,1,0,0:0:0:0:
160,323,83048,1,0,0:0:0:0:
230,327,83153,1,0,0:0:0:0:
298,309,83259,1,0,0:0:0:0:
330,246,83364,1,0,0:0:0:0:
306,180,83470,1,0,0:0:0:0:
238,161,83575,1,0,0:0:0:0:
189,212,83682,5,2,0:0:0:0:
31,365,83893,2,0,L|9:307,1,50
170,85,84210,1,0,0:0:0:0:
225,40,84316,1,0,0:0:0:0:
294,33,84421,1,0,0:0:0:0:
361,52,84527,1,2,0:0:0:0:
417,94,84633,1,0,0:0:0:0:
447,158,84738,1,0,0:0:0:0:
449,228,84844,1,0,0:0:0:0:
430,295,84949,1,0,0:0:0:0:
375,341,85055,1,0,0:0:0:0:
307,360,85161,1,0,0:0:0:0:
238,352,85266,1,0,0:0:0:0:
176,319,85372,5,2,0:0:0:0:
278,123,85583,2,0,L|307:173,1,50
509,359,85900,1,0,0:0:0:0:
480,273,86006,1,0,0:0:0:0:
422,204,86111,1,0,0:0:0:0:
343,158,86217,1,2,0:0:0:0:
256,136,86323,1,0,0:0:0:0:
169,158,86428,1,0,0:0:0:0:
90,204,86534,1,0,0:0:0:0:
32,273,86639,1,0,0:0:0:0:
3,359,86745,1,0,0:0:0:0:
93,345,86851,2,0,L|154:321,1,50
256,272,87062,6,0,L|188:184,1,100,2|0,0:0|0:0,0:0:0:0:
120,74,87379,2,0,L|64:103,2,50,0|2|0,0:0|0:0|0:0,0:0:0:0:
213,43,87696,1,0,0:0:0:0:
301,49,87801,1,0,0:0:0:0:
386,81,87907,2,0,L|425:112,1,50,6|0,0:0|0:0,0:0:0:0:
460,250,88119,1,0,0:0:0:0:
358,348,88224,2,0,L|299:372,1,50,0|2,0:0|0:0,0:0:0:0:
168,252,88435,1,0,0:0:0:0:
76,96,88541,2,0,L|121:74,1,50
25,338,88752,5,6,0:0:0:0:
164,164,95090,101,2,0:0:0:0:
232,103,95196,1,0,0:0:0:0:
320,87,95301,1,0,0:0:0:0:
406,116,95407,1,0,0:0:0:0:
477,171,95513,6,0,B|479:229|479:229|473:284|473:284|478:327,1,150,6|0,0:0|0:0,0:0:0:0:
256,192,95935,1,10,0:0:0:0:
100,346,96146,6,0,L|260:363,1,150
356,370,96569,1,0,0:0:0:0:
256,192,96780,5,10,0:0:0:0:
511,310,96991,1,0,0:0:0:0:
449,377,97097,1,0,0:0:0:0:
422,291,97203,1,2,0:0:0:0:
225,107,97520,1,0,0:0:0:0:
256,192,97625,5,10,0:0:0:0:
50,215,97836,2,0,B|29:46,1,150
101,8,98259,1,0,0:0:0:0:
256,192,98470,5,10,0:0:0:0:
434,31,98681,2,0,L|459:87,1,50
326,17,98893,2,0,B|364:113|364:113|355:170,1,150,2|0,0:0|0:0,0:0:0:0:
256,192,99315,5,10,0:0:0:0:
109,356,99526,2,0,L|216:340,1,100,0|2,0:0|0:0,0:0:0:0:
303,375,99843,2,0,L|369:365,1,50
256,192,100160,5,10,0:0:0:0:
11,339,100371,1,0,0:0:0:0:
109,356,100477,1,0,0:0:0:0:
187,295,100583,2,0,B|290:321|290:321|351:297,1,150,2|0,0:0|0:0,0:0:0:0:
256,192,101005,5,10,0:0:0:0:
7,62,101216,1,0,0:0:0:0:
87,105,101322,1,0,0:0:0:0:
183,75,101428,2,0,L|148:18,2,50,10|0|0,0:0|0:0|0:0,0:0:0:0:
322,96,101745,2,0,L|323:33,2,50,8|2|0,0:0|0:0|0:0,0:0:0:0:
429,187,102062,2,0,L|446:135,1,50,8|0,0:0|0:0,0:0:0:0:
451,295,102273,5,2,0:0:0:0:
238,94,102590,1,0,0:0:0:0:
256,192,102695,5,10,0:0:0:0:
88,11,102907,2,0,B|109:117|109:117|141:144,1,150,0|0,0:0|0:0,0:0:0:0:
30,196,103329,1,0,0:0:0:0:
256,192,103540,5,10,0:0:0:0:
498,170,103752,1,0,0:0:0:0:
450,93,103857,1,0,0:0:0:0:
458,256,103963,2,0,B|418:272|418:272|312:259,1,150,2|0,0:0|0:0,0:0:0:0:
256,192,104385,5,10,0:0:0:0:
479,19,104597,1,0,0:0:0:0:
62,268,104914,1,0,0:0:0:0:
33,365,105020,1,0,0:0:0:0:
256,192,105231,5,10,0:0:0:0:
33,365,105442,2,0,L|50:302,1,50
140,190,105653,2,0,B|120:78|120:78|95:48,1,150,2|0,0:0|0:0,0:0:0:0:
256,192,106076,5,10,0:0:0:0:
33,365,106287,2,0,B|12:215,1,150
128,130,106709,1,0,0:0:0:0:
113,41,106815,1,0,0:0:0:0:
256,192,106921,5,10,0:0:0:0:
275,280,107026,1,0,0:0:0:0:
297,368,107132,2,0,L|312:320,1,50
360,189,107343,2,0,B|391:82|391:82|420:58,1,150,2|0,0:0|0:0,0:0:0:0:
256,192,107766,5,10,0:0:0:0:
77,355,107977,1,0,0:0:0:0:
31,276,108083,1,0,0:0:0:0:
78,200,108188,1,10,0:0:0:0:
442,297,108400,1,0,0:0:0:0:
395,373,108505,1,8,0:0:0:0:
401,52,108717,1,0,0:0:0:0:
485,21,108822,1,8,0:0:0:0:
281,295,109033,5,6,0:0:0:0:
281,295,109350,1,0,0:0:0:0:
256,192,109456,5,10,0:0:0:0:
60,367,109667,1,0,0:0:0:0:
300,52,109984,1,0,0:0:0:0:
398,14,110090,1,0,0:0:0:0:
256,192,110301,5,10,0:0:0:0:
60,367,110513,1,0,0:0:0:0:
161,343,110618,1,0,0:0:0:0:
262,316,110723,2,0,B|369:287|369:287|335:266,1,150.000005722046,2|0,0:0|0:0,0:0:0:0:
357,161,111040,1,0,0:0:0:0:
256,192,111146,5,10,0:0:0:0:
1,280,111357,1,0,0:0:0:0:
103,249,111463,1,0,0:0:0:0:
367,314,111674,1,0,0:0:0:0:
466,355,111780,1,0,0:0:0:0:
448,249,111885,1,0,0:0:0:0:
256,192,111991,6,0,L|246:107,1,75.0000028610231,10|0,0:0|0:0,0:0:0:0:
146,146,112202,2,0,L|136:62,1,75.0000028610231,0|0,0:0|0:0,0:0:0:0:
349,84,112414,2,0,L|508:106,1,150.000005722046,2|0,0:0|0:0,0:0:0:0:
359,211,112731,1,0,0:0:0:0:
256,192,112836,5,10,0:0:0:0:
38,27,113048,1,0,0:0:0:0:
139,46,113152,1,0,0:0:0:0:
139,338,113365,1,0,0:0:0:0:
38,357,113469,1,0,0:0:0:0:
256,192,113681,5,10,0:0:0:0:
394,33,113893,1,0,0:0:0:0:
292,13,113997,1,0,0:0:0:0:
325,114,114104,2,0,B|432:91|432:91|423:130,1,150.000005722046,2|0,0:0|0:0,0:0:0:0:
359,211,114421,1,0,0:0:0:0:
256,192,114526,5,10,0:0:0:0:
48,228,114738,1,0,0:0:0:0:
151,247,114843,1,0,0:0:0:0:
254,274,114949,2,0,L|263:348,1,75.0000028610231,10|0,0:0|0:0,0:0:0:0:
130,61,115160,2,0,L|139:135,1,75.0000028610231,0|8,0:0|0:0,0:0:0:0:
412,222,115371,2,0,L|421:296,1,75.0000028610231,2|0,0:0|0:0,0:0:0:0:
282,9,115583,2,0,L|291:83,1,75.0000028610231,8|0,0:0|0:0,0:0:0:0:
459,13,115794,5,2,0:0:0:0:
155,164,116111,1,0,0:0:0:0:
256,192,116216,5,10,0:0:0:0:
140,368,116428,2,0,B|104:328|104:328|235:353|235:353|302:335,1,225.000008583069
375,365,116850,1,0,0:0:0:0:
256,192,117062,5,10,0:0:0:0:
43,26,117273,1,0,0:0:0:0:
34,115,117378,1,0,0:0:0:0:
24,205,117484,1,2,0:0:0:0:
289,370,117695,1,0,0:0:0:0:
273,281,117801,1,0,0:0:0:0:
256,192,117907,5,10,0:0:0:0:
479,37,118118,1,0,0:0:0:0:
436,116,118223,1,0,0:0:0:0:
97,367,118435,1,0,0:0:0:0:
67,282,118540,1,0,0:0:0:0:
256,192,118752,5,10,0:0:0:0:
450,277,118963,1,0,0:0:0:0:
480,363,119069,1,0,0:0:0:0:
391,346,119174,1,2,0:0:0:0:
254,100,119386,1,0,0:0:0:0:
176,147,119491,1,0,0:0:0:0:
256,192,119597,5,10,0:0:0:0:
97,367,119808,1,0,0:0:0:0:
67,282,119914,1,0,0:0:0:0:
22,16,120125,1,0,0:0:0:0:
50,102,120231,1,0,0:0:0:0:
256,192,120442,5,10,0:0:0:0:
462,102,120653,1,0,0:0:0:0:
490,16,120759,1,0,0:0:0:0:
364,123,120865,2,0,B|342:150|342:150|350:206|350:206|289:338,1,225.000008583069,2|0,0:0|0:0,0:0:0:0:
256,192,121287,5,10,0:0:0:0:
507,290,121498,1,0,0:0:0:0:
419,346,121604,1,0,0:0:0:0:
316,328,121710,2,0,B|266:235|266:235|254:178,1,150.000005722046,10|0,0:0|0:0,0:0:0:0:
462,102,122027,2,0,B|331:107|331:107|308:92,1,150.000005722046,8|0,0:0|0:0,0:0:0:0:
243,20,122343,1,8,0:0:0:0:
494,156,122555,6,0,B|507:197|507:197|490:346|490:346|414:322|414:322|425:272,1,300,6|0,0:0|0:0,0:0:0:0:
167,337,123400,2,0,B|103:354|103:354|20:335|20:335|47:393,1,200,2|2,2:0|0:0,0:0:0:0:
117,172,124034,2,0,B|119:129|119:129|70:20|70:20|129:44,1,200
256,192,124667,5,10,0:0:0:0:
313,269,124773,1,0,0:0:0:0:
38,143,124984,1,0,0:0:0:0:
442,122,125195,1,0,0:0:0:0:
381,195,125301,2,0,L|352:155,1,50,4|0,0:0|0:0,0:0:0:0:
256,192,125512,5,14,0:0:0:0:
223,276,125618,1,0,0:0:0:0:
442,122,125935,2,0,B|483:112|483:112|331:86|331:86|210:105,1,300,6|0,0:0|0:0,0:0:0:0:
276,337,126780,2,0,B|396:355|396:355|489:336,1,200,2|2,2:0|0:0,0:0:0:0:
157,292,127414,2,0,B|68:276|68:276|3:294|3:294|63:308,1,200
256,192,128047,5,10,0:0:0:0:
430,359,128259,1,0,0:0:0:0:
512,322,128365,2,0,L|472:269,1,50,0|2,0:0|0:0,0:0:0:0:
102,356,128681,1,0,0:0:0:0:
256,192,128893,5,10,0:0:0:0:
4,311,129104,1,0,0:0:0:0:
365,98,129315,2,0,B|436:70|436:70|414:169|414:169|447:249|447:249|408:238,1,300,6|0,0:0|0:0,0:0:0:0:
98,177,130160,2,0,B|132:39|132:39|152:102,1,200,2|2,2:0|0:0,0:0:0:0:
314,318,130794,2,0,B|333:354|333:354|229:332|229:332|169:358,1,200
256,192,131428,5,10,0:0:0:0:
339,156,131534,1,0,0:0:0:0:
464,360,131745,1,0,0:0:0:0:
88,366,131956,1,0,0:0:0:0:
170,327,132062,2,0,L|229:298,1,50,4|0,0:0|0:0,0:0:0:0:
256,192,132273,5,14,0:0:0:0:
339,156,132378,1,0,0:0:0:0:
55,237,132696,2,0,B|25:279|25:279|165:246|165:246|267:268,1,300,6|0,0:0|0:0,0:0:0:0:
456,118,133540,2,0,B|426:109|426:109|301:127|301:127|278:162,1,200,2|2,2:0|0:0,0:0:0:0:
309,363,134175,2,0,B|355:308|355:308|363:229,1,150
332,143,134597,2,0,L|324:119,2,25
256,192,134808,6,0,L|229:302,1,100,10|0,0:0|0:0,0:0:0:0:
168,141,135125,2,0,L|150:212,1,50,0|6,0:0|0:0,0:0:0:0:
292,338,135442,1,0,0:0:0:0:
379,314,135547,1,0,0:0:0:0:
317,252,135653,1,2,0:0:0:0:
404,228,135759,1,0,0:0:0:0:
340,163,135864,1,0,0:0:0:0:
427,140,135970,1,0,0:0:0:0:
379,315,136076,5,6,0:0:0:0:
169,223,136287,1,0,0:0:0:0:
187,135,136393,1,0,0:0:0:0:
256,192,136498,5,10,0:0:0:0:
272,103,136604,1,0,0:0:0:0:
340,163,136709,1,0,0:0:0:0:
360,77,136815,1,0,0:0:0:0:
444,52,136921,2,0,B|483:91|483:91|497:203,1,150.000005722046,2|0,0:0|0:0,0:0:0:0:
256,192,137343,5,10,0:0:0:0:
74,360,137555,1,0,0:0:0:0:
34,209,137660,1,0,0:0:0:0:
438,83,137871,2,0,L|501:44,2,75.0000028610231
256,192,138188,6,0,L|176:243,1,75.0000028610231,10|0,0:0|0:0,0:0:0:0:
404,201,138400,2,0,L|336:246,1,75.0000028610231
2,79,138611,2,0,B|104:22|104:22|91:79,1,150.000005722046,2|0,0:0|0:0,0:0:0:0:
256,192,139033,5,10,0:0:0:0:
487,333,139245,1,0,0:0:0:0:
404,201,139350,1,0,0:0:0:0:
32,337,139562,1,0,0:0:0:0:
70,229,139667,2,0,L|48:158,1,75.0000028610231
256,192,139878,6,0,L|281:268,1,75.0000028610231,10|0,0:0|0:0,0:0:0:0:
297,32,140090,2,0,L|319:103,1,75.0000028610231
346,371,140301,2,0,B|380:348|380:348|488:333,1,150.000005722046,2|0,0:0|0:0,0:0:0:0:
256,192,140723,5,10,0:0:0:0:
480,49,140935,1,0,0:0:0:0:
298,33,141040,1,0,0:0:0:0:
123,365,141252,1,0,0:0:0:0:
280,336,141357,2,0,L|209:285,1,75.0000028610231
256,192,141569,6,0,L|185:141,1,75.0000028610231,10|0,0:0|0:0,0:0:0:0:
130,231,141780,2,0,L|59:180,1,75.0000028610231
116,92,141991,1,10,0:0:0:0:
417,42,142203,1,0,0:0:0:0:
382,235,142308,2,0,L|311:184,1,75.0000028610231,8|2,0:0|0:0,0:0:0:0:
283,94,142520,1,0,0:0:0:0:
229,282,142625,2,0,L|158:231,1,75.0000028610231,8|0,0:0|0:0,0:0:0:0:
107,51,142836,5,2,0:0:0:0:
207,22,142941,1,0,0:0:0:0:
183,124,143047,1,0,0:0:0:0:
283,95,143152,1,0,0:0:0:0:
256,192,143259,5,10,0:0:0:0:
356,163,143364,1,0,0:0:0:0:
336,266,143470,1,0,0:0:0:0:
436,237,143575,1,0,0:0:0:0:
416,340,143681,2,0,L|496:326,1,75.0000028610231,2|0,0:0|0:0,0:0:0:0:
460,48,143892,2,0,L|380:62,1,75.0000028610231
256,192,144104,5,10,0:0:0:0:
57,254,144315,1,0,0:0:0:0:
107,50,144421,2,0,B|145:142|145:142|151:193,1,150.000005722046
19,73,144738,2,0,L|53:157,1,75.0000028610231
256,192,144949,5,10,0:0:0:0:
294,290,145055,1,0,0:0:0:0:
210,356,145160,1,0,0:0:0:0:
122,296,145266,1,0,0:0:0:0:
151,193,145372,2,0,B|108:157|108:157|-5:169,1,150.000005722046,2|0,0:0|0:0,0:0:0:0:
256,192,145794,5,10,0:0:0:0:
474,208,146005,1,0,0:0:0:0:
315,69,146111,1,0,0:0:0:0:
20,248,146322,1,0,0:0:0:0:
105,344,146428,2,0,L|4:355,1,75.0000028610231
256,192,146639,6,0,L|297:98,1,75.0000028610231,10|0,0:0|0:0,0:0:0:0:
76,138,146850,2,0,L|-25:149,1,75.0000028610231
227,260,147062,2,0,L|268:166,1,75.0000028610231,2|0,0:0|0:0,0:0:0:0:
61,283,147273,2,0,L|121:365,1,75.0000028610231,0|0,0:0|0:0,0:0:0:0:
256,192,147484,5,10,0:0:0:0:
479,65,147695,1,0,0:0:0:0:
372,239,147801,2,0,B|269:269|269:269|199:254,1,150.000005722046
316,16,148118,2,0,L|406:40,1,75.0000028610231
256,192,148329,5,10,0:0:0:0:
162,240,148435,1,0,0:0:0:0:
186,342,148540,1,0,0:0:0:0:
291,350,148646,1,0,0:0:0:0:
337,255,148752,2,0,L|424:239,2,75.0000028610231,10|0|0,0:0|0:0|0:0,0:0:0:0:
256,192,149069,1,8,0:0:0:0:
185,62,149174,2,0,L|166:140,1,75.0000028610231,2|0,0:0|0:0,0:0:0:0:
371,73,149386,2,0,L|352:151,1,75.0000028610231,0|0,0:0|0:0,0:0:0:0:
162,240,149597,5,6,0:0:0:0:
509,143,149808,2,0,L|486:55,1,75.0000028610231
256,192,150019,5,10,0:0:0:0:
248,300,150125,2,0,L|297:374,2,75.0000028610231
152,345,150442,1,2,0:0:0:0:
455,357,150653,1,0,0:0:0:0:
256,192,150864,5,10,0:0:0:0:
70,284,151075,1,0,0:0:0:0:
153,122,151182,2,0,B|199:38|199:38|248:16,1,150.000005722046
353,7,151498,1,0,0:0:0:0:
304,99,151604,1,0,0:0:0:0:
256,192,151709,5,10,0:0:0:0:
208,285,151815,1,0,0:0:0:0:
159,377,151921,1,0,0:0:0:0:
57,350,152026,2,0,L|2:299,1,75.0000028610231,0|2,0:0|0:0,0:0:0:0:
25,54,152344,1,0,0:0:0:0:
256,192,152554,5,10,0:0:0:0:
25,54,152766,1,0,0:0:0:0:
176,95,152872,1,0,0:0:0:0:
200,363,153083,1,0,0:0:0:0:
304,363,153188,1,0,0:0:0:0:
336,261,153294,1,0,0:0:0:0:
256,192,153400,5,10,0:0:0:0:
337,118,153505,2,0,L|405:54,1,75.0000028610231
271,37,153716,1,0,0:0:0:0:
169,68,153822,2,0,B|67:41|67:41|24:55,1,150.000005722046,2|0,0:0|0:0,0:0:0:0:
256,192,154244,5,10,0:0:0:0:
15,165,154456,1,0,0:0:0:0:
35,345,154562,1,0,0:0:0:0:
459,241,154773,1,0,0:0:0:0:
398,328,154879,1,0,0:0:0:0:
354,232,154984,1,0,0:0:0:0:
256,192,155090,5,10,0:0:0:0:
158,232,155196,1,0,0:0:0:0:
114,328,155301,1,0,0:0:0:0:
53,241,155407,1,0,0:0:0:0:
184,69,155512,2,0,B|256:48|256:48|328:69,1,150.000005722046,10|0,0:0|0:0,0:0:0:0:
499,125,155829,2,0,L|425:100,1,75.0000028610231,8|2,0:0|0:0,0:0:0:0:
357,182,156040,1,0,0:0:0:0:
256,152,156146,1,8,0:0:0:0:
155,182,156252,1,0,0:0:0:0:
73,106,156357,6,0,L|67:31,1,75.0000028610231,2|0,0:0|0:0,0:0:0:0:
357,182,156569,2,0,L|368:107,1,75.0000028610231
256,192,156780,5,10,0:0:0:0:
193,275,156885,2,0,L|211:350,2,75.0000028610231
304,355,157203,1,2,0:0:0:0:
395,304,157308,1,0,0:0:0:0:
429,204,157414,1,0,0:0:0:0:
393,105,157519,1,0,0:0:0:0:
256,192,157625,5,10,0:0:0:0:
499,125,157836,1,0,0:0:0:0:
396,305,157942,2,0,B|300:319|300:319|250:301,1,150.000005722046
157,348,158259,1,0,0:0:0:0:
163,243,158365,1,0,0:0:0:0:
256,192,158470,5,10,0:0:0:0:
361,171,158576,2,0,L|429:204,1,75.0000028610231
505,282,158787,1,0,0:0:0:0:
396,305,158893,2,0,B|300:319|300:319|250:301,1,150.000005722046,2|0,0:0|0:0,0:0:0:0:
256,192,159315,5,10,0:0:0:0:
70,297,159526,1,0,0:0:0:0:
98,81,159632,1,0,0:0:0:0:
430,179,159843,1,0,0:0:0:0:
375,89,159949,2,0,L|276:97,1,75.0000028610231
256,192,160160,5,10,0:0:0:0:
151,197,160266,1,0,0:0:0:0:
45,204,160371,2,0,L|19:117,1,75.0000028610231
178,32,160583,2,0,L|200:111,1,75.0000028610231,2|0,0:0|0:0,0:0:0:0:
89,370,160794,2,0,L|69:298,1,75.0000028610231
256,192,161005,5,10,0:0:0:0:
506,300,161216,1,0,0:0:0:0:
284,286,161322,2,0,B|334:332|334:332|415:351,1,150.000005722046
450,213,161639,2,0,L|379:237,1,75.0000028610231
256,192,161850,5,10,0:0:0:0:
165,244,161956,1,0,0:0:0:0:
345,33,162062,1,0,0:0:0:0:
254,85,162167,1,0,0:0:0:0:
348,138,162273,2,0,L|434:116,1,75.0000028610231,2|0,0:0|0:0,0:0:0:0:
437,301,162484,1,0,0:0:0:0:
348,244,162590,1,8,0:0:0:0:
35,258,162696,2,0,L|52:185,1,75.0000028610231,2|0,0:0|0:0,0:0:0:0:
478,164,162907,2,0,L|406:185,1,75.0000028610231
245,371,163118,5,6,0:0:0:0:
97,268,163329,2,0,L|112:208,1,50
291,60,163646,1,0,0:0:0:0:
226,88,163752,1,0,0:0:0:0:
196,153,163857,1,0,0:0:0:0:
204,222,163963,1,2,0:0:0:0:
257,268,164069,1,0,0:0:0:0:
327,278,164175,1,0,0:0:0:0:
395,256,164280,1,0,0:0:0:0:
427,194,164385,1,0,0:0:0:0:
394,131,164491,1,0,0:0:0:0:
419,65,164597,1,0,0:0:0:0:
479,31,164702,1,0,0:0:0:0:
479,101,164808,5,2,0:0:0:0:
311,182,165019,2,0,L|321:117,1,50
357,310,165336,1,0,0:0:0:0:
303,355,165442,1,0,0:0:0:0:
232,354,165547,1,0,0:0:0:0:
178,308,165653,1,2,0:0:0:0:
162,238,165759,1,0,0:0:0:0:
164,167,165865,1,0,0:0:0:0:
114,118,165970,1,0,0:0:0:0:
44,122,166076,1,0,0:0:0:0:
9,183,166181,1,0,0:0:0:0:
31,250,166287,1,0,0:0:0:0:
98,266,166392,1,0,0:0:0:0:
162,238,166498,5,2,0:0:0:0:
342,224,166709,2,0,L|295:239,1,50
411,52,167026,1,0,0:0:0:0:
341,47,167132,1,0,0:0:0:0:
279,81,167237,1,0,0:0:0:0:
247,143,167343,1,2,0:0:0:0:
195,191,167449,1,0,0:0:0:0:
124,197,167555,1,0,0:0:0:0:
63,164,167660,1,0,0:0:0:0:
46,96,167766,1,0,0:0:0:0:
76,33,167871,1,0,0:0:0:0:
145,13,167977,1,0,0:0:0:0:
193,65,168083,1,0,0:0:0:0:
137,107,168188,5,2,0:0:0:0:
109,327,168400,2,0,L|160:282,1,50
421,346,168716,1,0,0:0:0:0:
352,329,168822,1,0,0:0:0:0:
311,271,168928,1,0,0:0:0:0:
314,201,169033,2,0,L|343:140,1,50,2|0,0:0|0:0,0:0:0:0:
461,89,169245,1,0,0:0:0:0:
472,158,169350,2,0,L|433:214,1,50
205,141,169561,1,0,0:0:0:0:
207,71,169667,2,0,L|257:20,1,50
363,21,169878,5,2,0:0:0:0:
94,103,170090,2,0,L|70:38,1,50
106,276,170407,1,0,0:0:0:0:
120,345,170513,1,0,0:0:0:0:
183,375,170619,1,0,0:0:0:0:
246,347,170724,1,2,0:0:0:0:
263,279,170830,1,0,0:0:0:0:
221,223,170935,1,0,0:0:0:0:
150,220,171041,1,0,0:0:0:0:
98,173,171146,1,0,0:0:0:0:
94,103,171251,1,0,0:0:0:0:
139,49,171357,1,0,0:0:0:0:
209,43,171462,1,0,0:0:0:0:
268,83,171569,5,2,0:0:0:0:
409,327,171780,2,0,L|431:269,1,50
307,24,172097,1,0,0:0:0:0:
377,15,172203,1,0,0:0:0:0:
425,66,172309,1,0,0:0:0:0:
418,135,172414,1,2,0:0:0:0:
359,172,172520,1,0,0:0:0:0:
293,149,172625,1,0,0:0:0:0:
268,83,172731,1,0,0:0:0:0:
198,95,172836,1,0,0:0:0:0:
189,164,172942,1,0,0:0:0:0:
218,229,173048,1,0,0:0:0:0:
279,263,173153,1,0,0:0:0:0:
347,280,173259,5,2,0:0:0:0:
81,194,173470,2,0,L|81:140,1,50
420,130,173787,1,0,0:0:0:0:
453,215,173893,1,0,0:0:0:0:
407,292,173998,1,0,0:0:0:0:
318,305,174104,1,2,0:0:0:0:
252,243,174210,1,0,0:0:0:0:
260,153,174315,1,0,0:0:0:0:
192,93,174421,1,0,0:0:0:0:
102,105,174527,1,0,0:0:0:0:
56,182,174633,1,0,0:0:0:0:
87,266,174738,2,0,L|155:294,1,50
252,243,174949,6,0,B|272:222|272:222|259:142,1,100,2|0,0:0|0:0,0:0:0:0:
349,65,175266,2,0,L|364:9,2,50,0|2|0,0:0|0:0|0:0,0:0:0:0:
448,80,175583,1,0,0:0:0:0:
383,160,175688,1,0,0:0:0:0:
428,250,175794,2,0,L|446:306,1,50,6|0,0:0|0:0,0:0:0:0:
252,243,176005,1,0,0:0:0:0:
251,54,176111,2,0,L|211:22,1,50,0|2,0:0|0:0,0:0:0:0:
56,182,176322,1,0,0:0:0:0:
183,369,176428,2,0,L|246:373,1,50
448,80,176639,5,6,0:0:0:0:
126,238,182977,102,0,L|155:292,1,50,2|0,0:0|0:0,0:0:0:0:
225,150,183189,2,0,L|231:218,1,50
345,119,183400,5,6,0:0:0:0:
