osu file format v12

[General]
AudioFilename: hisouten.mp3
AudioLeadIn: 0
PreviewTime: 54511
Countdown: 0
SampleSet: Soft
StackLeniency: 0.7
Mode: 0
LetterboxInBreaks: 0
EpilepsyWarning: 1
WidescreenStoryboard: 0

[Editor]
DistanceSpacing: 0.5
BeatDivisor: 4
GridSize: 4

[Metadata]
Title:Sky of Scarlet Perception
TitleUnicode:緋想天
Artist:Akiyama Uni
ArtistUnicode:あきやま うに
Creator:Hollow Wings
Version:Normal
Source:Touhou
Tags:th10.5 fxt Tasofro Twilight Frontier 黄昏フロンティア U2 zun Scarlet Weather Rhapsody hisouten Jun
BeatmapID:258788
BeatmapSetID:96338

[Difficulty]
HPDrainRate:3
CircleSize:3
OverallDifficulty:4
ApproachRate:5
SliderMultiplier:1
SliderTickRate:2

[Events]
//Background and Video events
0,0,"diy-hisouten.jpg",0,0
//Break Periods
//Storyboard Layer 0 (Background)
//Storyboard Layer 1 (Fail)
//Storyboard Layer 2 (Pass)
//Storyboard Layer 3 (Foreground)
//Storyboard Sound Samples
//Background Colour Transformations
3,100,163,162,255

[TimingPoints]
2326,434.782608695652,3,2,1,40,1,0
12760,-100,3,2,1,30,0,0
23195,-100,3,2,1,60,0,0
25369,-100,3,2,1,50,0,0
26239,-100,3,2,1,60,0,0
32760,-100,3,2,1,80,0,0
54065,-100,3,2,1,90,0,0
54499,-100,3,2,1,100,0,1
96239,-100,3,2,1,55,0,0
113195,454.545454545455,3,2,1,50,1,0
114558,476.190476190476,3,2,1,50,1,0
116008,434.782608695652,3,2,1,30,1,0

[Colours]
Combo1 : 240,222,0
Combo2 : 223,32,32

[HitObjects]
127,49,2326,2,0,P|78:79|46:126,1,100,6|0,0:0|0:0,0:0:0:0:
73,210,3195,2,0,P|123:236|180:241,1,100
240,175,4065,2,0,P|237:118|213:66,1,100
306,25,4934,6,0,P|342:46|378:90,2,100,4|0|0,0:0|0:0|0:0,0:0:0:0:
206,25,6239,2,0,P|169:46|133:90,2,100
228,123,7543,6,0,P|213:163|214:220,1,100,6|0,0:0|0:0,0:0:0:0:
309,187,8412,2,0,P|313:229|337:280,1,100
410,211,9282,2,0,P|440:240|492:264,1,100
442,351,10152,6,0,B|398:375|398:375|337:366,2,100,4|4|0,0:0|0:0|0:0,0:0:0:0:
492,264,11456,2,0,B|480:216|480:216|434:174,2,100
405,313,12760,5,6,0:0:0:0:
304,321,13195,2,0,L|214:266,1,100
133,218,14065,1,0,0:0:0:0:
221,169,14499,2,0,L|312:224,1,100
392,272,15369,5,2,0:0:0:0:
394,172,15804,2,0,L|305:119,1,100
306,221,16673,1,0,0:0:0:0:
220,169,17108,1,0,0:0:0:0:
222,69,17543,1,0,0:0:0:0:
308,120,17978,5,6,0:0:0:0:
306,221,18412,2,0,L|217:270,1,100
133,218,19282,1,0,0:0:0:0:
221,169,19717,2,0,L|308:222,1,100
219,269,20586,5,4,0:0:0:0:
304,321,21021,2,0,L|391:273,1,100,4|0,0:0|0:0,0:0:0:0:
306,221,21891,1,0,0:0:0:0:
308,120,22325,1,0,0:0:0:0:
228,61,22760,1,2,0:0:0:0:
202,159,23195,6,0,P|327:304|308:120,1,500,6|0,0:0|0:0,0:0:0:0:
253,38,25804,1,0,0:0:0:0:
352,26,26239,1,0,0:0:0:0:
423,96,26673,6,0,P|441:137|439:193,1,100
242,221,27978,2,0,P|221:169|224:124,1,100,0|6,0:0|0:0,0:0:0:0:
400,31,29282,1,0,0:0:0:0:
448,119,29717,2,0,B|415:188|451:268|451:268|367:278|331:357|331:357|266:298|181:331|181:331|172:258|116:222,1,600
128,126,32760,5,0,0:0:0:0:
210,69,33195,1,0,0:0:0:0:
309,55,33630,5,6,0:0:0:0:
392,111,34065,2,0,P|427:203|390:306,1,200,0|4,0:0|0:0,0:0:0:0:
312,348,35369,2,0,P|277:256|314:153,1,200,4|6,0:0|0:0,0:0:0:0:
274,68,36673,5,0,0:0:0:0:
176,46,37108,1,0,0:0:0:0:
128,134,37543,1,4,0:0:0:0:
201,203,37978,1,4,0:0:0:0:
293,164,38412,1,0,0:0:0:0:
333,256,38847,6,0,P|377:273|427:263,1,100,6|0,0:0|0:0,0:0:0:0:
387,171,39717,2,0,P|341:152|293:164,1,100,0|0,0:0|0:0,0:0:0:0:
200,197,40586,2,0,P|148:192|107:157,1,100
26,105,41456,1,0,0:0:0:0:
218,56,42325,5,0,0:0:0:0:
318,56,42760,1,0,0:0:0:0:
408,100,43195,1,0,0:0:0:0:
460,185,43630,1,0,0:0:0:0:
368,224,44065,6,0,P|351:265|352:320,1,100,6|0,0:0|0:0,0:0:0:0:
443,280,44934,2,0,P|461:240|460:185,1,100,4|4,0:0|0:0,0:0:0:0:
368,224,45804,1,0,0:0:0:0:
277,268,46239,1,0,0:0:0:0:
195,325,46673,6,0,P|146:298|117:257,1,100,6|0,0:0|0:0,0:0:0:0:
133,164,47543,2,0,P|181:190|210:231,1,100,4|4,0:0|0:0,0:0:0:0:
297,179,48412,1,0,0:0:0:0:
240,95,48847,1,0,0:0:0:0:
327,46,49282,6,0,P|378:25|428:29,1,100,6|0,0:0|0:0,0:0:0:0:
490,98,50152,2,0,P|439:119|388:116,1,100,4|4,0:0|0:0,0:0:0:0:
298,94,51021,1,4,0:0:0:0:
325,190,51456,1,4,0:0:0:0:
256,192,51891,12,0,53195,0:0:0:0:
456,110,54065,5,12,0:0:0:0:
453,210,54499,1,6,0:0:0:0:
394,291,54934,6,0,B|356:320|356:320|305:324,1,100,4|8,0:0|0:0,0:0:0:0:
205,311,55804,1,4,0:0:0:0:
124,251,56239,2,0,B|91:216|91:216|81:165,1,100,4|8,0:0|0:0,0:0:0:0:
96,66,57108,5,6,0:0:0:0:
182,14,57543,1,4,0:0:0:0:
247,204,58412,1,4,0:0:0:0:
154,381,59282,5,8,0:0:0:0:
94,301,59717,1,6,0:0:0:0:
79,201,60152,2,0,B|88:150|88:150|121:115,1,100,4|8,0:0|0:0,0:0:0:0:
203,56,61021,5,4,0:0:0:0:
303,43,61456,2,0,B|354:46|354:46|392:76,1,100,4|8,0:0|0:0,0:0:0:0:
451,157,62326,1,6,0:0:0:0:
463,256,62760,2,0,P|371:296|277:269,1,200,4|0,0:0|0:0,0:0:0:0:
187,227,64065,5,12,0:0:0:0:
194,127,64499,1,12,0:0:0:0:
194,127,64934,6,0,B|240:147|240:147|288:139,1,100,6|4,0:0|0:0,0:0:0:0:
390,148,65804,1,8,0:0:0:0:
333,229,66239,2,0,B|291:259|291:259|275:304,1,100,4|4,0:0|0:0,0:0:0:0:
214,384,67108,1,8,0:0:0:0:
175,293,67543,6,0,B|169:242|169:242|138:205,1,100,6|4,0:0|0:0,0:0:0:0:
55,146,68412,1,8,0:0:0:0:
77,48,68847,2,0,P|128:80|152:120,1,100,4|0,0:0|0:0,0:0:0:0:
32,272,70152,6,0,B|83:275|83:275|121:305,1,100,4|0,0:0|0:0,0:0:0:0:
153,210,71021,1,0,0:0:0:0:
188,116,71456,2,0,B|230:144|230:144|248:189,1,100,4|4,0:0|0:0,0:0:0:0:
341,151,72325,1,8,0:0:0:0:
423,93,72760,6,0,B|445:139|445:139|438:186,1,100,4|0,0:0|0:0,0:0:0:0:
417,285,73630,1,6,0:0:0:0:
330,335,74065,1,4,0:0:0:0:
31,344,75368,5,6,0:0:0:0:
20,245,75804,2,0,B|71:248|71:248|109:278,1,100,4|8,0:0|0:0,0:0:0:0:
209,262,76673,1,4,0:0:0:0:
155,178,77108,2,0,B|117:148|117:148|66:145,1,100,4|8,0:0|0:0,0:0:0:0:
58,45,77977,5,4,0:0:0:0:
157,58,78412,1,4,0:0:0:0:
194,255,79282,1,4,0:0:0:0:
383,324,80152,5,0,0:0:0:0:
479,353,80586,1,6,0:0:0:0:
451,256,81021,2,0,B|409:280|409:280|383:324,1,100,4|8,0:0|0:0,0:0:0:0:
291,285,81891,5,4,0:0:0:0:
198,248,82326,2,0,B|201:196|201:196|231:159,1,100,4|8,0:0|0:0,0:0:0:0:
285,75,83195,1,4,0:0:0:0:
328,163,83630,2,0,P|239:162|192:71,1,200,12|8,0:0|0:0,0:0:0:0:
97,103,84934,5,12,0:0:0:0:
26,174,85369,1,12,0:0:0:0:
122,199,85804,6,0,B|168:219|168:219|216:211,1,100,6|4,0:0|0:0,0:0:0:0:
254,118,86673,1,8,0:0:0:0:
316,196,87108,2,0,B|274:226|274:226|258:271,1,100,4|4,0:0|0:0,0:0:0:0:
310,357,87977,1,0,0:0:0:0:
210,360,88412,6,0,B|176:328|176:328|173:272,1,100,6|4,0:0|0:0,0:0:0:0:
171,171,89282,1,8,0:0:0:0:
236,92,89717,2,0,P|323:73|411:134,1,200,12|8,0:0|0:0,0:0:0:0:
438,229,91021,6,0,B|432:279|432:279|401:316,1,100,6|0,0:0|0:0,0:0:0:0:
301,332,91891,1,8,0:0:0:0:
201,329,92325,2,0,B|159:298|159:298|143:253,1,100,4|4,0:0|0:0,0:0:0:0:
173,156,93195,1,0,0:0:0:0:
232,74,93630,6,0,B|278:53|278:53|326:61,1,100,4|0,0:0|0:0,0:0:0:0:
405,124,94499,1,6,0:0:0:0:
400,224,94934,1,4,0:0:0:0:
207,272,95804,5,0,0:0:0:0:
207,272,96239,2,0,B|170:226|170:226|296:208|253:37,1,300,4|0,0:0|0:0,0:0:0:0:
158,68,97978,5,0,0:0:0:0:
252,36,98412,1,0,0:0:0:0:
345,77,98847,1,2,0:0:0:0:
345,77,99282,2,0,P|373:125|378:175,1,100
366,268,100152,1,0,0:0:0:0:
366,268,100586,2,0,P|358:320|320:360,1,100
269,274,101456,6,0,B|254:245|217:233|217:233|215:168|179:108,1,200,6|0,0:0|0:0,0:0:0:0:
179,108,102760,1,0,0:0:0:0:
259,48,103195,1,0,0:0:0:0:
288,144,103630,1,0,0:0:0:0:
348,224,104065,1,6,0:0:0:0:
444,258,104499,2,0,P|449:214|433:161,1,100
257,248,105804,5,0,0:0:0:0:
179,311,106239,1,0,0:0:0:0:
95,367,106673,2,0,P|109:243|256:248,1,300,6|0,0:0|0:0,0:0:0:0:
346,206,108412,5,0,0:0:0:0:
292,122,108847,1,0,0:0:0:0:
213,60,109282,1,6,0:0:0:0:
213,60,109717,2,0,P|254:25|311:27,1,100
378,80,110586,1,0,0:0:0:0:
378,80,111021,2,0,P|344:111|292:122,1,100
323,217,111891,6,0,P|229:207|188:119,1,200,6|0,2:0|0:0,0:0:0:0:
251,42,113195,1,0,0:0:0:0:
297,130,113649,1,0,0:0:0:0:
257,222,114104,1,0,0:0:0:0:
257,222,114558,6,0,P|216:197|197:148,1,100,2|0,0:0|0:0,0:0:0:0:
210,61,115510,2,0,P|246:26|294:17,1,100,0|2,0:0|0:0,0:0:0:0:
