osu file format v12

[General]
AudioFilename: hisouten.mp3
AudioLeadIn: 0
PreviewTime: 54511
Countdown: 0
SampleSet: Soft
StackLeniency: 0.7
Mode: 0
LetterboxInBreaks: 0
EpilepsyWarning: 1
WidescreenStoryboard: 0

[Editor]
DistanceSpacing: 0.5
BeatDivisor: 4
GridSize: 4

[Metadata]
Title:Sky of Scarlet Perception
TitleUnicode:緋想天
Artist:Akiyama Uni
ArtistUnicode:あきやま うに
Creator:Hollow Wings
Version:Insane
Source:Touhou
Tags:th10.5 fxt Tasofro Twilight Frontier 黄昏フロンティア U2 zun Scarlet Weather Rhapsody hisouten Jun
BeatmapID:260008
BeatmapSetID:96338

[Difficulty]
HPDrainRate:6
CircleSize:4
OverallDifficulty:7
ApproachRate:8
SliderMultiplier:1.6
SliderTickRate:2

[Events]
//Background and Video events
0,0,"diy-hisouten.jpg",0,0
//Break Periods
//Storyboard Layer 0 (Background)
//Storyboard Layer 1 (Fail)
//Storyboard Layer 2 (Pass)
//Storyboard Layer 3 (Foreground)
//Storyboard Sound Samples
//Background Colour Transformations
3,100,163,162,255

[TimingPoints]
2326,434.782608695652,3,2,1,25,1,0
10152,-100,3,2,1,30,0,0
12760,-100,3,2,1,25,0,0
23195,-100,3,2,1,40,0,0
30152,-100,3,2,1,35,0,0
32760,-100,3,2,1,75,0,0
40152,-200,3,2,1,75,0,0
41456,-200,3,2,1,30,0,0
41673,-100,3,2,1,60,0,0
43086,-100,3,2,1,10,0,0
43195,-100,3,2,1,60,0,0
43521,-100,3,2,1,10,0,0
43630,-100,3,2,1,60,0,0
43956,-100,3,2,1,10,0,0
44065,-100,3,2,1,60,0,0
44391,-100,3,2,1,10,0,0
44499,-100,3,2,1,60,0,0
44825,-100,3,2,1,10,0,0
44934,-100,3,2,1,60,0,0
46999,-100,3,2,1,10,0,0
47108,-100,3,2,1,60,0,0
47434,-100,3,2,1,10,0,0
47543,-100,3,2,1,60,0,0
47869,-100,3,2,1,10,0,0
47978,-100,3,2,1,60,0,0
49608,-100,3,2,1,10,0,0
49717,-100,3,2,1,60,0,0
50043,-100,3,2,1,10,0,0
50152,-100,3,2,1,60,0,0
50478,-100,3,2,1,10,0,0
50586,-100,3,2,1,60,0,0
50912,-100,3,2,1,10,0,0
51021,-100,3,2,1,60,0,0
51999,-100,3,2,1,10,0,0
52108,-100,3,2,1,40,0,0
52217,-100,3,2,1,30,0,0
52543,-100,3,2,1,50,0,0
53195,-100,3,2,1,70,0,0
53304,-100,3,2,1,50,0,0
53847,-100,3,2,1,80,0,0
54065,-66.6666666666667,3,2,1,100,0,0
54499,-66.6666666666667,3,2,1,100,0,1
70260,-66.6666666666667,3,2,1,50,0,1
70804,-66.6666666666667,3,2,1,100,0,1
71565,-66.6666666666667,3,2,1,50,0,1
72108,-66.6666666666667,3,2,1,100,0,1
72869,-66.6666666666667,3,2,1,50,0,1
73412,-66.6666666666667,3,2,1,75,0,1
74173,-66.6666666666667,3,2,1,50,0,1
74499,-66.6666666666667,3,2,1,75,0,1
74934,-66.6666666666667,3,2,1,100,0,1
91456,-66.6666666666667,3,2,1,20,0,1
91673,-66.6666666666667,3,2,1,100,0,1
94065,-200,3,2,1,100,0,1
94173,-200,3,2,1,50,0,1
94499,-200,3,2,1,100,0,1
94608,-200,3,2,1,75,0,1
94934,-200,3,2,1,100,0,1
95043,-200,3,2,1,50,0,1
95152,-200,3,2,1,100,0,1
95260,-200,3,2,1,75,0,1
95369,-200,3,2,1,100,0,1
95586,-200,3,2,1,60,0,1
95804,-200,3,2,1,30,0,1
96239,-200,3,2,1,50,0,0
103086,-200,3,2,1,10,0,0
103195,-200,3,2,1,50,0,0
103521,-200,3,2,1,10,0,0
103630,-200,3,2,1,50,0,0
103956,-200,3,2,1,10,0,0
104065,-200,3,2,1,50,0,0
113195,454.545454545455,3,2,1,40,1,0
113195,-200,3,2,1,40,0,0
113535,-200,3,2,1,10,0,0
113649,-200,3,2,1,40,0,0
113990,-200,3,2,1,10,0,0
114104,-200,3,2,1,40,0,0
114445,-200,3,2,1,10,0,0
114558,476.190476190476,3,2,1,35,1,0
114558,-200,3,2,1,35,0,0
116008,434.782608695652,3,2,1,20,1,0

[Colours]
Combo1 : 240,222,0
Combo2 : 223,32,32

[HitObjects]
309,40,2326,2,0,P|331:74|326:121,2,80,4|0|0,0:0|0:0|0:0,2:0:0:0:
258,191,2978,2,0,P|216:193|185:173,2,80,4|0|0,0:0|0:0|0:0,2:0:0:0:
153,71,3630,2,0,P|170:33|213:14,2,80,4|0|0,0:0|0:0|0:0,2:0:0:0:
309,40,4282,5,4,0:0:0:0:
258,191,4499,1,6,0:0:0:0:
153,71,4717,1,4,0:0:0:0:
78,213,4934,6,0,P|127:217|162:191,2,80,4|0|0,0:0|0:0|0:0,2:0:0:0:
231,267,5586,2,0,P|202:306|207:349,2,80,4|0|0,0:0|0:0|0:0,2:0:0:0:
101,364,6239,2,0,P|82:319|41:301,2,80,4|0|0,0:0|0:0|0:0,2:0:0:0:
78,213,6891,5,6,0:0:0:0:
231,267,7108,1,12,0:0:0:0:
101,364,7325,1,4,0:0:0:0:
262,366,7543,5,6,0:0:0:0:
262,366,7760,2,0,P|248:330|201:314,1,80,0|0,0:0|0:0,0:0:0:0:
345,223,8195,1,4,0:0:0:0:
345,223,8412,2,0,P|308:243|293:284,1,80
188,155,8847,1,4,0:0:0:0:
188,155,9065,2,0,P|208:195|249:207,1,80
107,297,9499,5,4,0:0:0:0:
188,155,9717,1,6,0:0:0:0:
345,223,9934,1,4,0:0:0:0:
345,223,10152,6,0,P|360:182|352:147,2,80,4|0|0,0:0|0:0|0:0,0:0:0:0:
214,131,10804,2,0,P|237:164|276:175,2,80,4|0|0,0:0|0:0|0:0,0:0:0:0:
357,60,11456,2,0,P|314:69|288:97,2,80,4|0|0,0:0|0:0|0:0,0:0:0:0:
345,223,12108,5,4,0:0:0:0:
214,131,12325,1,14,0:0:0:0:
357,60,12543,1,12,0:0:0:0:
345,223,12760,5,6,0:0:0:0:
50,348,13195,1,0,0:0:0:0:
88,31,13630,1,0,0:0:0:0:
203,307,14065,5,4,0:0:0:0:
163,153,14499,1,8,0:0:0:0:
317,194,14934,1,0,0:0:0:0:
260,247,15152,1,0,0:0:0:0:
203,307,15369,5,6,0:0:0:0:
246,152,15804,1,0,0:0:0:0:
358,267,16239,1,0,0:0:0:0:
204,223,16674,5,4,0:0:0:0:
438,5,17108,1,8,0:0:0:0:
510,316,17543,1,4,0:0:0:0:
453,260,17760,1,4,0:0:0:0:
398,202,17978,5,6,0:0:0:0:
135,384,18412,1,0,0:0:0:0:
109,66,18847,1,0,0:0:0:0:
292,329,19282,5,4,0:0:0:0:
198,200,19717,1,8,0:0:0:0:
348,182,20152,1,0,0:0:0:0:
322,256,20369,1,0,0:0:0:0:
292,329,20587,5,6,0:0:0:0:
271,171,21022,1,0,0:0:0:0:
419,232,21456,1,0,0:0:0:0:
260,251,21891,5,4,0:0:0:0:
139,42,22325,1,8,0:0:0:0:
219,50,22543,1,0,0:0:0:0:
280,101,22760,1,4,0:0:0:0:
297,180,22978,1,4,0:0:0:0:
260,251,23195,6,0,B|245:299|159:320|126:281,2,160,6|4|0,0:0|0:0|0:0,0:0:0:0:
260,251,24499,1,4,0:0:0:0:
260,251,24934,1,4,0:0:0:0:
104,295,25152,1,0,0:0:0:0:
203,168,25369,1,12,0:0:0:0:
198,328,25586,1,4,0:0:0:0:
108,195,25804,1,4,0:0:0:0:
119,35,26239,5,0,0:0:0:0:
119,35,26673,1,0,0:0:0:0:
355,79,27108,1,8,0:0:0:0:
355,79,27543,1,8,0:0:0:0:
233,287,27978,1,0,0:0:0:0:
233,287,28412,2,0,P|212:217|165:256,1,160,6|0,0:0|0:0,0:0:0:0:
165,256,29282,5,8,0:0:0:0:
320,216,29499,1,8,0:0:0:0:
206,103,29717,1,10,0:0:0:0:
200,79,30152,5,0,0:0:0:0:
187,58,30586,1,0,0:0:0:0:
168,43,31021,1,0,0:0:0:0:
145,33,31456,1,0,0:0:0:0:
121,27,31891,1,0,0:0:0:0:
97,27,32325,1,0,0:0:0:0:
73,33,32760,5,0,0:0:0:0:
85,194,32978,1,4,0:0:0:0:
195,309,33195,1,14,0:0:0:0:
354,319,33412,1,4,0:0:0:0:
481,221,33630,1,6,2:0:0:0:
354,319,33847,1,4,2:0:0:0:
481,221,34065,2,0,P|508:188|507:152,3,80,0|0|8|0,0:0|0:0|0:0|0:0,2:0:0:0:
466,85,34934,5,6,0:0:0:0:
481,221,35152,1,4,0:0:0:0:
466,85,35369,2,0,P|432:62|396:67,3,80,0|0|8|0,0:0|0:0|0:0|0:0,0:0:0:0:
336,122,36239,1,6,0:0:0:0:
466,85,36456,1,4,0:0:0:0:
317,194,36673,6,0,P|313:155|335:122,1,80,0|0,0:0|0:0,0:0:0:0:
394,176,37108,2,0,P|398:211|377:247,1,80,8|0,0:0|0:0,0:0:0:0:
312,296,37543,2,0,P|270:303|238:284,1,80,6|4,0:0|0:0,0:0:0:0:
194,219,37978,2,0,P|189:181|213:147,1,80,0|0,0:0|0:0,0:0:0:0:
275,98,38412,5,8,0:0:0:0:
356,99,38630,1,0,0:0:0:0:
419,148,38847,1,6,0:0:0:0:
428,228,39065,1,0,0:0:0:0:
386,296,39282,1,4,0:0:0:0:
232,340,39717,1,8,0:0:0:0:
232,340,40152,6,0,P|155:280|248:240,1,240,6|0,0:0|0:0,0:0:0:0:
248,240,41891,5,0,0:0:0:0:
248,240,42108,1,0,0:0:0:0:
262,319,42325,1,0,0:0:0:0:
183,332,42543,1,8,0:0:0:0:
167,254,42760,2,0,B|148:215|148:215|190:193|203:163,1,120,12|0,0:0|0:0,0:0:0:0:
145,111,43195,2,0,B|121:146|121:146|81:120|49:124,1,120,12|0,0:0|0:0,0:0:0:0:
30,202,43630,2,8,B|72:204|72:204|70:251|90:278,1,120,12|0,0:0|0:0,0:0:0:0:
149,336,44065,6,0,B|203:375|263:353,1,120,6|0,0:0|0:0,0:0:0:0:
216,289,44499,2,0,B|286:284|314:226,1,120,4|0,0:0|0:0,0:0:0:0:
235,206,44934,2,0,P|253:169|260:130,2,80,12|0|6,0:0|0:0|0:0,0:0:0:0:
235,206,45804,5,12,0:0:0:0:
340,85,46021,1,0,0:0:0:0:
392,237,46239,1,12,0:0:0:0:
106,380,46673,6,0,B|38:381|15:317,1,120,6|0,0:0|0:0,0:0:0:0:
94,300,47108,2,0,B|160:312|200:255,1,120,4|0,0:0|0:0,0:0:0:0:
118,108,47543,2,0,P|136:156|121:222,1,120,12|6,0:0|0:0,0:0:0:0:
121,222,47978,1,4,0:0:0:0:
230,8,48412,5,12,0:0:0:0:
387,41,48630,1,8,0:0:0:0:
276,161,48847,1,12,0:0:0:0:
244,318,49282,6,0,P|186:298|158:248,1,120,6|0,0:0|0:0,0:0:0:0:
259,124,49717,2,0,P|270:184|241:233,1,120,0|0,0:0|0:0,0:0:0:0:
84,206,50152,2,0,P|130:165|187:166,1,120,8|0,0:0|0:0,0:0:0:0:
339,209,50586,2,0,P|364:158|349:100,1,120,6|0,0:0|0:0,0:0:0:0:
339,209,51021,5,8,0:0:0:0:
197,283,51239,1,0,0:0:0:0:
83,172,51456,1,8,0:0:0:0:
153,29,51673,1,12,0:0:0:0:
310,51,51891,2,0,L|343:26,1,40,14|0,0:0|0:0,0:0:0:0:
386,95,52108,2,0,L|418:83,12,26.6666666666667,4|0|0|8|0|0|14|0|0|0|0|0|12,0:0|0:0|0:0|0:0|0:0|0:0|0:0|0:0|0:0|0:0|0:0|0:0|0:0,0:0:0:0:
443,152,53195,2,0,L|462:151,15,20,14|0|0|0|12|0|0|0|12|0|0|0|4|0|0|0,0:0|0:0|0:0|0:0|0:0|0:0|0:0|0:0|0:0|0:0|0:0|0:0|0:0|0:0|0:0|0:0,0:0:0:0:
443,152,54065,5,8,0:0:0:0:
287,335,54282,1,4,0:0:0:0:
209,109,54499,5,14,0:0:0:0:
443,152,54934,2,0,B|409:122|416:81|416:81|327:86|265:35,1,240.000009155274,12|8,0:0|0:0,0:0:0:0:
147,51,55586,1,8,0:0:0:0:
86,156,55804,1,12,0:0:0:0:
133,266,56021,1,0,0:0:0:0:
246,308,56239,2,0,B|325:268|404:297|404:297|412:256|445:234,1,240.000009155274,12|0,0:0|0:0,2:0:0:0:
246,308,57108,5,12,0:0:0:0:
95,121,57543,1,4,0:0:0:0:
95,121,57760,2,0,P|67:195|128:272,1,180.000006866455,4|0,0:0|0:0,0:0:0:0:
159,187,58195,2,0,P|211:151|239:100,1,120.000004577637,4|4,0:0|0:0,0:0:0:0:
306,204,58630,1,4,0:0:0:0:
365,309,58847,1,8,0:0:0:0:
246,308,59065,1,12,0:0:0:0:
350,249,59282,5,8,0:0:0:0:
141,366,59499,1,2,0:0:0:0:
142,128,59717,1,4,0:0:0:0:
349,5,60152,2,0,B|379:29|421:26|421:26|412:111|477:174,1,240.000009155274,12|8,0:0|0:0,0:0:0:0:
342,373,60804,1,4,0:0:0:0:
206,176,61021,2,0,B|250:182|279:160|279:160|311:231|398:265,1,240.000009155274,4|12,0:0|0:0,0:0:0:0:
342,373,61673,1,0,0:0:0:0:
162,373,61891,1,8,0:0:0:0:
252,216,62108,1,8,0:0:0:0:
342,373,62325,1,12,0:0:0:0:
67,140,62760,5,12,0:0:0:0:
1,40,62978,2,0,P|115:36|184:129,1,240.000009155274,8|8,0:0|0:0,0:0:0:0:
189,257,63630,1,12,0:0:0:0:
189,257,64065,1,12,0:0:0:0:
274,343,64282,1,8,0:0:0:0:
395,342,64499,1,12,0:0:0:0:
475,254,64717,1,14,0:0:0:0:
469,134,64934,1,12,0:0:0:0:
0,213,65369,5,12,0:0:0:0:
37,98,65586,2,0,B|44:16|111:28|111:28|144:-30|213:28,1,240.000009155274,8|8,0:0|0:0,0:0:0:0:
290,122,66239,1,4,0:0:0:0:
93,263,66673,2,0,B|146:335|192:285|192:285|255:312|280:234,1,240.000009155274,12|8,0:0|0:0,0:0:0:0:
280,234,67543,1,12,0:0:0:0:
351,5,67978,2,0,P|314:41|311:109,1,120.000004577637,12|8,0:0|0:0,0:0:0:0:
76,161,68630,2,0,P|125:175|186:143,1,120.000004577637,12|12,0:0|0:0,0:0:0:0:
347,320,69282,2,0,P|334:270|280:234,1,120.000004577637,8|4,0:0|0:0,0:0:0:0:
398,209,69717,5,8,0:0:0:0:
213,56,69934,1,6,0:0:0:0:
310,276,70152,2,0,P|317:248|308:215,4,60.0000022888184,12|0|8|0|8,0:0|0:0|0:0|0:0|0:0,0:0:0:0:
310,276,70804,1,12,0:0:0:0:
213,56,71239,1,2,0:0:0:0:
208,296,71456,2,0,P|225:273|226:243,4,60.0000022888184,12|0|8|0|8,0:0|0:0|0:0|0:0|0:0,0:0:0:0:
208,296,72108,1,12,0:0:0:0:
213,56,72543,1,2,0:0:0:0:
100,267,72760,5,12,0:0:0:0:
94,264,72869,1,0,0:0:0:0:
89,260,72978,1,8,0:0:0:0:
84,255,73086,1,0,0:0:0:0:
79,250,73195,1,0,0:0:0:0:
75,244,73304,1,0,0:0:0:0:
72,238,73412,1,12,0:0:0:0:
70,232,73521,1,0,0:0:0:0:
70,225,73630,1,8,0:0:0:0:
69,218,73739,1,0,0:0:0:0:
70,212,73847,1,0,0:0:0:0:
72,206,73956,1,0,0:0:0:0:
75,201,74065,2,8,L|92:170,15,30.0000011444092,6|0|0|0|12|0|0|0|12|0|0|0|12|0|0|0,0:0|0:0|0:0|0:0|0:0|0:0|0:0|0:0|0:0|0:0|0:0|0:0|0:0|0:0|0:0|0:0,0:0:0:0:
106,150,74934,5,4,0:0:0:0:
294,0,75152,1,4,0:0:0:0:
385,222,75369,2,0,P|344:263|274:268,1,120.000004577637,12|0,0:0|0:0,0:0:0:0:
183,204,75804,2,0,P|167:147|198:84,1,120.000004577637,4|0,0:0|0:0,0:0:0:0:
299,40,76239,2,0,P|355:55|394:113,1,120.000004577637,8|0,0:0|0:0,0:0:0:0:
385,222,76673,2,0,P|325:318|181:346,2,240.000009155274,12|4|4,0:0|0:0|0:0,0:0:0:0:
89,11,77978,6,0,P|130:56|125:111,1,120.000004577637,12|0,0:0|0:0,0:0:0:0:
1,298,78412,2,0,P|19:240|70:218,1,120.000004577637,4|4,0:0|0:0,0:0:0:0:
292,232,78847,2,0,P|233:245|189:213,1,120.000004577637,8|12,0:0|0:0,0:0:0:0:
428,190,79282,2,0,P|422:309|322:363,2,240.000009155274,12|0|4,0:0|0:0|0:0,0:0:0:0:
363,89,80369,1,2,0:0:0:0:
285,211,80586,5,12,0:0:0:0:
428,190,80804,1,0,0:0:0:0:
212,86,81021,1,4,0:0:0:0:
233,326,81239,1,8,2:0:0:0:
285,211,81457,1,8,2:0:0:0:
158,223,81673,1,8,2:0:0:0:
233,326,81891,2,0,B|299:325|342:355|342:355|386:318|454:304,2,240.000009155274,12|4|12,0:0|0:0|0:0,0:0:0:0:
26,206,83195,5,12,0:0:0:0:
141,177,83412,1,0,0:0:0:0:
112,290,83630,1,4,0:0:0:0:
55,61,83847,1,8,2:0:0:0:
280,118,84065,1,8,2:0:0:0:
270,238,84283,1,8,2:0:0:0:
206,339,84499,2,0,B|143:307|86:309|86:309|70:259|17:219,2,240.000009155274,4|4|4,0:0|0:0|0:0,0:0:0:0:
148,155,85804,5,4,0:0:0:0:
34,117,86021,1,0,0:0:0:0:
124,37,86239,1,4,0:0:0:0:
70,271,86456,1,8,0:0:0:0:
298,203,86673,1,8,0:0:0:0:
124,37,86890,1,8,0:0:0:0:
192,268,87108,2,0,B|216:293|272:296|272:296|272:320|272:320|336:320|399:350,2,240.000009155274,12|4|12,0:0|0:0|0:0,0:0:0:0:
175,34,88412,5,12,0:0:0:0:
23,221,88630,1,8,0:0:0:0:
261,259,88847,1,4,0:0:0:0:
189,162,89065,1,12,0:0:0:0:
99,384,89282,1,8,0:0:0:0:
338,348,89499,1,12,0:0:0:0:
427,125,89717,2,0,B|377:80|357:21|357:21|305:27|245:6,2,240.000009155274,12|0|12,0:0|0:0|0:0,0:0:0:0:
260,298,90804,1,14,0:0:0:0:
61,165,91021,6,0,B|69:197|48:224|48:224|81:231|81:231|92:308|161:347,1,240.000009155274,12|0,0:0|0:0,0:0:0:0:
451,219,91673,2,0,B|443:187|464:160|464:160|431:153|431:153|420:76|351:37,1,240.000009155274,12|4,0:0|0:0,0:0:0:0:
325,156,92325,1,12,0:0:0:0:
325,156,92543,1,0,0:0:0:0:
275,265,92760,1,12,0:0:0:0:
275,265,92978,1,0,0:0:0:0:
205,168,93195,1,4,0:0:0:0:
205,168,93412,1,6,0:0:0:0:
422,268,93629,5,12,0:0:0:0:
79,376,93847,1,8,0:0:0:0:
154,26,94065,2,4,L|184:20,3,20,4|0|12|0,0:0|0:0|0:0|0:0,0:0:0:0:
203,80,94499,2,4,L|224:82,3,20,8|0|0|0,0:0|0:0|0:0|0:0,0:0:0:0:
226,151,94934,2,4,L|238:159,15,10,14|0|0|0|12|0|0|0|8|0|0|0|12|0|0|0,0:0|0:0|0:0|0:0|0:0|0:0|0:0|0:0|0:0|0:0|0:0|0:0|0:0|0:0|0:0|0:0,0:0:0:0:
232,222,95804,5,12,0:0:0:0:
232,222,96239,2,0,P|193:211|152:227,1,80,2|0,0:0|0:0,0:0:0:0:
83,192,96891,1,0,0:0:0:0:
39,259,97108,1,0,0:0:0:0:
89,322,97325,1,0,0:0:0:0:
164,297,97543,1,2,0:0:0:0:
420,229,97978,6,0,P|455:243|483:275,1,80
341,225,98847,2,0,P|312:247|270:256,1,80
386,159,99717,2,0,P|380:122|394:82,1,80
421,230,100586,1,0,0:0:0:0:
341,225,100804,1,0,0:0:0:0:
386,159,101021,1,0,0:0:0:0:
241,227,101456,6,0,P|185:187|243:162,1,160,6|0,0:0|0:0,0:0:0:0:
369,63,102760,2,0,B|390:43|429:54,1,60,2|0,0:0|0:0,0:0:0:0:
474,117,103195,2,0,B|480:145|450:173,1,60
373,181,103630,2,0,B|346:173|342:135,1,60
292,74,104065,1,0,0:0:0:0:
223,304,104499,1,8,0:0:0:0:
57,135,104934,1,8,0:0:0:0:
290,151,105369,5,2,0:0:0:0:
367,131,105586,1,8,0:0:0:0:
211,165,105804,1,2,0:0:0:0:
190,241,106021,1,0,0:0:0:0:
238,90,106239,1,10,2:0:0:0:
182,34,106456,1,10,2:0:0:0:
311,118,106673,6,4,P|350:129|391:113,1,80,2|8,0:0|0:0,0:0:0:0:
460,148,107325,1,0,0:0:0:0:
504,81,107542,1,0,0:0:0:0:
454,18,107759,1,0,0:0:0:0:
379,43,107977,1,2,0:0:0:0:
89,179,108412,6,0,P|117:211|151:224,1,80
301,196,109282,2,0,P|259:205|231:228,1,80
176,370,110152,2,0,P|190:330|185:294,1,80
151,224,111021,1,8,0:0:0:0:
231,228,111239,1,0,0:0:0:0:
185,294,111455,1,10,0:0:0:0:
383,157,111891,6,0,P|439:197|381:222,1,160,6|0,0:0|0:0,0:0:0:0:
222,136,113195,2,0,B|256:116|287:133,1,60,0|0,0:0|0:0,2:0:0:0:
323,195,113649,2,0,B|323:234|293:253,1,60,0|0,0:0|0:0,2:0:0:0:
222,253,114104,2,0,B|188:234|186:198,1,60,0|0,0:0|0:0,2:0:0:0:
256,192,114558,6,0,P|264:172|284:164,1,40
256,192,115034,2,0,P|269:208|266:230,1,40
256,192,115510,2,0,P|234:195|217:181,1,40
256,192,115986,5,2,0:0:0:0:
