osu file format v12

[General]
AudioFilename: hisouten.mp3
AudioLeadIn: 0
PreviewTime: 54511
Countdown: 0
SampleSet: Soft
StackLeniency: 0.7
Mode: 0
LetterboxInBreaks: 0
EpilepsyWarning: 1
WidescreenStoryboard: 0

[Editor]
DistanceSpacing: 0.5
BeatDivisor: 4
GridSize: 4

[Metadata]
Title:Sky of Scarlet Perception
TitleUnicode:緋想天
Artist:Akiyama Uni
ArtistUnicode:あきやま うに
Creator:Hollow Wings
Version:Hard
Source:Touhou
Tags:th10.5 fxt Tasofro Twilight Frontier 黄昏フロンティア U2 zun Scarlet Weather Rhapsody hisouten Jun
BeatmapID:258271
BeatmapSetID:96338

[Difficulty]
HPDrainRate:5
CircleSize:4
OverallDifficulty:6
ApproachRate:7
SliderMultiplier:1.6
SliderTickRate:2

[Events]
//Background and Video events
0,0,"diy-hisouten.jpg",0,0
//Break Periods
//Storyboard Layer 0 (Background)
//Storyboard Layer 1 (Fail)
//Storyboard Layer 2 (Pass)
//Storyboard Layer 3 (Foreground)
//Storyboard Sound Samples
//Background Colour Transformations
3,100,163,162,255

[TimingPoints]
2326,434.782608695652,3,2,1,25,1,0
10152,-100,3,2,1,30,0,0
12760,-200,3,2,1,35,0,0
23195,-200,3,2,1,45,0,0
27760,-200,3,2,1,10,0,0
27978,-200,3,2,1,45,0,0
32760,-200,3,2,1,70,0,0
40586,-100,3,2,1,75,0,0
51963,-100,3,2,1,20,0,0
52543,-100,3,2,1,30,0,0
52760,-100,3,2,1,40,0,0
52978,-100,3,2,1,75,0,0
54065,-100,3,2,1,100,0,0
54499,-100,3,2,1,100,0,1
71130,-100,3,2,1,20,0,1
71239,-100,3,2,1,100,0,1
72434,-100,3,2,1,20,0,1
72543,-100,3,2,1,100,0,1
91999,-100,3,2,1,20,0,1
92108,-100,3,2,1,100,0,1
94173,-100,3,2,1,50,0,1
94934,-100,3,2,1,100,0,1
95804,-200,3,2,1,50,0,1
96239,-200,3,2,1,50,0,0
105586,-200,3,2,1,10,0,0
105804,-200,3,2,1,50,0,0
106130,-200,3,2,1,10,0,0
106239,-200,3,2,1,50,0,0
106565,-200,3,2,1,10,0,0
106673,-200,3,2,1,50,0,0
106999,-200,3,2,1,10,0,0
107108,-200,3,2,1,50,0,0
113195,454.545454545455,3,2,1,40,1,0
113195,-200,3,2,1,40,0,0
114558,476.190476190476,3,2,1,30,1,0
114558,-200,3,2,1,30,0,0
116008,434.782608695652,3,2,1,20,1,0

[Colours]
Combo1 : 240,222,0
Combo2 : 223,32,32

[HitObjects]
96,246,2326,2,0,P|104:288|132:316,2,80,6|0|0,0:0|0:0|0:0,0:0:0:0:
139,179,2978,2,0,P|100:161|60:177,2,80,0|0|0,0:0|0:0|0:0,0:0:0:0:
176,249,3630,2,0,P|208:228|218:186,2,80,4|0|0,0:0|0:0|0:0,0:0:0:0:
96,246,4282,1,0,0:0:0:0:
139,180,4499,1,0,0:0:0:0:
176,249,4717,1,0,0:0:0:0:
271,132,4934,6,0,P|237:118|197:128,2,80,4|0|0,0:0|0:0|0:0,0:0:0:0:
308,202,5586,2,0,P|336:180|352:140,2,80,0|0|0,0:0|0:0|0:0,0:0:0:0:
227,200,6239,2,0,P|229:238|257:269,2,80,4|0|0,0:0|0:0|0:0,0:0:0:0:
271,133,6891,1,4,0:0:0:0:
309,203,7108,1,6,0:0:0:0:
227,200,7325,1,4,0:0:0:0:
390,214,7543,6,0,P|381:251|340:274,1,80,6|0,0:0|0:0,0:0:0:0:
309,203,7978,1,0,0:0:0:0:
260,267,8195,2,0,P|234:241|227:200,1,80
309,203,8630,1,0,0:0:0:0:
280,130,8847,2,0,P|320:120|354:137,1,80,4|0,0:0|0:0,0:0:0:0:
309,203,9282,1,0,0:0:0:0:
232,223,9499,1,0,0:0:0:0:
165,267,9717,1,0,0:0:0:0:
117,331,9934,1,0,0:0:0:0:
86,257,10152,6,0,P|99:215|130:200,1,80,4|0,0:0|0:0,0:0:0:0:
86,133,10586,1,0,0:0:0:0:
136,69,10804,2,0,P|161:97|163:140,1,80
243,131,11239,1,0,0:0:0:0:
279,203,11456,2,0,P|242:213|200:198,1,80,4|0,0:0|0:0,0:0:0:0:
175,275,11891,1,0,0:0:0:0:
253,291,12108,1,4,0:0:0:0:
325,256,12325,1,6,0:0:0:0:
364,186,12543,1,4,0:0:0:0:
346,108,12760,5,6,0:0:0:0:
208,26,13195,1,0,0:0:0:0:
206,186,13630,1,0,0:0:0:0:
292,51,14065,1,0,0:0:0:0:
150,124,14499,1,0,0:0:0:0:
284,211,14934,1,0,0:0:0:0:
212,68,15369,5,4,0:0:0:0:
197,227,15804,1,0,0:0:0:0:
343,160,16239,1,0,0:0:0:0:
184,145,16673,2,0,B|154:134|154:134|133:149|133:149|110:141,2,80,0|0|6,0:0|0:0|0:0,0:0:0:0:
263,155,17760,1,4,0:0:0:0:
343,159,17978,5,6,0:0:0:0:
395,310,18412,1,0,0:0:0:0:
238,280,18847,1,0,0:0:0:0:
270,209,19282,5,0,0:0:0:0:
427,242,19717,1,0,0:0:0:0:
320,360,20152,1,0,0:0:0:0:
274,289,20586,5,4,0:0:0:0:
437,321,21021,1,0,0:0:0:0:
383,171,21456,1,0,0:0:0:0:
353,328,21891,5,0,0:0:0:0:
468,217,22325,1,0,0:0:0:0:
314,173,22760,1,6,0:0:0:0:
234,179,22978,1,4,0:0:0:0:
154,180,23195,6,0,B|152:140|123:104|123:104|159:80|166:41,1,160,6|0,0:0|0:0,0:0:0:0:
321,87,24499,1,0,0:0:0:0:
321,87,24934,2,0,P|363:91|396:110,1,80
312,247,25804,1,0,0:0:0:0:
312,247,26239,2,0,P|287:281|254:300,1,80
152,178,27108,6,0,P|131:109|140:56,1,120
178,18,27978,1,0,0:0:0:0:
178,18,28412,2,0,B|214:38|257:25|257:25|269:69|306:86,1,160,6|0,0:0|0:0,0:0:0:0:
380,107,29499,1,0,0:0:0:0:
339,175,29717,6,0,B|283:217|269:288|269:288|205:245|126:271|126:271|110:192|39:171|39:171|97:123|88:53,1,560,0|4,0:0|0:0,0:0:0:0:
88,53,33195,5,6,0:0:0:0:
156,17,33630,2,0,P|218:54|207:135,1,160,6|0,0:0|0:0,0:0:0:0:
255,197,34934,2,0,P|176:206|130:138,1,160
65,101,36239,2,0,P|96:76|138:70,1,80
201,115,37108,1,0,0:0:0:0:
245,182,37543,1,0,0:0:0:0:
231,261,37978,1,4,0:0:0:0:
208,336,38412,1,6,0:0:0:0:
287,320,38847,6,0,P|312:282|312:248,1,80,6|0,0:0|0:0,0:0:0:0:
305,88,39717,2,0,P|282:123|285:162,1,80
320,230,40586,1,0,0:0:0:0:
397,251,41021,1,0,0:0:0:0:
377,174,41456,5,0,0:0:0:0:
343,17,41891,1,0,0:0:0:0:
496,66,42325,1,0,0:0:0:0:
377,174,42760,1,0,0:0:0:0:
377,174,43195,2,0,B|319:230|319:230|338:307,1,160,4|4,0:0|0:0,0:0:0:0:
30,214,44065,5,6,0:0:0:0:
158,117,44499,1,0,0:0:0:0:
288,24,44934,2,0,B|330:89|330:89|302:166,1,160,0|2,0:0|0:0,0:0:0:0:
246,317,45804,1,0,0:0:0:0:
301,166,46239,1,4,0:0:0:0:
246,317,46673,5,6,0:0:0:0:
149,189,47107,1,0,0:0:0:0:
56,59,47543,2,0,B|121:17|121:17|198:45,1,160,0|2,0:0|0:0,0:0:0:0:
352,91,48412,1,0,0:0:0:0:
198,45,48847,1,4,0:0:0:0:
352,91,49282,5,6,0:0:0:0:
289,239,49716,1,0,0:0:0:0:
223,384,50152,2,0,B|154:348|154:348|139:268,1,160,0|6,0:0|0:0,0:0:0:0:
139,267,51021,1,0,0:0:0:0:
128,188,51239,1,0,0:0:0:0:
200,153,51456,1,0,0:0:0:0:
258,208,51673,1,0,0:0:0:0:
224,281,51891,2,0,L|243:317,15,26.6666666666667,6|0|0|0|0|0|6|0|0|0|0|0|4|0|0|0,0:0|0:0|0:0|0:0|0:0|0:0|0:0|0:0|0:0|0:0|0:0|0:0|0:0|0:0|0:0|0:0,0:0:0:0:
224,281,53195,1,6,0:0:0:0:
224,281,54065,5,12,0:0:0:0:
147,190,54282,1,12,0:0:0:0:
266,169,54499,1,14,0:0:0:0:
489,248,54934,2,0,B|492:325|492:325|429:378,1,160,4|8,0:0|0:0,0:0:0:0:
334,258,55804,1,14,0:0:0:0:
195,338,56239,2,0,B|125:302|125:302|111:221,1,160,4|8,0:0|0:0,0:0:0:0:
271,213,57108,1,14,0:0:0:0:
283,53,57543,2,0,B|321:58|321:58|340:94,1,80,4|12,0:0|0:0,0:0:0:0:
440,315,58195,2,0,B|401:309|401:309|382:273,1,80,4|14,0:0|0:0,0:0:0:0:
440,315,59282,5,12,0:0:0:0:
329,361,59499,1,12,0:0:0:0:
344,243,59717,1,14,0:0:0:0:
393,8,60152,2,0,B|380:84|380:84|307:123,1,160,4|8,0:0|0:0,0:0:0:0:
270,8,61021,1,14,0:0:0:0:
96,238,61456,2,0,B|168:210|168:210|238:253,1,160,4|8,0:0|0:0,0:0:0:0:
156,341,62325,1,14,0:0:0:0:
442,381,62760,2,0,B|381:331|381:331|384:249,1,160,4|8,0:0|0:0,0:0:0:0:
384,250,63630,1,14,0:0:0:0:
388,11,64065,5,12,0:0:0:0:
176,125,64499,1,14,0:0:0:0:
170,365,64934,1,14,0:0:0:0:
170,365,65369,2,0,B|100:329|100:329|86:248,1,160,4|8,0:0|0:0,0:0:0:0:
245,227,66239,1,14,0:0:0:0:
244,67,66674,2,0,B|309:24|309:24|386:52,1,160,4|8,0:0|0:0,0:0:0:0:
332,202,67543,1,14,0:0:0:0:
465,293,67978,2,0,B|440:323|440:323|400:321,1,80,4|12,0:0|0:0,0:0:0:0:
161,294,68630,2,0,B|185:263|185:263|225:265,1,80,4|14,0:0|0:0,0:0:0:0:
161,294,69717,5,12,0:0:0:0:
334,354,69934,1,8,0:0:0:0:
307,172,70152,1,14,0:0:0:0:
189,144,70804,6,0,B|177:114|177:114|211:83|221:34,1,120,12|0,0:0|0:0,0:0:0:0:
237,29,71239,1,12,0:0:0:0:
307,172,71456,1,14,0:0:0:0:
424,196,72108,6,0,B|437:225|437:225|405:258|398:307,1,120,12|0,0:0|0:0,0:0:0:0:
382,313,72543,1,12,0:0:0:0:
307,172,72760,1,14,0:0:0:0:
252,323,73195,5,2,0:0:0:0:
151,199,73629,1,8,0:0:0:0:
238,66,74065,1,14,0:0:0:0:
393,106,74499,1,14,0:0:0:0:
403,268,74934,5,14,0:0:0:0:
357,379,75152,1,12,0:0:0:0:
283,284,75369,1,14,0:0:0:0:
169,72,75804,2,0,B|234:30|234:30|311:58,1,160,4|8,0:0|0:0,0:0:0:0:
245,204,76673,1,14,0:0:0:0:
481,246,77108,2,0,B|484:324|484:324|421:377,1,160,4|8,0:0|0:0,0:0:0:0:
319,253,77978,1,6,0:0:0:0:
178,328,78413,2,4,B|145:307|145:307|142:267,1,80,4|12,0:0|0:0,0:0:0:0:
148,26,79065,2,4,B|181:47|181:47|183:87,1,80,4|14,0:0|0:0,0:0:0:0:
132,372,80152,5,12,0:0:0:0:
86,261,80369,1,12,0:0:0:0:
204,276,80587,1,14,0:0:0:0:
439,325,81022,2,0,B|363:312|363:312|324:239,1,160,4|8,0:0|0:0,0:0:0:0:
438,203,81891,1,14,0:0:0:0:
209,28,82326,2,0,B|237:100|237:100|194:170,1,160,4|8,0:0|0:0,0:0:0:0:
106,88,83195,1,14,0:0:0:0:
66,374,83630,2,0,B|116:313|116:313|198:316,1,160,4|8,0:0|0:0,0:0:0:0:
197,316,84499,1,6,0:0:0:0:
437,324,84934,5,12,0:0:0:0:
323,112,85368,1,14,0:0:0:0:
83,106,85803,1,14,0:0:0:0:
83,106,86238,2,0,B|119:36|119:36|200:22,1,160,4|8,0:0|0:0,0:0:0:0:
221,182,87108,1,14,0:0:0:0:
381,180,87543,2,0,B|424:245|424:245|396:322,1,160,4|8,0:0|0:0,0:0:0:0:
243,275,88412,1,14,0:0:0:0:
94,215,88847,2,0,B|100:176|100:176|136:158,1,80,4|12,0:0|0:0,0:0:0:0:
356,62,89499,2,0,B|350:100|350:100|315:119,1,80,4|14,0:0|0:0,0:0:0:0:
490,349,90586,5,12,0:0:0:0:
420,252,90803,1,12,0:0:0:0:
399,134,91020,1,14,0:0:0:0:
287,346,91673,2,0,B|260:329|260:329|268:284|247:239,1,120,12|0,0:0|0:0,0:0:0:0:
262,205,92108,1,12,0:0:0:0:
190,169,92325,2,0,B|138:121|71:137|71:137|64:104,2,160,14|12|12,0:0|0:0|0:0,0:0:0:0:
190,169,93630,5,14,0:0:0:0:
174,288,93847,1,12,0:0:0:0:
75,356,94065,2,0,L|37:374,7,40,14|0|2|0|0|0|2|0,0:0|0:0|0:0|0:0|0:0|0:0|0:0|0:0,0:0:0:0:
75,356,94934,1,6,0:0:0:0:
357,158,95804,6,0,P|345:195|359:237,1,80,0|2,0:0|0:0,0:0:0:0:
397,302,96673,1,0,0:0:0:0:
460,351,97108,1,0,0:0:0:0:
397,302,97543,1,0,0:0:0:0:
317,297,97978,1,0,0:0:0:0:
245,331,98412,1,0,0:0:0:0:
170,358,98847,6,0,P|133:367|93:352,1,80,4|0,0:0|0:0,0:0:0:0:
54,284,99717,1,0,0:0:0:0:
134,281,100152,2,0,P|172:270|196:239,1,80
232,169,101021,1,0,0:0:0:0:
309,167,101456,6,0,P|269:237|196:239,1,160,6|0,0:0|0:0,0:0:0:0:
232,169,102760,2,0,P|197:154|157:164,2,80
312,169,104065,1,4,0:0:0:0:
352,99,104499,1,0,0:0:0:0:
391,169,104934,2,0,P|368:225|302:242,1,120
233,239,105804,6,0,P|230:208|213:185,1,60
174,196,106239,2,0,P|149:178|138:150,1,60
160,117,106673,2,0,P|144:94|115:82,1,60,6|0,0:0|0:0,0:0:0:0:
115,82,107108,1,0,0:0:0:0:
52,33,107543,1,0,0:0:0:0:
115,82,107978,1,0,0:0:0:0:
195,87,108413,1,0,0:0:0:0:
267,53,108847,1,0,0:0:0:0:
344,31,109282,6,0,P|384:20|421:34,1,80,4|0,0:0|0:0,0:0:0:0:
458,103,110152,1,0,0:0:0:0:
378,103,110587,2,0,P|340:114|314:148,1,80
280,215,111456,1,0,0:0:0:0:
201,216,111891,6,0,P|242:147|315:145,1,160,6|0,0:0|0:0,0:0:0:0:
280,215,113195,2,0,P|312:237|331:274,2,80
202,216,114558,1,4,0:0:0:0:
132,252,115034,2,0,P|113:288|120:326,2,80,0|2|2,0:0|0:0|0:0,0:0:0:0:
