osu file format v14

[General]
AudioFilename: Odoru Mizushibuki.mp3
AudioLeadIn: 2000
PreviewTime: 0
Countdown: 0
SampleSet: Soft
StackLeniency: 0.7
Mode: 0
LetterboxInBreaks: 0
WidescreenStoryboard: 0

[Editor]
DistanceSpacing: 1.2
BeatDivisor: 4
GridSize: 8
TimelineZoom: 1.5

[Metadata]
Title:Odoru Mizushibuki
TitleUnicode:踊る水飛沫
Artist:Akiyama Uni
ArtistUnicode:あきやま うに
Creator:Hollow Wings
Version:Normal
Source:東方Project
Tags:Touhou th10.5 fxt Twilight Frontier Tasofro 黄昏フロンティア zun Scarlet Weather Rhapsody jun Dancing Water Spray 小野冢小町 おのづか こまち Onozuka Komachi
BeatmapID:523787
BeatmapSetID:153887

[Difficulty]
HPDrainRate:3
CircleSize:3
OverallDifficulty:4
ApproachRate:5
SliderMultiplier:1.09999990463257
SliderTickRate:1

[Events]
//Background and Video events
0,0,"Odoru Mizushibuki.jpg",0,0
//Break Periods
//Storyboard Layer 0 (Background)
//Storyboard Layer 1 (Fail)
//Storyboard Layer 2 (Pass)
//Storyboard Layer 3 (Foreground)
//Storyboard Sound Samples

[TimingPoints]
15,434.782608695652,4,2,1,60,1,0
6971,-100,4,2,1,70,0,0
20884,-100,4,2,1,80,0,0
34797,-100,4,2,1,80,0,0
48710,-100,4,2,1,90,0,0
55667,-100,4,2,1,80,0,1
69145,-100,4,2,1,80,0,0
69580,-100,4,2,1,80,0,1
83493,-100,4,2,1,80,0,0

[Colours]
Combo1 : 252,252,252
Combo2 : 121,185,255

[HitObjects]
26,118,15,6,0,L|152:105,1,109.999990463257,2|0,0:1|0:0,0:0:0:0:
200,121,667,1,0,0:0:0:0:
264,134,884,2,0,L|390:147,1,109.999990463257,0|2,0:0|0:0,0:0:0:0:
504,160,1754,2,0,L|378:173,1,109.999990463257,2|0,0:1|0:0,0:0:0:0:
329,181,2406,1,0,0:0:0:0:
263,172,2623,2,0,L|137:159,1,109.999990463257,0|8,0:0|0:0,0:0:0:0:
26,118,3493,6,0,L|152:105,1,109.999990463257,2|0,0:1|0:0,0:0:0:0:
200,121,4145,1,0,0:0:0:0:
264,134,4362,2,0,L|390:147,1,109.999990463257,0|2,0:0|0:0,0:0:0:0:
504,160,5232,2,0,L|378:173,1,109.999990463257,2|0,0:1|0:0,0:0:0:0:
329,181,5884,1,0,0:0:0:0:
263,187,6101,2,0,L|206:192,1,54.9999952316285,8|0,0:0|0:0,0:0:0:0:
152,227,6536,2,0,L|95:232,1,54.9999952316285,8|2,0:0|0:0,0:0:0:0:
65,289,6971,6,0,L|174:300,1,109.999990463257,12|0,0:0|0:0,0:0:0:0:
222,345,7623,1,8,0:0:0:0:
352,326,8058,2,0,L|406:321,1,54.9999952316285,8|2,0:0|0:0,0:0:0:0:
471,205,8710,6,0,L|416:200,2,54.9999952316285,8|0|0,0:0|0:0|0:0,0:0:0:0:
484,140,9362,2,0,L|374:151,1,109.999990463257,8|8,0:0|0:0,0:0:0:0:
325,106,10014,2,0,L|270:110,1,54.9999952316285,2|0,0:0|0:0,0:0:0:0:
204,118,10449,6,0,L|94:106,1,109.999990463257,8|0,0:0|0:0,0:0:0:0:
40,68,11101,1,8,0:0:0:0:
12,197,11536,2,0,L|66:192,1,54.9999952316285,8|2,0:0|0:0,0:0:0:0:
104,246,11971,1,0,0:0:0:0:
169,252,12188,6,0,L|223:256,1,54.9999952316285,8|0,0:0|0:0,0:0:0:0:
283,285,12623,1,2,0:0:0:0:
301,348,12841,2,0,L|410:359,1,109.999990463257,8|8,0:0|0:0,0:0:0:0:
441,300,13493,2,0,L|495:295,1,54.9999952316285,2|2,0:0|0:0,0:0:0:0:
496,228,13928,6,0,L|386:216,1,109.999990463257,12|0,0:0|0:0,0:0:0:0:
325,240,14580,1,8,0:0:0:0:
205,296,15015,2,0,L|150:291,1,54.9999952316285,8|2,0:0|0:0,0:0:0:0:
75,182,15667,6,0,L|20:177,2,54.9999952316285,8|0|0,0:0|0:0|0:0,0:0:0:0:
136,206,16319,2,0,L|245:194,1,109.999990463257,8|8,0:0|0:0,0:0:0:0:
294,238,16971,2,0,L|348:233,1,54.9999952316285,2|0,0:0|0:0,0:0:0:0:
383,176,17406,6,0,L|492:187,1,109.999990463257,8|0,0:0|0:0,0:0:0:0:
501,252,18058,1,8,0:0:0:0:
376,295,18493,2,0,L|321:299,1,54.9999952316285,8|2,0:0|0:0,0:0:0:0:
294,239,18928,1,0,0:0:0:0:
239,201,19145,6,0,L|184:196,1,54.9999952316285,10|0,0:0|0:0,0:0:0:0:
119,209,19580,1,2,0:0:0:0:
60,178,19797,2,0,L|5:173,1,54.9999952316285,8|0,0:0|0:0,0:0:0:0:
8,106,20232,2,0,L|62:101,1,54.9999952316285,8|2,0:0|0:0,0:0:0:0:
87,39,20667,1,2,0:0:0:0:
149,19,20884,6,0,L|264:14,1,109.999990463257,6|2,0:0|0:0,0:0:0:0:
307,59,21536,1,8,0:0:0:0:
366,30,21754,2,0,L|438:38,2,54.9999952316285,0|8|2,0:0|0:0|0:0,0:0:0:0:
323,155,22623,2,0,L|438:150,1,109.999990463257,8|2,0:0|0:0,0:0:0:0:
477,198,23275,1,8,0:0:0:0:
439,252,23493,2,0,L|384:251,1,54.9999952316285,0|8,0:0|0:0,0:0:0:0:
325,282,23928,2,0,L|270:281,1,54.9999952316285,2|8,0:0|0:0,0:0:0:0:
227,331,24362,6,0,L|117:335,1,109.999990463257,8|2,0:0|0:0,0:0:0:0:
119,268,25014,1,8,0:0:0:0:
68,225,25232,2,0,L|13:218,2,54.9999952316285,0|8|2,0:0|0:0|0:0,0:0:0:0:
163,134,26101,2,0,L|108:140,1,54.9999952316285,2|0,0:0|0:0,0:0:0:0:
49,110,26536,1,8,0:0:0:0:
42,44,26754,2,0,L|157:49,1,109.999990463257,8|8,0:0|0:0,0:0:0:0:
214,70,27406,2,0,L|283:71,1,54.9999952316285,2|2,0:0|0:0,0:0:0:0:
331,50,27841,6,0,L|446:45,1,109.999990463257,12|2,0:0|0:0,0:0:0:0:
429,110,28493,1,8,0:0:0:0:
453,171,28711,2,0,L|507:177,2,54.9999952316285,0|8|2,0:0|0:0|0:0,0:0:0:0:
357,261,29580,2,0,L|242:256,1,109.999990463257,8|2,0:0|0:0,0:0:0:0:
181,260,30232,1,8,0:0:0:0:
121,288,30450,2,0,L|52:289,1,54.9999952316285,0|8,0:0|0:0,0:0:0:0:
66,354,30885,2,0,L|135:355,1,54.9999952316285,2|0,0:0|0:0,0:0:0:0:
185,368,31319,6,0,L|300:363,1,109.999990463257,8|2,0:0|0:0,0:0:0:0:
345,320,31971,1,8,0:0:0:0:
411,317,32189,2,0,L|483:325,2,54.9999952316285,0|8|2,0:0|0:0|0:0,0:0:0:0:
459,194,33058,2,0,L|404:200,1,54.9999952316285,2|0,0:0|0:0,0:0:0:0:
339,213,33493,1,2,0:0:0:0:
300,159,33710,6,0,L|185:154,1,109.999990463257,8|8,0:0|0:0,0:0:0:0:
196,88,34363,2,0,L|250:87,1,54.9999952316285,2|2,0:0|0:0,0:0:0:0:
280,28,34797,6,0,L|113:22,1,164.999985694885,12|2,0:0|0:1,0:0:0:0:
68,68,35667,2,0,L|14:69,2,54.9999952316285,0|0|0,0:0|0:0|0:0,0:0:0:0:
74,199,36536,2,0,L|238:204,1,164.999985694885,2|2,0:1|0:1,0:0:0:0:
363,247,37623,2,0,L|417:246,1,54.9999952316285,8|2,0:0|0:0,0:0:0:0:
440,308,38058,1,0,0:0:0:0:
399,359,38275,6,0,L|234:353,1,164.999985694885,2|2,0:1|0:1,0:0:0:0:
167,355,39145,2,0,L|113:356,2,54.9999952316285,0|0|0,0:0|0:0|0:0,0:0:0:0:
84,251,40014,2,0,L|30:250,1,54.9999952316285,2|0,0:1|0:0,0:0:0:0:
45,118,40667,1,8,0:0:0:0:
156,188,41101,2,0,L|236:188,1,54.9999952316285,8|2,0:0|0:0,0:0:0:0:
256,139,41536,1,0,0:0:0:0:
303,185,41754,6,0,L|467:179,1,164.999985694885,12|2,0:0|0:1,0:0:0:0:
455,114,42623,2,0,L|510:114,2,54.9999952316285,0|0|0,0:0|0:0|0:0,0:0:0:0:
328,73,43493,2,0,L|164:68,1,164.999985694885,2|2,0:1|0:1,0:0:0:0:
69,161,44580,2,0,L|123:162,1,54.9999952316285,8|2,0:0|0:0,0:0:0:0:
179,197,45015,1,0,0:0:0:0:
190,261,45232,6,0,L|355:255,1,164.999985694885,8|2,0:0|0:1,0:0:0:0:
389,311,46101,2,0,L|443:312,2,54.9999952316285,0|0|0,0:0|0:0|0:0,0:0:0:0:
419,182,46971,2,0,L|473:181,1,54.9999952316285,2|0,0:1|0:0,0:0:0:0:
389,79,47624,5,8,0:0:0:0:
268,26,48058,2,0,L|211:24,1,54.9999952316285,8|2,0:0|0:0,0:0:0:0:
230,87,48493,1,2,0:0:0:0:
226,152,48710,6,0,P|116:168|6:161,2,219.999980926514,12|8|8,0:0|0:0|0:0,0:0:0:0:
348,103,50884,1,8,0:0:0:0:
220,69,51319,2,0,P|166:58|114:38,1,109.999990463257,8|10,0:0|0:0,0:0:0:0:
79,94,51971,1,2,0:0:0:0:
110,151,52188,6,0,P|219:167|329:160,3,219.999980926514,10|10|10|10,0:0|0:0|0:0|0:0,0:0:0:0:
449,212,55232,1,8,0:0:0:0:
393,247,55449,1,10,0:0:0:0:
330,269,55667,6,0,P|221:285|111:278,1,219.999980926514,12|2,0:0|0:0,0:0:0:0:
4,201,56971,1,2,0:0:0:0:
69,210,57188,1,8,0:0:0:0:
128,180,57406,2,0,P|157:176|183:175,1,54.9999952316285,8|8,0:0|0:0,0:0:0:0:
243,200,57841,2,0,P|272:204|298:205,1,54.9999952316285,2|8,0:0|0:0,0:0:0:0:
343,252,58275,2,0,P|372:248|398:247,1,54.9999952316285,2|0,0:0|0:0,0:0:0:0:
447,203,58710,2,0,P|476:207|502:208,1,54.9999952316285,2|8,0:0|0:0,0:0:0:0:
500,141,59145,6,0,P|391:124|281:131,1,219.999980926514,12|2,0:0|0:0,0:0:0:0:
324,255,60449,1,2,0:0:0:0:
288,310,60667,1,8,0:0:0:0:
222,316,60884,2,0,P|193:320|167:321,1,54.9999952316285,8|8,0:0|0:0,0:0:0:0:
106,345,61319,2,0,P|77:341|51:340,1,54.9999952316285,2|8,0:0|0:0,0:0:0:0:
37,275,61754,2,0,P|64:273|91:269,1,54.9999952316285,2|2,0:0|0:0,0:0:0:0:
117,208,62188,2,0,P|88:203|62:202,1,54.9999952316285,2|8,0:0|0:0,0:0:0:0:
28,145,62623,6,0,P|136:128|246:135,1,219.999980926514,12|2,0:0|0:0,0:0:0:0:
371,177,63928,1,8,0:0:0:0:
440,65,64362,2,0,P|386:75|334:95,2,109.999990463257,8|2|8,0:0|0:0|0:0,0:0:0:0:
493,186,65667,1,2,0:0:0:0:
477,249,65884,1,8,0:0:0:0:
488,313,66101,6,0,P|459:317|433:318,1,54.9999952316285,12|0,0:0|0:0,0:0:0:0:
390,267,66536,2,0,P|361:263|335:262,1,54.9999952316285,8|0,0:0|0:0,0:0:0:0:
279,296,66970,2,0,P|250:300|224:301,1,54.9999952316285,8|0,0:0|0:0,0:0:0:0:
158,310,67405,2,0,P|129:306|103:305,1,54.9999952316285,8|8,0:0|0:0,0:0:0:0:
112,239,67841,2,0,P|60:218|6:208,2,109.999990463257,8|8|8,0:0|0:0|0:0,0:0:0:0:
29,342,69145,1,8,0:0:0:0:
96,337,69362,1,10,0:0:0:0:
157,311,69580,6,0,P|266:317|375:301,1,219.999980926514,12|2,0:0|0:0,0:0:0:0:
503,267,70884,1,8,0:0:0:0:
469,210,71101,1,2,0:0:0:0:
488,146,71319,2,0,P|454:138|420:120,1,54.9999952316285,8|8,0:0|0:0,0:0:0:0:
369,130,71754,2,0,P|335:137|301:156,1,54.9999952316285,2|8,0:0|0:0,0:0:0:0:
266,188,72188,2,0,P|291:198|318:203,1,54.9999952316285,2|2,0:0|0:0,0:0:0:0:
370,244,72623,2,0,P|344:254|317:259,1,54.9999952316285,2|8,0:0|0:0,0:0:0:0:
264,299,73058,6,0,P|155:282|45:289,1,219.999980926514,12|2,0:0|0:0,0:0:0:0:
21,159,74362,1,2,0:0:0:0:
81,132,74579,1,8,0:0:0:0:
146,137,74797,2,0,P|174:141|200:142,1,54.9999952316285,8|8,0:0|0:0,0:0:0:0:
228,82,75232,2,0,P|256:78|282:77,1,54.9999952316285,2|8,0:0|0:0,0:0:0:0:
338,40,75667,2,0,P|366:44|392:45,1,54.9999952316285,2|2,0:0|0:0,0:0:0:0:
427,101,76101,2,0,P|454:105|481:106,1,54.9999952316285,2|8,0:0|0:0,0:0:0:0:
480,172,76536,6,0,P|371:188|261:181,1,219.999980926514,12|2,0:0|0:0,0:0:0:0:
129,169,77841,1,8,0:0:0:0:
127,37,78275,2,0,P|73:47|21:67,2,109.999990463257,8|10|8,0:0|0:0|0:0,0:0:0:0:
214,135,79580,1,8,0:0:0:0:
275,159,79797,1,2,0:0:0:0:
337,137,80014,6,0,P|370:134|395:124,1,54.9999952316285,12|0,0:0|0:0,0:0:0:0:
419,66,80449,2,0,P|393:56|365:55,1,54.9999952316285,8|0,0:0|0:0,0:0:0:0:
301,42,80884,2,0,P|275:51|247:52,1,54.9999952316285,8|0,0:0|0:0,0:0:0:0:
183,34,81319,2,0,P|157:24|129:23,1,54.9999952316285,8|8,0:0|0:0,0:0:0:0:
111,86,81754,2,0,P|57:96|5:116,2,109.999990463257,8|10|10,0:0|0:0|0:0,0:0:0:0:
222,156,83058,1,10,0:0:0:0:
217,221,83275,1,10,0:0:0:0:
174,271,83493,5,14,0:0:0:0:
