osu file format v14

[General]
AudioFilename: Odoru Mizushibuki.mp3
AudioLeadIn: 2000
PreviewTime: 0
Countdown: 0
SampleSet: Soft
StackLeniency: 0.7
Mode: 0
LetterboxInBreaks: 0
WidescreenStoryboard: 1

[Editor]
DistanceSpacing: 0.8
BeatDivisor: 6
GridSize: 8
TimelineZoom: 2.2

[Metadata]
Title:Odoru Mizushibuki
TitleUnicode:踊る水飛沫
Artist:Akiyama Uni
ArtistUnicode:あきやま うに
Creator:Hollow Wings
Version:Insane
Source:東方Project
Tags:Touhou th10.5 fxt Twilight Frontier Tasofro 黄昏フロンティア zun Scarlet Weather Rhapsody jun Dancing Water Spray 小野冢小町 おのづか こまち Onozuka Komachi
BeatmapID:525219
BeatmapSetID:153887

[Difficulty]
HPDrainRate:6
CircleSize:3
OverallDifficulty:5.5
ApproachRate:8
SliderMultiplier:2.09999990463257
SliderTickRate:2

[Events]
//Background and Video events
0,0,"Odoru Mizushibuki.jpg",0,0
//Break Periods
//Storyboard Layer 0 (Background)
//Storyboard Layer 1 (Fail)
//Storyboard Layer 2 (Pass)
//Storyboard Layer 3 (Foreground)
//Storyboard Sound Samples

[TimingPoints]
15,434.782608695652,4,2,1,60,1,0
6971,-83.3333333333333,4,2,1,70,0,0
13058,-66.6666666666667,4,2,1,70,0,0
13928,-83.3333333333333,4,2,1,70,0,0
20014,-66.6666666666667,4,2,1,70,0,0
20884,-58.8235294117647,4,2,1,80,0,0
26971,-50,4,2,1,80,0,0
27841,-58.8235294117647,4,2,1,80,0,0
33928,-50,4,2,1,80,0,0
34797,-100,4,2,1,80,0,0
48710,-58.8235294117647,4,2,1,90,0,0
49797,-62.5,4,2,1,90,0,0
50232,-66.6666666666667,4,2,1,90,0,0
52188,-62.5,4,2,1,90,0,0
53058,-58.8235294117647,4,2,1,90,0,0
53928,-55.5555555555556,4,2,1,90,0,0
54797,-52.6315789473684,4,2,1,90,0,0
55667,-50,4,2,1,80,0,1
69145,-50,4,2,1,80,0,0
69580,-50,4,2,1,80,0,1
83493,-66.6666666666667,4,2,1,80,0,0

[Colours]
Combo1 : 252,252,252
Combo2 : 121,185,255

[HitObjects]
220,114,15,6,0,P|277:114|325:102,2,104.999995231629,2|0|0,0:1|0:0|0:0,0:0:0:0:
220,114,558,2,0,P|170:106|115:110,1,104.999995231629
86,199,884,5,0,0:0:0:0:
86,199,993,2,0,P|150:208|211:203,1,104.999995231629,8|0,0:1|0:0,0:0:0:0:
283,190,1319,1,0,0:0:0:0:
283,190,1428,2,0,P|324:227|378:254,1,104.999995231629,2|0,0:0|0:0,0:0:0:0:
348,343,1754,6,0,P|295:342|244:353,2,104.999995231629,2|0|0,0:1|0:0|0:0,0:0:0:0:
348,343,2297,2,0,P|303:314|254:298,1,104.999995231629
159,308,2623,5,0,0:0:0:0:
159,308,2732,2,0,P|112:284|62:268,1,104.999995231629,8|0,0:0|0:0,0:0:0:0:
128,199,3058,1,0,0:0:0:0:
127,198,3167,2,0,P|77:184|25:186,1,104.999995231629
118,87,3493,6,0,P|65:85|16:103,2,104.999995231629,2|0|0,0:1|0:0|0:0,0:0:0:0:
118,87,4036,2,0,P|181:98|240:126,1,104.999995231628
306,150,4362,5,0,0:0:0:0:
306,150,4471,2,0,P|358:153|408:140,1,104.999995231629,8|0,0:1|0:0,0:0:0:0:
464,63,4797,1,0,0:0:0:0:
463,62,4906,2,0,P|414:45|362:42,1,104.999995231629,2|0,0:0|0:0,0:0:0:0:
305,149,5232,6,0,P|253:157|201:156,2,104.999995231628
362,224,5775,1,0,0:0:0:0:
362,224,5884,2,0,L|414:219,1,52.4999976158143
430,312,6101,6,0,L|358:304,1,52.4999976158142,8|2,0:0|0:0,0:0:0:0:
289,269,6319,2,0,L|237:276,1,52.4999976158142
292,353,6536,6,0,L|239:358,1,52.4999976158143,8|2,0:0|0:0,0:0:0:0:
159,306,6754,2,0,L|106:299,1,52.4999976158142,0|2,0:0|0:0,0:0:0:0:
3,251,6971,6,0,P|58:221|120:211,2,125.99999043274,12|8|2,0:0|0:0|0:0,0:0:0:0:
5,364,7623,2,0,P|35:372|66:376,2,62.9999952163698,8|2|8,0:0|0:0|0:0,0:0:0:0:
115,348,8058,2,0,P|177:345|239:357,1,125.99999043274,8|2,0:0|0:0,0:0:0:0:
226,244,8493,2,0,P|255:254|286:257,1,62.9999952163698,8|2,0:0|0:0,0:0:0:0:
328,296,8710,6,0,P|391:297|453:283,2,125.99999043274,8|8|2,0:0|0:0|0:0,0:0:0:0:
353,185,9362,2,0,P|381:172|412:164,2,62.9999952163698,8|2|10,0:0|0:0|0:0,0:0:0:0:
394,79,9797,2,0,P|332:68|269:73,1,125.99999043274,8|8,0:0|0:0,0:0:0:0:
269,73,10232,1,2,0:0:0:0:
164,116,10449,6,0,P|101:120|40:106,2,125.99999043274,8|8|2,0:0|0:0|0:0,0:0:0:0:
269,73,11101,2,0,P|300:68|329:58,1,62.9999952163698,8|2,0:0|0:0,0:0:0:0:
376,23,11319,2,0,P|438:29|496:54,1,125.99999043274,8|8,0:0|0:0,0:0:0:0:
484,167,11754,2,0,P|421:175|362:196,1,125.99999043274,2|8,0:0|0:0,0:0:0:0:
279,273,12188,6,0,P|340:283|403:277,1,125.99999043274,2|10,0:0|0:0,0:0:0:0:
459,270,12514,2,0,L|479:304,2,31.4999976081849,2|2|2,0:0|0:0|0:0,0:0:0:0:
459,270,12841,1,10,0:0:0:0:
337,342,13058,5,10,0:0:0:0:
195,348,13275,1,8,0:0:0:0:
53,330,13493,1,2,0:0:0:0:
53,330,13710,1,8,0:0:0:0:
55,216,13928,6,0,P|116:228|177:213,2,125.99999043274,12|8|2,0:0|0:0|0:0,0:0:0:0:
55,101,14580,2,0,P|87:99|117:90,2,62.9999952163698,8|2|8,0:0|0:0|0:0,0:0:0:0:
146,168,15015,2,0,P|206:187|269:187,1,125.99999043274,8|2,0:0|0:0,0:0:0:0:
381,178,15450,2,0,P|413:173|442:162,1,62.9999952163698,8|2,0:0|0:0,0:0:0:0:
488,129,15667,6,0,P|445:83|385:66,2,125.99999043274,8|8|2,0:0|0:0|0:0,0:0:0:0:
447,236,16319,2,0,P|408:243|382:255,2,62.9999952163698,8|2|10,0:0|0:0|0:0,0:0:0:0:
357,305,16754,2,0,P|295:314|235:297,1,125.99999043274,8|8,0:0|0:0,0:0:0:0:
235,297,17189,1,2,0:0:0:0:
167,206,17406,6,0,P|104:202|44:220,2,125.99999043274,8|8|2,0:0|0:0|0:0,0:0:0:0:
162,319,18058,2,0,P|130:318|100:310,1,62.9999952163698,8|2,0:0|0:0,0:0:0:0:
121,255,18276,2,0,P|183:263|236:296,1,125.99999043274,8|8,0:0|0:0,0:0:0:0:
335,351,18711,2,0,P|393:328|456:320,1,125.99999043274,2|8,0:0|0:0,0:0:0:0:
468,208,19145,6,0,P|406:222|344:222,1,125.99999043274,2|10,0:0|0:0,0:0:0:0:
288,209,19435,2,0,L|250:190,2,41.9999968109132,2|2|2,0:0|0:0|0:0,0:0:0:0:
288,209,19798,1,10,0:0:0:0:
151,172,20015,5,10,0:0:0:0:
9,181,20232,1,8,0:0:0:0:
112,83,20450,1,2,0:0:0:0:
245,128,20667,1,8,0:0:0:0:
244,127,20884,6,0,P|332:111|410:68,1,178.499995298386,12|8,0:0|0:0,0:0:0:0:
463,227,21319,2,0,P|374:230|287:208,1,178.499995298386,2|8,0:0|0:0,0:0:0:0:
207,207,21645,1,10,0:0:0:0:
207,207,21754,2,0,P|128:249|40:261,2,178.499995298386,8|8|2,0:0|0:0|0:0,0:0:0:0:
347,128,22406,2,0,P|390:135|432:152,1,89.2499976491928,8|2,0:0|0:0,0:0:0:0:
462,226,22623,6,0,P|376:232|317:297,2,178.499995298386,8|8|2,0:0|0:0|0:0,0:0:0:0:
317,297,23275,2,0,P|273:293|229:282,1,89.2499976491928,8|10,0:0|0:0,0:0:0:0:
207,206,23493,2,0,P|124:239|35:250,1,178.499995298386,8|8,0:0|0:0,0:0:0:0:
176,329,23928,2,0,P|88:341|0:324,1,178.499995298386,2|8,0:0|0:0,0:0:0:0:
45,164,24362,6,0,P|128:130|216:122,1,178.499995298386,8|8,0:0|0:0,0:0:0:0:
355,40,24797,1,2,0:0:0:0:
494,116,25014,2,0,P|452:104|408:105,1,89.2499976491928,8|2,0:0|0:0,0:0:0:0:
328,121,25232,2,0,P|246:86|157:77,1,178.499995298386,8|8,0:0|0:0,0:0:0:0:
271,192,25667,2,0,P|189:226|100:231,1,178.499995298386,2|8,0:0|0:0,0:0:0:0:
247,295,26101,6,0,P|330:326|418:334,1,178.499995298386,2|8,0:0|0:0,0:0:0:0:
457,263,26428,2,0,P|478:258|500:259,2,44.6249988245964,2|2|2,0:0|0:0|0:0,0:0:0:0:
457,263,26754,1,8,0:0:0:0:
483,76,26971,2,0,P|380:54|276:64,1,209.999990463257,8|8,0:0|0:0,0:0:0:0:
276,64,27406,2,0,P|176:31|71:30,1,209.999990463257,2|10,0:0|0:0,0:0:0:0:
40,169,27841,6,0,P|128:172|214:147,1,178.499995298386,12|8,0:0|0:0,0:0:0:0:
337,220,28276,2,0,P|253:187|165:180,1,178.499995298386,2|8,0:0|0:0,0:0:0:0:
107,110,28602,1,10,0:0:0:0:
107,110,28710,2,0,P|186:72|275:63,2,178.499995298386,8|8|2,0:0|0:0|0:0,0:0:0:0:
270,153,29363,2,0,P|313:142|349:117,1,89.2499976491928,8|2,0:0|0:0,0:0:0:0:
339,52,29580,6,0,P|422:85|511:93,2,178.499995298386,8|8|2,0:0|0:0|0:0,0:0:0:0:
445,173,30232,2,0,P|403:184|358:186,1,89.2499976491928,8|10,0:0|0:0,0:0:0:0:
290,231,30450,2,0,P|378:239|462:270,1,178.499995298386,8|8,0:0|0:0,0:0:0:0:
320,344,30884,2,0,P|234:370|145:375,1,178.499995298386,2|8,0:0|0:0,0:0:0:0:
70,233,31319,6,0,P|149:273|236:289,1,178.499995298386,8|8,0:0|0:0,0:0:0:0:
358,186,31754,1,2,0:0:0:0:
198,174,31971,2,0,P|152:162|104:162,1,89.2499976491928,8|2,0:0|0:0,0:0:0:0:
69,232,32189,2,0,P|148:274|236:289,1,178.499995298386,8|8,0:0|0:0,0:0:0:0:
235,288,32623,2,0,P|313:329|400:347,1,178.499995298386,2|8,0:0|0:0,0:0:0:0:
498,218,33058,6,0,P|419:260|332:276,1,178.499995298386,2|8,0:0|0:0,0:0:0:0:
277,217,33348,2,0,P|247:217|219:227,2,59.4999984327952,2|2|2,0:0|0:0|0:0,0:0:0:0:
277,217,33710,1,8,0:0:0:0:
136,90,33928,2,0,P|234:123|339:121,1,209.999990463257,2|8,0:0|0:0,0:0:0:0:
339,120,34362,2,0,P|239:154|135:155,1,209.999990463257,2|10,0:0|0:0,0:0:0:0:
116,248,34797,6,0,P|63:250|11:259,2,104.999995231629,12|0|0,0:0|0:0|0:0,0:0:0:0:
192,301,35449,2,0,P|218:306|245:306,2,52.4999976158143,2|0|0,0:1|0:0|0:0,0:0:0:0:
278,261,35884,2,0,P|329:269|382:267,1,104.999995231629
382,267,36319,1,0,0:0:0:0:
451,203,36536,5,2,0:1:0:0:
451,203,36754,2,0,L|459:169,3,34.9999984105428
365,176,37188,2,0,P|336:173|303:184,2,52.4999976158143,2|0|0,0:1|0:0|0:0,0:0:0:0:
272,152,37623,2,0,P|221:144|168:142,1,104.999995231629,8|2,0:0|0:0,0:0:0:0:
168,142,38058,1,0,0:0:0:0:
167,142,38275,6,0,P|115:138|63:144,2,104.999995231629,2|0|0,0:1|0:0|0:0,0:0:0:0:
221,63,38928,2,0,P|248:60|274:60,2,52.4999976158143,2|0|0,0:1|0:0|0:0,0:0:0:0:
307,103,39363,2,0,P|357:117|409:123,1,104.999995231629
409,123,39797,1,0,0:0:0:0:
488,72,40014,6,0,P|435:71|383:79,1,104.999995231629,2|0,0:1|0:0,0:0:0:0:
322,151,40449,1,0,0:0:0:0:
314,245,40667,2,0,P|340:245|365:251,1,52.4999976158143,8|0,0:0|0:0,0:0:0:0:
396,287,40884,2,0,P|427:276|452:267,2,52.4999976158143,0|0|8,0:0|0:0|0:0,0:0:0:0:
312,333,41319,2,0,P|235:323|159:302,1,157.499992847443,2|0,0:0|3:0,0:0:0:0:
158,302,41754,6,0,P|107:311|54:311,2,104.999995231629,12|0|0,0:0|0:0|0:0,0:0:0:0:
124,213,42406,2,0,P|98:220|72:219,2,52.4999976158143,2|0|0,0:1|0:0|0:0,0:0:0:0:
88,125,42841,2,0,P|140:121|191:132,1,104.999995231629
191,132,43276,1,0,0:0:0:0:
267,77,43493,5,2,0:1:0:0:
267,77,43711,2,0,L|257:43,3,34.9999984105428
351,56,44145,2,0,P|377:50|402:46,2,52.4999976158143,2|0|0,0:1|0:0|0:0,0:0:0:0:
326,147,44580,2,0,P|377:158|429:159,1,104.999995231629,8|2,0:0|0:0,0:0:0:0:
429,159,45015,1,0,0:0:0:0:
438,252,45232,6,0,P|387:260|334:261,2,104.999995231629,2|0|0,0:1|0:0|0:0,0:0:0:0:
454,345,45885,2,0,L|421:355|403:353,2,52.4999976158143,2|0|0,0:1|0:0|0:0,0:0:0:0:
438,251,46320,2,0,P|385:252|334:241,1,104.999995231629
243,218,46754,1,0,0:0:0:0:
169,278,46971,6,0,P|117:279|65:287,1,104.999995231629,2|0,0:1|0:0,0:0:0:0:
19,205,47406,1,0,0:0:0:0:
48,114,47624,2,0,P|74:120|100:122,1,52.4999976158143,8|0,0:0|0:0,0:0:0:0:
106,168,47841,2,0,P|132:174|155:186,2,52.4999976158143,0|0|8,0:0|0:0|0:0,0:0:0:0:
117,74,48276,2,0,P|143:69|170:67,1,52.4999976158143,8|8,0:0|0:0,0:0:0:0:
196,107,48493,2,0,P|226:122|251:126,1,52.4999976158143,2|2,0:0|0:0,0:0:0:0:
314,85,48710,6,0,P|392:46|478:62,2,178.499995298386,12|2|2,0:0|0:0|0:0,0:0:0:0:
314,85,49362,2,0,P|235:124|149:108,2,178.499995298386,8|2|2,0:0|0:0|0:0,0:0:0:0:
328,235,50014,6,0,P|406:274|485:263,2,167.999992370606,8|2|2,0:0|0:0|0:0,0:0:0:0:
328,235,50667,2,0,P|257:202|181:216,2,157.499998855591,8|2|2,0:0|0:0|0:0,0:0:0:0:
328,235,51319,5,2,0:0:0:0:
328,235,51536,1,2,0:0:0:0:
328,235,51754,1,2,0:0:0:0:
239,301,51971,1,2,0:0:0:0:
239,301,52080,1,0,0:0:0:0:
239,301,52188,6,0,P|198:312|156:315,1,83.9999961853028,2|0,0:0|0:0,0:0:0:0:
156,315,52514,1,8,0:0:0:0:
209,210,52732,5,2,0:0:0:0:
209,210,52841,1,0,0:0:0:0:
209,210,52949,1,2,0:0:0:0:
209,210,53058,6,0,P|167:225|123:235,1,89.2499976491928,2|0,0:0|0:0,0:0:0:0:
123,235,53384,1,8,0:0:0:0:
150,113,53601,5,2,0:0:0:0:
150,113,53710,1,0,0:0:0:0:
150,113,53819,1,2,0:0:0:0:
150,112,53928,6,0,P|112:141|70:161,1,94.4999928245547,2|0,0:0|0:0,0:0:0:0:
69,161,54254,1,8,0:0:0:0:
86,27,54471,5,2,0:0:0:0:
86,27,54580,1,0,0:0:0:0:
86,27,54688,1,2,0:0:0:0:
86,27,54797,6,0,P|130:49|179:56,1,99.7499928064349,2|0,0:0|0:0,0:0:0:0:
257,101,55014,2,0,P|306:99|356:91,1,99.7499928064349,0|2,0:0|0:0,0:0:0:0:
440,124,55232,6,0,P|404:159|360:182,1,99.7499928064349,8|8,0:0|0:0,0:0:0:0:
278,220,55449,2,0,P|229:231|179:234,1,99.7499928064349,2|2,0:0|0:0,0:0:0:0:
69,161,55667,5,12,0:0:0:0:
278,220,55884,1,8,0:0:0:0:
84,240,56101,1,2,0:0:0:0:
84,240,56319,2,0,P|133:258|184:267,1,104.999995231629,8|0,0:0|0:0,0:0:0:0:
207,347,56536,2,0,P|311:333|400:280,1,209.999990463257,8|8,0:0|0:0,0:0:0:0:
308,138,56971,2,0,P|406:102|510:92,1,209.999990463257,2|8,0:0|0:0,0:0:0:0:
510,92,57406,6,0,B|406:34|310:32,1,209.999990463257,8|8,0:0|0:0,0:0:0:0:
180,139,57841,2,0,P|284:130|379:87,1,209.999990463257,2|8,0:0|0:0,0:0:0:0:
297,233,58275,5,2,0:0:0:0:
297,233,58384,1,2,0:0:0:0:
297,233,58493,1,2,0:0:0:0:
379,87,58710,6,0,B|431:152|444:284,1,209.999990463257,2|2,0:0|0:0,0:0:0:0:
444,283,59036,1,2,0:0:0:0:
444,283,59145,5,12,0:0:0:0:
283,332,59362,1,8,0:0:0:0:
114,321,59580,1,2,0:0:0:0:
114,320,59797,2,0,P|165:309|212:286,1,104.999995231629,8|0,0:0|0:0,0:0:0:0:
169,214,60014,2,0,P|272:201|374:224,1,209.999990463257,8|8,0:0|0:0,0:0:0:0:
509,124,60449,2,0,P|412:164|308:179,1,209.999990463257,2|8,0:0|0:0,0:0:0:0:
444,283,60884,6,0,P|339:280|240:245,1,209.999990463257,8|8,0:0|0:0,0:0:0:0:
242,77,61319,2,0,P|137:80|36:109,1,209.999990463257,2|10,0:0|0:0,0:0:0:0:
36,109,61645,1,2,0:0:0:0:
36,109,61754,6,0,P|74:143|87:193,3,104.999995231629,8|8|2|2,0:0|0:0|0:0|0:0,0:0:0:0:
36,108,62188,6,0,P|136:80|241:77,1,209.999990463257,2|10,0:0|0:0,0:0:0:0:
241,77,62514,1,2,0:0:0:0:
241,77,62623,5,8,0:0:0:0:
408,59,62841,1,2,0:0:0:0:
408,59,63058,1,2,0:0:0:0:
271,156,63275,1,2,0:0:0:0:
271,156,63384,1,2,0:0:0:0:
271,156,63493,5,8,0:0:0:0:
433,198,63711,1,2,0:0:0:0:
433,198,63928,1,2,0:0:0:0:
271,241,64145,1,2,0:0:0:0:
271,241,64254,1,2,0:0:0:0:
270,241,64362,6,0,P|370:267|436:347,1,209.999990463257,8|8,0:0|0:0,0:0:0:0:
267,341,64797,2,0,P|182:282|129:192,1,209.999990463257,2|8,0:0|0:0,0:0:0:0:
96,27,65232,5,8,0:0:0:0:
96,27,65341,1,2,0:0:0:0:
96,27,65449,1,8,0:0:0:0:
0,165,65667,6,0,P|103:180|204:154,1,209.999990463257,2|8,0:0|0:0,0:0:0:0:
204,154,66101,5,10,0:0:0:0:
351,74,66319,1,2,0:0:0:0:
351,74,66536,1,2,0:0:0:0:
288,230,66754,5,10,0:0:0:0:
351,74,66972,1,2,0:0:0:0:
351,74,67188,1,2,0:0:0:0:
400,235,67406,5,10,0:0:0:0:
351,74,67624,1,10,0:0:0:0:
503,143,67841,6,0,P|451:152|399:148,7,104.999995231629,8|0|8|0|10|0|10|2,0:0|0:0|0:0|0:0|0:0|0:0|0:0|0:0,0:0:0:0:
315,158,68710,6,0,P|277:195|230:217,1,104.999995231629,8|2,0:0|0:0,0:0:0:0:
191,293,68928,2,0,P|139:289|91:269,1,104.999995231629,10|8,0:0|0:0,0:0:0:0:
38,204,69145,5,10,0:0:0:0:
38,204,69254,1,2,0:0:0:0:
38,204,69362,1,10,0:0:0:0:
38,204,69471,1,10,0:0:0:0:
38,204,69580,5,12,0:0:0:0:
204,180,69797,1,8,0:0:0:0:
364,228,70014,1,2,0:0:0:0:
364,228,70232,2,0,P|415:218|464:200,1,104.999995231629,8|0,0:0|0:0,0:0:0:0:
437,280,70449,2,0,P|333:266|244:213,1,209.999990463257,8|8,0:0|0:0,0:0:0:0:
395,139,70884,2,0,P|297:103|193:93,1,209.999990463257,2|8,0:0|0:0,0:0:0:0:
26,120,71319,6,0,B|122:118|226:60,1,209.999990463257,8|8,0:0|0:0,0:0:0:0:
237,227,71754,2,0,P|341:236|436:279,1,209.999990463257,2|8,0:0|0:0,0:0:0:0:
274,324,72188,5,2,0:0:0:0:
274,324,72297,1,2,0:0:0:0:
274,324,72406,1,2,0:0:0:0:
436,279,72623,6,0,B|449:147|501:82,1,209.999990463257,2|2,0:0|0:0,0:0:0:0:
500,82,72949,1,2,0:0:0:0:
500,82,73058,5,12,0:0:0:0:
340,132,73275,1,8,0:0:0:0:
496,193,73493,1,2,0:0:0:0:
454,355,73710,2,0,P|403:344|356:321,1,104.999995231629,8|0,0:0|0:0,0:0:0:0:
274,324,73927,2,0,P|170:311|68:334,1,209.999990463257,8|8,0:0|0:0,0:0:0:0:
201,230,74362,2,0,P|97:215|0:174,1,209.999990463257,2|8,0:0|0:0,0:0:0:0:
165,139,74797,6,0,P|269:136|368:101,1,209.999990463257,8|8,0:0|0:0,0:0:0:0:
485,221,75232,2,0,P|384:191|279:188,1,209.999990463257,2|10,0:0|0:0,0:0:0:0:
279,188,75558,1,2,0:0:0:0:
279,188,75667,6,0,P|280:142|268:73,3,104.999995231629,8|8|2|2,0:0|0:0|0:0|0:0,0:0:0:0:
279,188,76101,6,0,P|179:216|74:219,1,209.999990463257,2|10,0:0|0:0,0:0:0:0:
73,218,76427,1,2,0:0:0:0:
72,218,76536,5,8,0:0:0:0:
234,263,76754,1,2,0:0:0:0:
234,263,76971,1,2,0:0:0:0:
72,307,77188,1,2,0:0:0:0:
72,307,77297,1,2,0:0:0:0:
72,307,77406,5,8,0:0:0:0:
234,351,77624,1,2,0:0:0:0:
234,351,77841,1,2,0:0:0:0:
400,327,78058,1,2,0:0:0:0:
400,327,78167,1,2,0:0:0:0:
399,326,78275,6,0,P|358:232|270:178,1,209.999990463257,8|8,0:0|0:0,0:0:0:0:
103,196,78710,2,0,P|188:137|241:47,1,209.999990463257,2|8,0:0|0:0,0:0:0:0:
408,69,79145,5,8,0:0:0:0:
408,69,79254,1,2,0:0:0:0:
408,69,79362,1,8,0:0:0:0:
307,206,79580,6,0,P|205:180|102:195,1,209.999990463257,2|8,0:0|0:0,0:0:0:0:
102,195,80014,5,10,0:0:0:0:
194,335,80232,1,2,0:0:0:0:
194,335,80449,1,2,0:0:0:0:
307,206,80667,5,10,0:0:0:0:
194,335,80885,1,2,0:0:0:0:
194,335,81101,1,2,0:0:0:0:
204,166,81319,5,10,0:0:0:0:
194,335,81537,1,10,0:0:0:0:
350,275,81754,6,0,P|298:266|246:269,7,104.999995231629,8|0|8|0|10|0|10|2,0:0|0:0|0:0|0:0|0:0|0:0|0:0|0:0,0:0:0:0:
194,335,82623,6,0,P|146:312|109:276,1,104.999995231629,8|2,0:0|0:0,0:0:0:0:
103,190,82841,2,0,P|155:186|203:166,1,104.999995231629,10|8,0:0|0:0,0:0:0:0:
250,71,83058,5,10,0:0:0:0:
250,71,83167,1,2,0:0:0:0:
250,71,83275,1,10,0:0:0:0:
250,71,83384,1,10,0:0:0:0:
250,71,83493,5,6,0:0:0:0:
