osu file format v14

[General]
AudioFilename: Odoru Mizushibuki.mp3
AudioLeadIn: 2000
PreviewTime: 0
Countdown: 0
SampleSet: Soft
StackLeniency: 0.7
Mode: 0
LetterboxInBreaks: 0
WidescreenStoryboard: 1

[Editor]
DistanceSpacing: 0.5
BeatDivisor: 6
GridSize: 8
TimelineZoom: 2.2

[Metadata]
Title:Odoru Mizushibuki
TitleUnicode:踊る水飛沫
Artist:Akiyama Uni
ArtistUnicode:あきやま うに
Creator:Hollow Wings
Version:Extra
Source:東方Project
Tags:Touhou th10.5 fxt Twilight Frontier Tasofro 黄昏フロンティア zun Scarlet Weather Rhapsody jun Dancing Water Spray 小野冢小町 おのづか こまち Onozuka Komachi
BeatmapID:523532
BeatmapSetID:153887

[Difficulty]
HPDrainRate:6
CircleSize:3
OverallDifficulty:7
ApproachRate:9.5
SliderMultiplier:3.09999990463257
SliderTickRate:2

[Events]
//Background and Video events
0,0,"Odoru Mizushibuki.jpg",0,0
//Break Periods
//Storyboard Layer 0 (Background)
//Storyboard Layer 1 (Fail)
//Storyboard Layer 2 (Pass)
//Storyboard Layer 3 (Foreground)
//Storyboard Sound Samples

[TimingPoints]
15,434.782608695652,4,2,1,60,1,0
6971,-83.3333333333333,4,2,1,70,0,0
13058,-66.6666666666667,4,2,1,70,0,0
13928,-83.3333333333333,4,2,1,70,0,0
20014,-66.6666666666667,4,2,1,70,0,0
20884,-58.8235294117647,4,2,1,80,0,0
26971,-50,4,2,1,80,0,0
27841,-58.8235294117647,4,2,1,80,0,0
33928,-50,4,2,1,80,0,0
34797,-100,4,2,1,80,0,0
48710,-58.8235294117647,4,2,1,90,0,0
49797,-62.5,4,2,1,90,0,0
50232,-66.6666666666667,4,2,1,90,0,0
52188,-62.5,4,2,1,90,0,0
53058,-58.8235294117647,4,2,1,90,0,0
53928,-55.5555555555556,4,2,1,90,0,0
54797,-52.6315789473684,4,2,1,90,0,0
55667,-50,4,2,1,80,0,1
69145,-50,4,2,1,80,0,0
69580,-50,4,2,1,80,0,1
83493,-66.6666666666667,4,2,1,80,0,0

[Colours]
Combo1 : 252,252,252
Combo2 : 121,185,255

[HitObjects]
255,289,15,6,0,L|426:295,2,154.999995231629,2|0|0,0:1|0:0|0:0,0:0:0:0:
157,252,558,2,0,L|-14:258,1,154.999995231629,0|0,0:0|0:0,0:0:0:0:
119,144,884,5,0,0:0:0:0:
196,117,993,2,0,L|25:111,1,154.999995231629,8|0,0:1|0:0,0:0:0:0:
364,160,1319,1,0,0:0:0:0:
441,127,1428,2,0,L|286:132,1,154.999995231629,2|0,0:0|0:0,0:0:0:0:
481,47,1754,6,0,L|310:41,2,154.999995231629,2|0|0,0:1|0:0|0:0,0:0:0:0:
441,127,2297,2,0,L|286:132,1,154.999995231629
9,144,2623,5,0,0:0:0:0:
78,187,2732,2,0,L|249:193,1,154.999995231629,8|0,0:0|0:0,0:0:0:0:
85,268,3058,1,0,0:0:0:0:
156,221,3167,2,0,L|327:215,1,154.999995231629
183,67,3493,6,0,L|12:61,2,154.999995231629,2|0|0,0:1|0:0|0:0,0:0:0:0:
286,132,4036,2,0,L|440:126,1,154.999995231629
358,298,4362,5,0,0:0:0:0:
281,266,4471,2,0,L|435:271,1,154.999995231629,8|0,0:1|0:0,0:0:0:0:
122,267,4797,1,0,0:0:0:0:
44,239,4906,2,0,L|199:234,1,154.999995231629,2|0,0:0|0:0,0:0:0:0:
446,344,5232,6,0,L|292:350,2,154.999995231629,0|0|0,0:0|0:0|0:0,0:0:0:0:
187,323,5775,1,0,0:0:0:0:
29,356,5884,2,0,L|111:350,1,77.4999976158143
268,236,6101,6,0,L|179:224,1,77.4999976158143,8|2,0:0|0:0,0:0:0:0:
19,192,6319,2,0,L|108:180,1,77.4999976158143,0|0,0:0|0:0,0:0:0:0:
445,236,6536,6,0,L|356:248,1,77.4999976158143,8|2,0:0|0:0,0:0:0:0:
110,312,6754,2,0,L|186:322,1,77.4999976158143,0|2,0:0|0:0,0:0:0:0:
505,151,6971,6,0,P|409:146|319:175,2,185.999988601685,12|8|2,0:0|0:0|0:0,0:0:0:0:
22,102,7623,2,0,P|66:116|113:122,1,92.9999943008425,8|2,0:0|0:0,0:0:0:0:
305,77,7841,1,8,0:0:0:0:
23,326,8058,2,0,P|114:335|203:308,1,185.999988601685,8|2,0:0|0:0,0:0:0:0:
511,65,8493,2,0,P|464:60|418:61,1,92.9999943008425,8|2,0:0|0:0,0:0:0:0:
122,250,8710,6,0,P|210:276|302:271,2,185.999988601685,8|8|2,0:0|0:0|0:0,0:0:0:0:
499,347,9362,2,0,P|465:322|410:302,1,92.9999943008425,8|2,0:0|0:0,0:0:0:0:
211,276,9580,1,10,0:0:0:0:
511,65,9797,2,0,P|422:91|330:86,1,185.999988601685,8|8,0:0|0:0,0:0:0:0:
511,65,10232,1,2,0:0:0:0:
39,200,10449,6,0,P|127:173|219:178,2,185.999988601685,8|8|2,0:0|0:0|0:0,0:0:0:0:
495,158,11101,2,0,P|450:171|404:171,1,92.9999943008425,8|2,0:0|0:0,0:0:0:0:
23,287,11319,2,0,P|115:281|203:308,1,185.999988601685,8|8,0:0|0:0,0:0:0:0:
511,65,11754,2,0,P|422:91|330:86,1,185.999988601685,2|8,0:0|0:0,0:0:0:0:
22,329,12188,6,0,P|110:302|203:308,1,185.999988601685,2|10,0:0|0:0,0:0:0:0:
280,271,12514,2,0,L|345:273,2,46.4999971504213,2|2|2,0:0|0:0|0:0,0:0:0:0:
280,271,12841,1,10,0:0:0:0:
496,350,13058,5,10,0:0:0:0:
9,244,13275,1,8,0:0:0:0:
494,261,13493,1,2,0:0:0:0:
23,330,13710,1,8,0:0:0:0:
23,330,13928,6,0,P|111:303|203:308,2,185.999988601685,12|8|2,0:0|0:0|0:0,0:0:0:0:
312,62,14580,2,0,P|268:77|199:77,1,92.9999943008425,8|2,0:0|0:0,0:0:0:0:
27,34,14798,5,8,0:0:0:0:
203,308,15014,2,0,P|295:313|383:286,1,185.999988601685,8|2,0:0|0:0,0:0:0:0:
492,62,15449,2,0,P|448:47|379:47,1,92.9999943008425,8|2,0:0|0:0,0:0:0:0:
203,308,15667,6,0,P|114:334|22:329,2,185.999988601685,8|8|2,0:0|0:0|0:0,0:0:0:0:
27,34,16319,2,0,P|70:46|119:47,1,92.9999943008425,8|2,0:0|0:0,0:0:0:0:
283,20,16537,5,10,0:0:0:0:
482,359,16754,2,0,P|389:364|301:337,1,185.999988601685,8|8,0:0|0:0,0:0:0:0:
474,52,17189,1,2,0:0:0:0:
204,200,17406,6,0,P|108:205|18:176,2,185.999988601685,8|8|2,0:0|0:0|0:0,0:0:0:0:
17,363,18058,2,0,P|67:358|113:339,1,92.9999943008425,8|2,0:0|0:0,0:0:0:0:
294,31,18275,6,0,P|390:26|480:55,1,185.999988601685,8|8,0:0|0:0,0:0:0:0:
106,342,18710,2,0,P|194:369|287:364,1,185.999988601685,2|8,0:0|0:0,0:0:0:0:
294,118,19145,2,0,P|205:144|113:139,1,185.999988601685,2|8,0:0|0:0,0:0:0:0:
72,50,19435,2,0,L|13:29,2,61.9999962005617,2|2|2,0:0|0:0|0:0,0:0:0:0:
76,237,19798,1,8,0:0:0:0:
473,138,20015,5,2,0:0:0:0:
10,159,20232,1,8,0:0:0:0:
485,308,20450,1,2,0:0:0:0:
76,237,20667,1,8,0:0:0:0:
315,287,20884,6,0,P|195:341|65:346,1,263.499996919632,12|8,0:0|0:0,0:0:0:0:
43,12,21319,2,0,P|153:63|305:67,1,263.499996919632,2|8,0:0|0:0,0:0:0:0:
429,228,21645,1,10,0:0:0:0:
473,138,21754,2,0,P|342:141|222:195,2,263.499996919632,8|8|2,0:0|0:0|0:0,0:0:0:0:
5,165,22406,2,0,P|71:174|141:204,1,131.749998459816,8|2,0:0|0:0,0:0:0:0:
433,343,22623,6,0,P|302:339|182:285,2,263.499996919632,8|8|2,0:0|0:0|0:0,0:0:0:0:
4,381,23275,2,0,P|74:372|135:344,1,131.749998459816,8|10,0:0|0:0,0:0:0:0:
263,97,23493,2,0,P|153:46|1:42,1,263.499996919632,8|8,0:0|0:0,0:0:0:0:
182,285,23928,2,0,P|313:281|433:228,1,263.499996919632,2|8,0:0|0:0,0:0:0:0:
13,40,24362,6,0,P|132:93|263:97,1,263.499996919632,8|8,0:0|0:0,0:0:0:0:
4,381,24797,1,2,0:0:0:0:
479,357,25014,2,0,P|414:359|353:335,1,131.749998459816,8|2,0:0|0:0,0:0:0:0:
134,82,25232,2,0,P|244:31|396:27,3,263.499996919632,8|8|2|8,0:0|0:0|0:0|0:0,0:0:0:0:
264,355,26101,6,0,P|133:351|13:297,1,263.499996919632,2|8,0:0|0:0,0:0:0:0:
24,214,26428,2,0,P|56:219|89:217,1,65.874999229908,2|2,0:0|0:0,0:0:0:0:
12,168,26536,2,0,P|142:164|262:110,1,263.499996919632,2|8,0:0|0:0,0:0:0:0:
479,355,26971,2,0,P|332:312|181:337,2,309.999990463257,8|8|2,0:0|0:0|0:0,0:0:0:0:
479,355,27623,1,10,0:0:0:0:
262,109,27841,6,0,P|131:113|12:167,1,263.499996919632,12|8,0:0|0:0,0:0:0:0:
229,298,28276,2,0,P|359:301|479:355,1,263.499996919632,2|8,0:0|0:0,0:0:0:0:
344,271,28602,1,10,0:0:0:0:
8,251,28710,2,0,P|138:247|258:193,2,263.499996919632,8|8|2,0:0|0:0|0:0,0:0:0:0:
493,200,29363,2,0,P|433:173|369:163,1,131.749998459816,8|2,0:0|0:0,0:0:0:0:
94,214,29580,6,0,P|213:267|344:271,2,263.499996919632,8|8|2,0:0|0:0|0:0,0:0:0:0:
478,30,30232,2,0,P|415:52|349:61,1,131.749998459816,8|10,0:0|0:0,0:0:0:0:
15,37,30450,2,0,P|145:40|265:94,1,263.499996919632,8|8,0:0|0:0,0:0:0:0:
461,315,30884,2,0,P|330:318|210:372,1,263.499996919632,2|8,0:0|0:0,0:0:0:0:
446,115,31319,6,0,P|315:111|195:57,1,263.499996919632,8|8,0:0|0:0,0:0:0:0:
461,315,31754,1,2,0:0:0:0:
82,348,31971,2,0,P|145:368|211:371,1,131.749998459816,8|2,0:0|0:0,0:0:0:0:
390,44,32189,2,0,P|259:47|139:101,3,263.499996919632,8|8|2|8,0:0|0:0|0:0|0:0,0:0:0:0:
454,355,33058,6,0,P|344:304|192:300,1,263.499996919632,2|8,0:0|0:0,0:0:0:0:
246,188,33348,2,0,P|202:194|160:207,1,87.833332306544,2|2,0:0|0:0,0:0:0:0:
255,154,33493,2,0,P|124:157|4:211,1,263.499996919632,2|8,0:0|0:0,0:0:0:0:
416,241,33928,2,0,P|264:279|93:237,2,309.999990463257,2|8|2,0:0|0:0|0:0,0:0:0:0:
416,241,34580,1,10,0:0:0:0:
101,158,34797,6,0,P|177:147|254:153,1,154.999995231629,12|0,0:0|0:0,0:0:0:0:
16,190,35232,1,0,0:0:0:0:
435,159,35449,2,0,P|474:155|524:155,2,77.4999976158143,2|0|0,0:1|0:0|0:0,0:0:0:0:
192,176,35884,2,0,P|268:186|346:181,1,154.999995231629
101,158,36319,1,0,0:0:0:0:
435,159,36536,5,2,0:1:0:0:
69,76,36754,2,0,L|49:17,3,51.6666650772095,0|0|0|0,0:0|0:0|0:0|0:0,0:0:0:0:
468,241,37188,2,0,P|431:251|391:253,2,77.4999976158143,2|0|0,0:1|0:0|0:0,0:0:0:0:
158,303,37623,2,0,P|235:297|311:307,1,154.999995231629,8|2,0:0|0:0,0:0:0:0:
401,348,38058,1,0,0:0:0:0:
401,348,38275,6,0,P|323:342|247:352,1,154.999995231629,2|0,0:1|0:0,0:0:0:0:
491,369,38710,1,0,0:0:0:0:
123,200,38928,2,0,P|84:200|45:204,2,77.4999976158143,2|0|0,0:1|0:0|0:0,0:0:0:0:
382,215,39363,2,0,P|306:225|229:221,1,154.999995231629
487,184,39797,1,0,0:0:0:0:
52,126,40014,6,0,P|138:116|230:127,1,154.999995231629,2|0,0:1|0:0,0:0:0:0:
309,150,40449,1,0,0:0:0:0:
159,302,40667,2,0,P|197:303|235:310,1,77.4999976158143,8|0,0:0|0:0,0:0:0:0:
1,349,40884,2,0,P|34:329|71:315,2,77.4999976158143,0|0|8,0:0|0:0|0:0,0:0:0:0:
321,346,41319,2,0,P|368:246|308:149,1,232.499992847443,2|0,0:0|3:0,0:0:0:0:
239,194,41754,6,0,P|162:203|85:198,1,154.999995231629,12|0,0:0|0:0,0:0:0:0:
310,150,42188,1,0,0:0:0:0:
76,108,42406,2,0,P|115:104|165:104,2,77.4999976158143,2|0|0,0:1|0:0|0:0,0:0:0:0:
239,193,42841,2,0,P|162:188|86:198,1,154.999995231629
310,150,43276,1,0,0:0:0:0:
13,249,43493,5,2,0:1:0:0:
476,299,43711,2,0,L|460:352,3,51.6666650772095,0|0|0|0,0:0|0:0|0:0|0:0,0:0:0:0:
163,189,44145,2,0,P|124:190|86:197,2,77.4999976158143,2|0|0,0:1|0:0|0:0,0:0:0:0:
341,314,44580,2,0,P|264:322|186:317,1,154.999995231629,8|2,0:0|0:0,0:0:0:0:
461,349,45015,1,0,0:0:0:0:
270,218,45232,6,0,P|347:214|424:224,1,154.999995231629,2|0,0:1|0:0,0:0:0:0:
95,292,45667,1,0,0:0:0:0:
120,121,45885,2,0,P|81:121|42:125,2,77.4999976158143,2|0|0,0:1|0:0|0:0,0:0:0:0:
187,310,46320,2,0,P|273:320|365:309,1,154.999995231629
461,349,46754,1,0,0:0:0:0:
34,314,46971,6,0,P|120:304|212:315,1,154.999995231629,2|0,0:1|0:0,0:0:0:0:
357,236,47406,1,0,0:0:0:0:
348,52,47623,2,0,P|309:45|271:43,1,77.4999976158143,8|0,0:0|0:0,0:0:0:0:
499,111,47841,2,0,P|466:91|431:77,2,77.4999976158143,0|0|8,0:0|0:0|0:0,0:0:0:0:
178,46,48275,2,0,P|139:47|101:54,1,77.4999976158143,8|0,0:0|0:0,0:0:0:0:
348,52,48493,2,0,P|309:45|271:43,1,77.4999976158143,2|2,0:0|0:0,0:0:0:0:
34,224,48710,6,0,B|96:177|219:144|365:173|450:225|450:225|399:242|356:235,1,526.999993839264,12|0,0:0|0:0,0:0:0:0:
48,28,49362,6,0,P|114:30|178:46,2,131.749998459816,2|0|0,0:0|0:0|0:0,0:0:0:0:
500,112,49797,2,0,P|434:113|375:129,2,123.999996185303,2|0|0,0:0|0:0|0:0,0:0:0:0:
188,371,50232,2,0,P|244:356|302:351,2,116.250000858307,2|0|0,0:0|0:0|0:0,0:0:0:0:
272,60,50667,2,0,L|248:147,3,77.5000005722047,2|0|2|0,0:0|0:0|0:0|0:0,0:0:0:0:
294,354,51101,1,8,0:0:0:0:
272,60,51319,5,2,0:0:0:0:
272,60,51536,1,2,0:0:0:0:
272,60,51754,1,2,0:0:0:0:
294,354,51971,5,2,0:0:0:0:
193,333,52080,1,0,0:0:0:0:
123,269,52188,2,0,L|1:291,1,123.999996185303,2|0,0:0|0:0,0:0:0:0:
1,291,52514,1,8,0:0:0:0:
286,257,52732,5,2,0:0:0:0:
418,290,52841,1,0,0:0:0:0:
294,354,52949,1,2,0:0:0:0:
368,170,53058,6,0,L|497:196,1,131.749998459816,2|0,0:0|0:0,0:0:0:0:
497,196,53384,1,8,0:0:0:0:
278,162,53601,5,2,0:0:0:0:
70,82,53710,1,0,0:0:0:0:
294,57,53819,1,2,0:0:0:0:
505,141,53928,6,0,L|362:171,1,139.499991451264,2|0,0:0|0:0,0:0:0:0:
368,170,54254,1,8,0:0:0:0:
294,57,54471,5,2,0:0:0:0:
506,141,54580,1,0,0:0:0:0:
278,162,54688,1,2,0:0:0:0:
70,82,54797,6,0,L|216:104,1,147.249991538048,2|0,0:0|0:0,0:0:0:0:
321,238,55014,2,0,L|175:260,1,147.249991538048,0|2,0:0|0:0,0:0:0:0:
506,141,55232,5,8,0:0:0:0:
387,311,55341,1,8,0:0:0:0:
152,344,55449,1,2,0:0:0:0:
321,238,55558,1,2,0:0:0:0:
404,81,55667,6,0,B|243:56|121:57|28:146|28:146|146:186|243:127,1,619.999980926514,12|2,0:0|0:0,0:0:0:0:
506,141,56210,1,2,0:0:0:0:
506,347,56319,2,0,P|432:375|328:377,1,154.999995231629,8|0,0:0|0:0,0:0:0:0:
7,241,56536,2,0,P|185:249|318:322,1,309.999990463257,8|8,0:0|0:0,0:0:0:0:
489,42,56971,2,0,P|343:93|189:91,1,309.999990463257,2|8,0:0|0:0,0:0:0:0:
189,350,57406,6,0,B|225:355|257:341|257:341|168:290|23:342,1,309.999990463257,8|8,0:0|0:0,0:0:0:0:
506,348,57841,2,0,B|405:230|303:230|303:230|324:258|361:273,1,309.999990463257,2|8,0:0|0:0,0:0:0:0:
7,240,58275,5,2,0:0:0:0:
304,230,58384,1,2,0:0:0:0:
489,42,58493,1,2,0:0:0:0:
189,350,58710,6,0,P|343:348|483:284,1,309.999990463257,2|2,0:0|0:0,0:0:0:0:
496,151,59036,1,2,0:0:0:0:
91,105,59145,6,0,B|278:-14|488:43|488:43|446:59|446:59|363:145|383:194|399:195,1,619.999980926514,12|2,0:0|0:0,0:0:0:0:
192,168,59688,1,2,0:0:0:0:
24,25,59797,2,0,P|101:24|176:43,1,154.999995231629,8|0,0:0|0:0,0:0:0:0:
483,284,60014,2,0,P|343:349|189:350,1,309.999990463257,8|8,0:0|0:0,0:0:0:0:
24,25,60449,2,0,P|169:76|323:74,1,309.999990463257,2|8,0:0|0:0,0:0:0:0:
334,351,60884,6,0,B|421:223|395:125|395:125|373:152|368:192,1,309.999990463257,8|8,0:0|0:0,0:0:0:0:
115,185,61319,2,0,B|79:180|52:158|52:158|151:132|278:219,1,309.999990463257,2|10,0:0|0:0,0:0:0:0:
334,351,61645,1,2,0:0:0:0:
33,331,61754,6,0,P|106:306|184:305,1,154.999995231629,8|8,0:0|0:0,0:0:0:0:
378,207,61971,2,0,P|436:257|476:323,1,154.999995231629,2|2,0:0|0:0,0:0:0:0:
334,351,62188,6,0,P|203:311|12:340,1,309.999990463257,2|10,0:0|0:0,0:0:0:0:
190,84,62514,1,2,0:0:0:0:
2,126,62623,6,0,B|90:47|251:3|432:32|514:178|514:178|379:199|263:154|189:83,1,929.999971389771,14|2,0:0|0:0,0:0:0:0:
318,227,63384,1,2,0:0:0:0:
507,269,63493,6,0,B|419:190|258:146|77:175|-5:321|-5:321|130:342|246:297|319:226,1,929.999971389771,8|2,0:0|0:0,0:0:0:0:
279,10,64254,1,2,0:0:0:0:
448,166,64362,6,0,P|362:294|232:374,1,309.999990463257,8|8,0:0|0:0,0:0:0:0:
7,174,64797,2,0,P|146:114|310:102,1,309.999990463257,2|8,0:0|0:0,0:0:0:0:
474,353,65232,5,8,0:0:0:0:
237,289,65341,1,2,0:0:0:0:
507,269,65449,1,8,0:0:0:0:
7,174,65667,6,0,P|146:114|310:102,1,309.999990463257,2|8,0:0|0:0,0:0:0:0:
474,353,66101,5,10,0:0:0:0:
329,298,66210,1,8,0:0:0:0:
474,353,66319,1,2,0:0:0:0:
58,267,66536,1,2,0:0:0:0:
474,353,66754,5,10,0:0:0:0:
329,298,66863,1,8,0:0:0:0:
474,353,66972,1,2,0:0:0:0:
58,267,67188,1,2,0:0:0:0:
474,353,67406,5,10,0:0:0:0:
329,298,67515,1,8,0:0:0:0:
507,269,67624,1,10,0:0:0:0:
252,215,67732,1,8,0:0:0:0:
57,266,67841,6,0,P|121:299|168:245,7,154.999995231629,8|0|8|0|10|0|10|2,0:0|0:0|0:0|0:0|0:0|0:0|0:0|0:0,0:0:0:0:
182,161,68710,6,0,P|111:128|37:106,1,154.999995231629,8|2,0:0|0:0,0:0:0:0:
460,283,68928,2,0,P|433:209|396:141,1,154.999995231629,10|8,0:0|0:0,0:0:0:0:
12,357,69145,5,10,0:0:0:0:
185,327,69254,1,0,0:0:0:0:
321,216,69362,2,0,P|348:144|349:67,1,154.999995231629,10|10,0:0|0:0,0:0:0:0:
424,373,69580,6,0,B|276:381|131:333|37:243|37:108|37:108|76:147|94:197,1,619.999980926514,14|2,0:0|0:0,0:0:0:0:
280,307,70123,1,2,0:0:0:0:
17,249,70232,2,0,P|89:221|167:216,1,154.999995231629,8|0,0:0|0:0,0:0:0:0:
460,283,70449,2,0,P|282:275|149:202,1,309.999990463257,8|8,0:0|0:0,0:0:0:0:
507,68,70884,2,0,P|361:119|207:117,1,309.999990463257,2|8,0:0|0:0,0:0:0:0:
315,350,71319,6,0,B|171:299|12:357,3,309.999990463257,8|8|2|8,0:0|0:0|0:0|0:0,0:0:0:0:
507,68,72188,5,2,0:0:0:0:
291,199,72297,1,2,0:0:0:0:
3,133,72406,1,2,0:0:0:0:
294,290,72623,6,0,P|140:290|1:225,1,309.999990463257,2|2,0:0|0:0,0:0:0:0:
388,265,72949,1,2,0:0:0:0:
448,49,73058,6,0,B|236:13|82:173|82:173|210:234|311:192,1,619.999980926514,12|2,0:0|0:0,0:0:0:0:
442,342,73601,1,2,0:0:0:0:
489,147,73710,2,0,P|411:134|332:133,1,154.999995231629,8|0,0:0|0:0,0:0:0:0:
1,225,73928,2,0,P|140:290|294:291,1,309.999990463257,8|8,0:0|0:0,0:0:0:0:
448,49,74362,2,0,P|302:100|148:98,1,309.999990463257,2|8,0:0|0:0,0:0:0:0:
350,382,74797,6,0,B|338:228|409:155|409:155|414:190|399:227,3,309.999990463257,8|8|2|10,0:0|0:0|0:0|0:0,0:0:0:0:
448,49,75558,1,2,0:0:0:0:
448,49,75667,6,0,P|485:117|500:193,1,154.999995231629,8|8,0:0|0:0,0:0:0:0:
161,275,75884,2,0,P|219:224|260:159,1,154.999995231629,2|2,0:0|0:0,0:0:0:0:
350,382,76101,6,0,P|181:369|51:304,1,309.999990463257,2|10,0:0|0:0,0:0:0:0:
315,301,76427,1,2,0:0:0:0:
508,289,76536,6,0,B|408:353|242:371|68:314|10:157|10:157|147:157|254:220|315:301,1,929.999971389771,12|2,0:0|0:0,0:0:0:0:
203,172,77297,1,2,0:0:0:0:
12,159,77406,6,0,B|111:223|277:241|451:184|509:28|509:28|372:28|265:90|203:171,1,929.999971389771,8|2,0:0|0:0,0:0:0:0:
155,54,78167,1,2,0:0:0:0:
25,40,78275,6,0,P|169:94|321:73,1,309.999990463257,8|8,0:0|0:0,0:0:0:0:
508,289,78710,2,0,P|354:301|213:362,1,309.999990463257,2|8,0:0|0:0,0:0:0:0:
482,206,79145,5,8,0:0:0:0:
238,251,79254,1,2,0:0:0:0:
508,289,79362,1,8,0:0:0:0:
322,73,79580,6,0,P|180:133|26:145,1,309.999990463257,2|8,0:0|0:0,0:0:0:0:
482,206,80014,5,10,0:0:0:0:
328,222,80123,1,8,0:0:0:0:
482,206,80232,1,2,0:0:0:0:
27,147,80449,1,2,0:0:0:0:
482,206,80667,5,10,0:0:0:0:
328,222,80776,1,8,0:0:0:0:
482,206,80885,1,2,0:0:0:0:
27,147,81102,1,2,0:0:0:0:
482,206,81319,5,10,0:0:0:0:
328,222,81428,1,8,0:0:0:0:
508,289,81537,1,10,0:0:0:0:
238,251,81645,1,8,0:0:0:0:
201,47,81754,6,0,P|189:116|258:124,7,154.999995231629,8|0|8|0|10|0|10|2,0:0|0:0|0:0|0:0|0:0|0:0|0:0|0:0,0:0:0:0:
26,146,82623,6,0,P|104:147|213:124,1,154.999995231629,8|2,0:0|0:0,0:0:0:0:
463,57,82841,2,0,P|431:127|382:187,1,154.999995231629,10|8,0:0|0:0,0:0:0:0:
430,343,83058,5,10,0:0:0:0:
270,306,83167,1,2,0:0:0:0:
108,376,83275,2,0,P|63:314|42:240,1,154.999995231629,10|10,0:0|0:0,0:0:0:0:
67,29,83493,5,14,0:0:0:0:
