osu file format v14

[General]
AudioFilename: Odoru Mizushibuki.mp3
AudioLeadIn: 2000
PreviewTime: 0
Countdown: 0
SampleSet: Soft
StackLeniency: 0.7
Mode: 0
LetterboxInBreaks: 0
WidescreenStoryboard: 0

[Editor]
DistanceSpacing: 1.2
BeatDivisor: 6
GridSize: 8
TimelineZoom: 2.5

[Metadata]
Title:Odoru Mizushibuki
TitleUnicode:踊る水飛沫
Artist:Akiyama Uni
ArtistUnicode:あきやま うに
Creator:Hollow Wings
Version:Death Dance
Source:東方Project
Tags:Touhou th10.5 fxt Twilight Frontier Tasofro 黄昏フロンティア zun Scarlet Weather Rhapsody jun Dancing Water Spray 小野冢小町 おのづか こまち Onozuka Komachi
BeatmapID:378126
BeatmapSetID:153887

[Difficulty]
HPDrainRate:6
CircleSize:3
OverallDifficulty:8
ApproachRate:10
SliderMultiplier:3.59999990463257
SliderTickRate:4

[Events]
//Background and Video events
0,0,"Odoru Mizushibuki.jpg",0,0
//Break Periods
//Storyboard Layer 0 (Background)
//Storyboard Layer 1 (Fail)
//Storyboard Layer 2 (Pass)
//Storyboard Layer 3 (Foreground)
//Storyboard Sound Samples

[TimingPoints]
15,434.782608695652,4,2,1,60,1,0
6971,-83.3333333333333,4,2,1,70,0,0
13058,-66.6666666666667,4,2,1,70,0,0
13928,-83.3333333333333,4,2,1,70,0,0
20014,-66.6666666666667,4,2,1,70,0,0
20884,-58.8235294117647,4,2,1,80,0,0
34797,-100,4,2,1,80,0,0
48710,-66.6666666666667,4,2,1,90,0,0
55667,-50,4,2,1,80,0,1
58330,-50,4,2,2,80,0,1
58438,-50,4,2,1,80,0,1
61808,-50,4,2,2,80,0,1
61917,-50,4,2,1,80,0,1
62895,-50,4,2,2,80,0,1
63004,-50,4,2,1,80,0,1
69145,-50,4,2,1,80,0,0
69580,-50,4,2,1,80,0,1
72243,-50,4,2,2,80,0,1
72351,-50,4,2,1,80,0,1
75721,-50,4,2,2,80,0,1
75830,-50,4,2,1,80,0,1
76808,-50,4,2,2,80,0,1
76917,-50,4,2,1,80,0,1
83493,-66.6666666666667,4,2,1,80,0,0

[Colours]
Combo1 : 252,252,252
Combo2 : 121,185,255

[HitObjects]
345,109,15,5,2,0:1:0:0:
58,90,341,5,0,0:0:0:0:
241,134,449,1,0,0:0:0:0:
309,199,667,5,0,0:0:0:0:
338,287,884,5,0,0:0:0:0:
105,334,992,1,8,0:1:0:0:
486,200,1210,6,0,L|379:224,1,89.9999976158143
246,262,1428,1,2,0:0:0:0:
447,350,1536,2,0,L|340:377,1,89.9999976158143
99,172,1754,5,2,0:1:0:0:
153,92,2080,5,0,0:0:0:0:
330,110,2188,1,0,0:0:0:0:
424,129,2406,5,0,0:0:0:0:
487,200,2623,5,0,0:0:0:0:
246,262,2731,1,8,0:0:0:0:
178,332,2949,6,0,L|265:354,1,89.9999976158143
447,351,3167,1,2,0:1:0:0:
337,244,3275,2,0,L|424:266,1,89.9999976158143
86,332,3493,5,2,0:1:0:0:
33,256,3819,5,0,0:0:0:0:
272,351,3927,1,0,0:0:0:0:
361,330,4145,5,0,0:0:0:0:
423,265,4362,5,0,0:0:0:0:
185,188,4470,1,8,0:1:0:0:
92,187,4688,6,0,L|3:205,1,89.9999976158143
187,333,4906,1,2,0:0:0:0:
274,173,5014,2,0,L|169:191,1,89.9999976158143
511,290,5232,5,0,0:1:0:0:
447,351,5558,5,0,0:0:0:0:
317,247,5666,1,0,0:0:0:0:
130,263,5775,1,0,0:0:0:0:
21,377,5884,2,0,L|115:354,1,89.9999976158143
226,244,6101,1,8,0:0:0:0:
423,264,6210,2,0,L|538:233,1,89.9999976158143,2|0,0:0|0:0,0:0:0:0:
360,323,6428,1,0,0:0:0:0:
257,23,6536,2,0,L|346:26,1,89.9999976158143,8|2,0:0|0:0,0:0:0:0:
131,263,6754,2,0,L|41:258,1,89.9999976158143,0|2,0:0|0:0,0:0:0:0:
423,265,6971,6,0,P|378:246|311:247,1,107.999993843079,12|0,0:0|3:0,0:0:0:0:
197,330,7188,2,0,P|143:335|90:327,1,107.999993843079,8|0,0:0|0:0,0:0:0:0:
42,113,7406,2,0,B|19:144|19:144|77:209|198:188,1,215.999987686158,2|8,0:0|0:0,0:0:0:0:
343,173,7732,1,8,0:0:0:0:
448,65,7841,2,0,P|341:65|257:130,2,215.999987686158,8|8|2,0:0|0:0|0:0,0:0:0:0:
357,354,8493,2,0,P|299:360|252:337,1,107.999993843079,8|2,0:0|0:0,0:0:0:0:
20,201,8710,6,0,P|70:182|125:181,1,107.999993843079,8|0,0:0|3:0,0:0:0:0:
316,266,8927,2,0,P|378:264|423:235,1,107.999993843079,8|0,0:0|0:0,0:0:0:0:
213,51,9145,2,0,P|243:150|343:173,1,215.999987686158,2|2,0:0|0:0,0:0:0:0:
260,342,9471,1,2,0:0:0:0:
188,163,9580,2,0,P|105:126|20:203,2,215.999987686158,8|8|8,0:0|0:0|0:0,0:0:0:0:
20,303,10232,2,0,P|92:334|169:313,1,161.999990764618,2|0,0:0|3:0,0:0:0:0:
230,251,10449,6,0,P|282:235|352:248,1,107.999993843079,8|0,0:0|3:0,0:0:0:0:
506,213,10667,2,0,P|457:192|404:189,1,107.999993843079,8|0,0:0|0:0,0:0:0:0:
128,204,10884,2,0,P|76:192|33:160,1,107.999993843079,2|0,0:0|3:0,0:0:0:0:
332,120,11101,2,0,P|381:100|437:96,1,107.999993843079,8|2,0:0|0:0,0:0:0:0:
173,92,11319,2,0,P|96:26|3:70,1,215.999987686158,8|8,0:0|0:0,0:0:0:0:
464,307,11754,2,0,P|379:374|284:308,1,215.999987686158,2|8,0:0|0:0,0:0:0:0:
84,121,12188,6,0,P|135:179|213:173,1,161.999990764618,8|0,0:0|3:0,0:0:0:0:
272,272,12406,2,0,P|305:220|386:209,1,107.999993843079,8|2,0:0|0:0,0:0:0:0:
403,198,12569,1,2,0:0:0:0:
431,150,12623,2,0,P|439:63|502:122,1,215.999987686158,2|8,0:0|0:0,0:0:0:0:
43,23,13058,6,0,P|17:85|22:151,1,135.000001573563,8|0,0:0|3:0,0:0:0:0:
65,268,13275,2,0,P|109:317|174:344,1,135.000001573563,2|0,0:0|3:0,0:0:0:0:
296,350,13493,2,0,P|416:297|476:178,1,270.000003147125,2|8,0:0|0:0,0:0:0:0:
217,18,13928,6,0,P|216:81|235:141,1,107.999993843079,8|0,0:0|3:0,0:0:0:0:
161,307,14145,2,0,P|108:299|65:268,1,107.999993843079,8|0,0:0|0:0,0:0:0:0:
407,234,14362,2,0,B|438:256|438:256|403:336|281:353,1,215.999987686158,2|8,0:0|0:0,0:0:0:0:
344,113,14688,1,2,0:0:0:0:
224,296,14797,2,0,B|128:346|53:302|53:302|65:266,2,215.999987686158,8|8|2,0:0|0:0|0:0,0:0:0:0:
9,155,15449,2,0,P|67:176|114:173,1,107.999993843079,8|2,0:0|0:0,0:0:0:0:
407,233,15667,6,0,P|460:234|508:210,1,107.999993843079,8|0,0:0|3:0,0:0:0:0:
312,351,15884,2,0,P|261:335|224:296,1,107.999993843079,8|0,0:0|0:0,0:0:0:0:
347,166,16101,2,0,P|372:267|311:352,1,215.999987686158,2|8,0:0|0:0,0:0:0:0:
266,209,16427,1,2,0:0:0:0:
187,107,16536,2,0,P|85:84|8:154,2,215.999987686158,8|8|8,0:0|0:0|0:0,0:0:0:0:
488,62,17188,2,0,P|411:39|339:72,1,161.999990764618,2|0,0:0|3:0,0:0:0:0:
347,165,17406,6,0,P|394:191|448:192,1,107.999993843079,8|0,0:0|3:0,0:0:0:0:
84,130,17623,2,0,P|136:109|190:106,1,107.999993843079,8|0,0:0|0:0,0:0:0:0:
370,308,17841,2,0,P|423:304|471:280,1,107.999993843079,2|0,0:0|3:0,0:0:0:0:
262,36,18058,2,0,P|211:17|157:11,1,107.999993843079,8|2,0:0|0:0,0:0:0:0:
16,325,18275,2,0,P|108:368|186:302,1,215.999987686158,8|8,0:0|0:0,0:0:0:0:
432,61,18710,2,0,P|339:103|261:36,1,215.999987686158,2|8,0:0|0:0,0:0:0:0:
428,372,19144,6,0,P|457:299|416:233,1,161.999990764618,2|0,0:0|3:0,0:0:0:0:
281,293,19362,2,0,P|240:304|216:328,1,71.9999958953859,8|2,0:0|0:0,0:0:0:0:
161,353,19507,1,2,0:0:0:0:
99,337,19579,2,0,P|59:204|108:149,1,215.999987686158,2|8,0:0|0:0,0:0:0:0:
416,233,20014,6,0,P|404:167|359:117,1,135.000001573563,2|0,0:0|3:0,0:0:0:0:
177,184,20232,2,0,P|259:186|320:223,1,135.000001573563,8|0,0:0|3:0,0:0:0:0:
59,207,20449,2,0,P|110:89|238:81,1,270.000003147125,2|8,0:0|0:0,0:0:0:0:
489,326,20884,6,0,P|416:346|344:323,1,152.999998865128,12|0,0:0|3:0,0:0:0:0:
231,270,21101,1,8,0:0:0:0:
417,233,21210,1,8,0:0:0:0:
202,180,21319,2,0,P|127:174|59:206,1,152.999998865128,2|0,0:0|3:0,0:0:0:0:
288,127,21536,1,8,0:0:0:0:
479,133,21645,1,10,0:0:0:0:
324,32,21754,6,0,P|237:40|193:99,1,152.999998865128,8|0,0:0|3:0,0:0:0:0:
343,349,21971,2,0,P|379:269|349:202,1,152.999998865128,8|0,0:0|3:0,0:0:0:0:
59,207,22188,2,0,P|109:278|182:285,1,152.999998865128,2|0,0:0|3:0,0:0:0:0:
478,132,22406,2,0,P|415:91|340:87,1,152.999998865128,8|2,0:0|0:0,0:0:0:0:
169,288,22623,6,0,P|98:312|23:298,1,152.999998865128,8|0,0:0|3:0,0:0:0:0:
80,96,22840,1,8,0:0:0:0:
288,127,22949,1,8,0:0:0:0:
479,30,23058,2,0,P|469:104|414:156,1,152.999998865128,2|0,0:0|3:0,0:0:0:0:
320,209,23275,1,8,0:0:0:0:
125,293,23384,1,10,0:0:0:0:
382,271,23493,6,0,P|365:339|279:341,1,152.999998865128,8|2,0:0|0:0,0:0:0:0:
408,186,23710,2,0,P|472:179|467:249,1,152.999998865128,8|0,0:0|3:0,0:0:0:0:
68,179,23928,2,0,P|23:129|87:99,1,152.999998865128,2|0,0:0|3:0,0:0:0:0:
212,25,24145,2,0,P|130:105|174:206,1,229.499998297691,2|0,0:0|3:0,0:0:0:0:
245,267,24362,6,0,P|319:282|366:343,1,152.999998865128,8|0,0:0|3:0,0:0:0:0:
262,374,24579,1,8,0:0:0:0:
353,206,24688,1,8,0:0:0:0:
509,92,24797,2,0,P|438:118|363:106,1,152.999998865128,2|0,0:0|3:0,0:0:0:0:
279,39,25014,1,8,0:0:0:0:
108,113,25123,1,10,0:0:0:0:
22,286,25232,6,0,P|95:270|144:213,1,152.999998865128,8|0,0:0|3:0,0:0:0:0:
213,26,25449,2,0,P|189:97|214:168,1,152.999998865128,8|0,0:0|3:0,0:0:0:0:
341,328,25667,2,0,P|290:272|216:258,1,152.999998865128,2|0,0:0|3:0,0:0:0:0:
23,285,25884,2,0,P|71:228|144:212,1,152.999998865128,8|2,0:0|0:0,0:0:0:0:
481,351,26101,6,0,P|406:363|340:327,1,152.999998865128,8|0,0:0|3:0,0:0:0:0:
297,200,26318,1,8,0:0:0:0:
335,63,26428,2,0,L|416:88,1,76.4999994325638,10|2,0:0|0:0,0:0:0:0:
469,149,26536,2,0,P|420:235|351:255,1,152.999998865128,2|0,0:0|3:0,0:0:0:0:
264,270,26754,1,8,0:0:0:0:
252,77,26863,1,10,0:0:0:0:
469,149,26971,6,0,P|420:235|351:255,1,152.999998865128,8|0,0:0|3:0,0:0:0:0:
301,29,27188,2,0,P|399:28|451:78,1,152.999998865128,8|0,0:0|3:0,0:0:0:0:
274,232,27406,2,0,P|224:146|241:76,1,152.999998865128,2|0,0:0|3:0,0:0:0:0:
31,20,27623,2,0,P|80:105|63:175,1,152.999998865128,10|0,0:0|3:0,0:0:0:0:
240,358,27841,6,0,P|315:357|378:316,1,152.999998865128,12|0,0:0|3:0,0:0:0:0:
410,211,28058,1,8,0:0:0:0:
237,131,28167,1,8,0:0:0:0:
77,235,28276,2,0,P|152:244|224:220,1,152.999998865128,2|0,0:0|3:0,0:0:0:0:
334,157,28493,1,8,0:0:0:0:
145,176,28602,1,10,0:0:0:0:
31,19,28710,6,0,P|114:18|154:83,1,152.999998865128,8|0,0:0|3:0,0:0:0:0:
334,157,28928,2,0,P|303:223|230:237,1,152.999998865128,8|0,0:0|3:0,0:0:0:0:
68,353,29145,2,0,P|25:292|50:223,1,152.999998865128,2|0,0:0|3:0,0:0:0:0:
240,59,29362,2,0,P|265:129|334:156,1,152.999998865128,8|2,0:0|0:0,0:0:0:0:
342,338,29580,6,0,P|416:330|472:280,1,152.999998865128,8|0,0:0|3:0,0:0:0:0:
483,169,29797,1,8,0:0:0:0:
344,39,29906,1,8,0:0:0:0:
153,38,30015,2,0,P|167:115|242:155,1,152.999998865128,2|0,0:0|3:0,0:0:0:0:
334,157,30232,1,8,0:0:0:0:
153,221,30341,1,10,0:0:0:0:
404,219,30450,6,0,P|381:282|326:243,1,152.999998865128,8|2,0:0|0:0,0:0:0:0:
50,185,30667,2,0,P|-10:213|31:264,1,152.999998865128,8|0,0:0|0:0,0:0:0:0:
423,113,30884,2,0,P|488:102|482:168,1,152.999998865128,2|0,0:0|0:0,0:0:0:0:
126,355,31102,2,0,P|110:282|153:220,1,152.999998865128,2|0,0:0|3:0,0:0:0:0:
379,302,31319,6,0,P|306:324|234:303,1,152.999998865128,8|0,0:0|3:0,0:0:0:0:
154,221,31536,1,8,0:0:0:0:
334,158,31645,1,8,0:0:0:0:
466,289,31754,2,0,P|393:308|317:289,1,152.999998865128,2|0,0:0|3:0,0:0:0:0:
243,214,31971,1,8,0:0:0:0:
376,79,32080,1,10,0:0:0:0:
512,212,32189,6,0,P|424:190|372:144,1,152.999998865128,8|0,0:0|3:0,0:0:0:0:
222,337,32406,2,0,P|272:280|342:250,1,152.999998865128,8|0,0:0|3:0,0:0:0:0:
263,28,32623,2,0,P|287:99|277:175,1,152.999998865128,2|0,0:0|3:0,0:0:0:0:
376,78,32841,2,0,P|450:79|512:131,1,152.999998865128,8|2,0:0|0:0,0:0:0:0:
222,337,33058,6,0,P|295:352|365:323,1,152.999998865128,8|0,0:0|3:0,0:0:0:0:
466,289,33275,1,8,0:0:0:0:
421,207,33348,2,0,P|370:200|318:209,1,101.999999243418,10|2,0:0|0:0,0:0:0:0:
238,251,33493,2,0,P|292:303|365:323,1,152.999998865128,2|0,0:0|3:0,0:0:0:0:
465,333,33711,1,8,0:0:0:0:
403,151,33820,1,10,0:0:0:0:
238,251,33929,6,0,P|310:268|395:232,1,152.999998865128,8|0,0:0|3:0,0:0:0:0:
208,164,34145,2,0,P|157:217|145:309,1,152.999998865128,8|0,0:0|3:0,0:0:0:0:
295,179,34362,2,0,P|273:108|200:52,1,152.999998865128,2|0,0:0|3:0,0:0:0:0:
144,293,34580,2,0,P|73:318|0:302,1,152.999998865128,8|0,0:0|3:0,0:0:0:0:
208,164,34797,6,0,P|118:163|41:119,2,179.999995231629,12|0|0,0:0|0:0|0:0,0:0:0:0:
369,83,35449,1,2,0:1:0:0:
276,98,35558,1,0,0:0:0:0:
208,164,35667,6,0,P|315:154|395:184,2,179.999995231629
456,233,36319,1,0,0:0:0:0:
93,342,36536,6,0,P|167:350|233:326,1,134.999996423721,2|0,0:1|3:0,0:0:0:0:
306,279,36754,2,0,L|388:284,1,59.9999984105428
450,338,36899,2,0,L|532:344,1,59.9999984105428
137,230,37188,6,0,P|195:229|253:250,1,89.9999976158143,2|0,0:1|0:0,0:0:0:0:
306,278,37406,1,0,0:0:0:0:
49,256,37623,1,8,0:0:0:0:
389,130,37841,2,0,P|299:128|211:148,1,179.999995231629,2|0,0:0|0:0,0:0:0:0:
480,283,38275,6,0,P|392:300|305:278,2,179.999995231629,2|0|0,0:1|0:0|0:0,0:0:0:0:
306,279,38928,1,2,0:1:0:0:
391,260,39036,1,0,0:0:0:0:
226,242,39145,6,0,P|156:234|40:260,2,179.999995231629
50,256,39797,1,0,0:0:0:0:
507,109,40014,6,0,P|432:138|331:147,1,179.999995231629,2|0,0:1|0:0,0:0:0:0:
40,46,40449,1,0,0:0:0:0:
362,209,40666,2,0,P|406:190|438:134,1,89.9999976158143,8|0,0:0|0:0,0:0:0:0:
350,29,40884,6,0,P|393:37|427:67,1,89.9999976158143
363,209,41101,1,8,0:0:0:0:
49,256,41319,2,0,P|183:265|293:340,1,269.999992847443,2|0,0:0|3:0,0:0:0:0:
208,325,41754,6,0,P|118:326|31:347,2,179.999995231629,12|0|0,0:0|0:0|0:0,0:0:0:0:
208,325,42406,1,2,0:1:0:0:
120,284,42515,1,0,0:0:0:0:
299,302,42624,6,0,P|389:304|481:344,2,179.999995231629
481,246,43276,1,0,0:0:0:0:
170,217,43493,6,0,P|102:224|40:253,1,134.999996423721,2|0,0:1|0:0,0:0:0:0:
85,176,43711,2,0,L|25:172,1,59.9999984105428
168,126,43856,2,0,L|250:132,1,59.9999984105428
25,57,44145,6,0,P|66:38|111:37,1,89.9999976158143,2|0,0:1|0:0,0:0:0:0:
230,285,44363,1,0,0:0:0:0:
218,54,44580,1,8,0:0:0:0:
493,80,44798,2,0,P|412:43|323:46,1,179.999995231629,2|0,0:0|0:0,0:0:0:0:
59,307,45232,6,0,P|141:273|230:284,2,179.999995231629,2|0|0,0:1|0:0|0:0,0:0:0:0:
149,316,45884,1,2,0:1:0:0:
60,307,45993,1,0,0:0:0:0:
231,285,46102,6,0,P|299:326|410:327,2,179.999995231629
493,287,46754,1,0,0:0:0:0:
183,158,46971,6,0,P|105:216|14:209,1,179.999995231629,2|0,0:1|0:0,0:0:0:0:
275,174,47406,1,0,0:0:0:0:
403,67,47623,2,0,P|391:111|366:148,1,89.9999976158143,8|0,0:0|0:0,0:0:0:0:
131,81,47841,6,0,P|172:65|217:71,1,89.9999976158143
367,148,48058,1,8,0:0:0:0:
367,148,48275,2,0,P|365:96|324:50,1,89.9999976158143,8|0,0:0|0:0,0:0:0:0:
305,232,48493,2,0,P|344:253|388:254,1,89.9999976158143,2|2,0:0|0:0,0:0:0:0:
243,144,48710,6,0,B|250:136|220:165|211:192|211:192|168:191|116:180|116:180|129:271|227:357|336:353|421:327,1,540.000006294251,12|0,0:0|3:0,0:0:0:0:
100,70,49362,1,2,0:0:0:0:
100,70,49471,1,0,0:0:0:0:
100,70,49580,1,0,0:0:0:0:
461,109,49797,1,2,0:0:0:0:
461,109,49906,1,0,0:0:0:0:
461,109,50015,1,0,0:0:0:0:
24,358,50232,1,2,0:0:0:0:
24,358,50341,1,0,0:0:0:0:
24,358,50450,5,0,0:0:0:0:
488,311,50667,1,2,0:0:0:0:
491,323,50739,1,0,0:0:0:0:
490,337,50812,1,2,0:0:0:0:
483,346,50884,1,0,0:0:0:0:
440,227,51101,1,8,0:0:0:0:
294,269,51319,1,2,0:0:0:0:
201,257,51536,1,2,0:0:0:0:
107,243,51754,1,2,0:0:0:0:
96,110,51971,1,2,0:0:0:0:
85,84,52080,1,0,0:0:0:0:
75,57,52188,5,2,0:0:0:0:
220,85,52297,1,0,0:0:0:0:
234,345,52514,1,8,0:0:0:0:
473,180,52732,5,2,0:0:0:0:
480,152,52841,1,0,0:0:0:0:
488,125,52949,1,2,0:0:0:0:
495,98,53058,5,2,0:0:0:0:
307,157,53167,1,0,0:0:0:0:
483,349,53384,1,8,0:0:0:0:
175,219,53602,5,2,0:0:0:0:
163,192,53711,1,0,0:0:0:0:
154,166,53819,1,2,0:0:0:0:
94,105,53928,5,2,0:0:0:0:
307,157,54037,1,0,0:0:0:0:
5,346,54254,1,8,0:0:0:0:
265,364,54472,5,2,0:0:0:0:
271,333,54581,1,0,0:0:0:0:
277,305,54689,1,2,0:0:0:0:
175,351,54798,5,2,0:0:0:0:
367,320,54906,1,0,0:0:0:0:
175,270,55014,1,0,0:0:0:0:
336,242,55123,1,2,0:0:0:0:
116,209,55232,5,8,0:0:0:0:
336,242,55341,1,8,0:0:0:0:
54,278,55450,1,2,0:0:0:0:
367,321,55558,1,2,0:0:0:0:
84,119,55667,5,12,0:0:0:0:
507,53,55884,1,8,0:0:0:0:
106,28,56101,1,2,0:0:0:0:
486,231,56319,5,8,0:0:0:0:
264,183,56428,1,8,0:0:0:0:
182,151,56645,5,8,0:0:0:0:
433,115,56754,1,8,0:0:0:0:
19,55,56971,1,2,0:0:0:0:
419,22,57188,1,8,0:0:0:0:
3,308,57406,5,8,0:0:0:0:
210,273,57514,1,8,0:0:0:0:
26,229,57623,1,8,0:0:0:0:
512,362,57841,5,2,0:0:0:0:
82,291,58058,1,8,0:0:0:0:
504,216,58275,6,0,B|398:236|318:165|318:165|421:160|474:137,1,359.999990463257,2|2,0:0|0:0,0:0:0:0:
59,371,58710,1,2,0:0:0:0:
267,260,58928,5,2,0:0:0:0:
453,289,59036,1,2,0:0:0:0:
177,289,59145,1,12,0:0:0:0:
329,180,59254,1,8,0:0:0:0:
69,140,59362,1,8,0:0:0:0:
475,138,59579,5,2,0:0:0:0:
0,208,59797,5,8,0:0:0:0:
234,165,59906,1,8,0:0:0:0:
329,180,60123,5,8,0:0:0:0:
70,140,60232,1,8,0:0:0:0:
503,53,60449,1,2,0:0:0:0:
19,55,60666,1,8,0:0:0:0:
475,333,60884,5,8,0:0:0:0:
330,343,60992,1,8,0:0:0:0:
452,253,61101,1,8,0:0:0:0:
268,287,61210,1,8,0:0:0:0:
87,233,61319,1,2,0:0:0:0:
503,175,61536,5,8,0:0:0:0:
58,312,61754,6,0,B|164:332|244:261|244:261|141:256|87:233,1,359.999990463257,2|2,0:0|0:0,0:0:0:0:
475,333,62188,5,2,0:0:0:0:
23,26,62406,5,8,0:0:0:0:
270,8,62514,1,2,0:0:0:0:
509,88,62623,1,8,0:0:0:0:
7,127,62841,6,0,P|163:56|353:56,1,359.999990463257,2|2,0:0|0:0,0:0:0:0:
475,333,63275,5,8,0:0:0:0:
244,307,63384,1,8,0:0:0:0:
17,359,63493,1,8,0:0:0:0:
506,247,63710,6,0,P|348:182|136:171,1,359.999990463257,2|2,0:0|0:0,0:0:0:0:
161,168,64145,5,8,0:0:0:0:
296,92,64254,1,8,0:0:0:0:
7,128,64363,1,8,0:0:0:0:
512,115,64580,5,8,0:0:0:0:
16,34,64797,1,2,0:0:0:0:
510,22,65014,1,8,0:0:0:0:
33,294,65232,5,8,0:0:0:0:
280,252,65341,1,10,0:0:0:0:
49,208,65449,1,8,0:0:0:0:
80,369,65667,5,10,0:0:0:0:
486,200,65884,1,8,0:0:0:0:
113,126,66101,5,10,0:0:0:0:
250,130,66210,1,8,0:0:0:0:
16,34,66319,1,2,0:0:0:0:
496,33,66536,5,2,0:0:0:0:
113,126,66754,5,10,0:0:0:0:
250,130,66863,1,8,0:0:0:0:
16,34,66972,1,2,0:0:0:0:
496,33,67188,5,8,0:0:0:0:
113,126,67406,5,10,0:0:0:0:
250,130,67514,1,8,0:0:0:0:
92,220,67623,1,10,0:0:0:0:
296,205,67732,1,8,0:0:0:0:
473,118,67841,6,0,P|390:82|301:68,1,179.999995231629,8|0,0:0|0:0,0:0:0:0:
4,207,68058,2,0,P|101:221|191:209,1,179.999995231629,8|0,0:0|0:0,0:0:0:0:
484,328,68275,2,0,P|404:300|308:291,1,179.999995231629,10|0,0:0|0:0,0:0:0:0:
1,355,68493,2,0,P|91:350|177:319,1,179.999995231629,10|2,0:0|0:0,0:0:0:0:
463,280,68710,5,8,0:0:0:0:
308,291,68819,1,2,0:0:0:0:
488,232,68928,1,10,0:0:0:0:
309,236,69037,1,8,0:0:0:0:
498,176,69145,1,10,0:0:0:0:
290,179,69254,1,2,0:0:0:0:
75,263,69362,1,10,0:0:0:0:
251,95,69471,1,10,0:0:0:0:
496,33,69580,5,14,0:0:0:0:
20,40,69797,1,8,0:0:0:0:
492,122,70014,1,2,0:0:0:0:
10,131,70232,5,8,0:0:0:0:
251,95,70341,1,8,0:0:0:0:
178,151,70558,5,8,0:0:0:0:
423,181,70667,1,8,0:0:0:0:
33,216,70884,5,2,0:0:0:0:
507,212,71101,1,8,0:0:0:0:
35,303,71319,5,8,0:0:0:0:
215,349,71427,1,8,0:0:0:0:
1,380,71536,1,8,0:0:0:0:
503,367,71754,5,2,0:0:0:0:
33,216,71971,1,8,0:0:0:0:
457,78,72188,6,0,B|351:58|271:129|271:129|374:134|428:157,1,359.999990463257,2|2,0:0|0:0,0:0:0:0:
35,303,72623,1,2,0:0:0:0:
503,367,72841,5,2,0:0:0:0:
367,226,72949,1,2,0:0:0:0:
455,255,73058,1,12,0:0:0:0:
243,284,73167,1,8,0:0:0:0:
35,303,73275,1,8,0:0:0:0:
434,166,73492,5,2,0:0:0:0:
13,75,73710,5,8,0:0:0:0:
198,105,73819,1,8,0:0:0:0:
266,170,74036,5,8,0:0:0:0:
1,221,74145,1,8,0:0:0:0:
87,230,74362,5,2,0:0:0:0:
476,82,74579,1,8,0:0:0:0:
54,148,74797,5,8,0:0:0:0:
289,84,74905,1,8,0:0:0:0:
87,230,75014,1,8,0:0:0:0:
359,210,75123,1,8,0:0:0:0:
79,318,75232,1,2,0:0:0:0:
509,271,75449,5,8,0:0:0:0:
25,69,75667,6,0,B|131:49|211:120|211:120|108:125|54:148,1,359.999990463257,2|2,0:0|0:0,0:0:0:0:
508,172,76101,1,2,0:0:0:0:
16,383,76319,5,2,0:0:0:0:
254,291,76427,1,2,0:0:0:0:
509,271,76536,1,8,0:0:0:0:
10,270,76754,6,0,P|175:323|373:321,1,359.999990463257,2|2,0:0|0:0,0:0:0:0:
503,30,77188,5,8,0:0:0:0:
251,68,77297,1,8,0:0:0:0:
4,31,77405,1,8,0:0:0:0:
498,136,77623,6,0,P|319:130|156:57,1,359.999990463257,2|2,0:0|0:0,0:0:0:0:
24,269,78058,5,8,0:0:0:0:
260,229,78167,1,8,0:0:0:0:
486,258,78275,1,8,0:0:0:0:
4,356,78493,5,8,0:0:0:0:
510,351,78710,1,2,0:0:0:0:
33,119,78928,1,8,0:0:0:0:
511,351,79145,5,8,0:0:0:0:
259,317,79254,1,10,0:0:0:0:
486,258,79362,1,8,0:0:0:0:
4,356,79580,5,10,0:0:0:0:
493,158,79797,1,8,0:0:0:0:
455,62,80014,5,10,0:0:0:0:
214,140,80123,1,8,0:0:0:0:
355,143,80232,1,2,0:0:0:0:
4,356,80449,5,2,0:0:0:0:
455,62,80667,5,10,0:0:0:0:
214,140,80776,1,8,0:0:0:0:
355,143,80885,1,2,0:0:0:0:
4,356,81101,5,8,0:0:0:0:
456,62,81319,5,10,0:0:0:0:
214,140,81428,1,8,0:0:0:0:
486,258,81536,1,10,0:0:0:0:
233,247,81645,1,8,0:0:0:0:
473,368,81754,6,0,P|391:345|286:338,1,179.999995231629,8|0,0:0|0:0,0:0:0:0:
4,356,81971,2,0,P|94:348|185:325,1,179.999995231629,8|0,0:0|0:0,0:0:0:0:
486,258,82188,2,0,P|416:221|310:200,1,179.999995231629,10|0,0:0|0:0,0:0:0:0:
13,253,82406,2,0,P|103:225|176:179,1,179.999995231629,10|2,0:0|0:0,0:0:0:0:
370,40,82624,5,8,0:0:0:0:
55,86,82732,1,2,0:0:0:0:
287,79,82841,1,10,0:0:0:0:
19,167,82949,1,8,0:0:0:0:
359,126,83058,1,10,0:0:0:0:
13,253,83167,1,2,0:0:0:0:
276,165,83275,1,10,0:0:0:0:
25,339,83384,1,10,0:0:0:0:
473,368,83493,5,14,0:0:0:0:
