osu file format v14

[General]
AudioFilename: 1.mp3
AudioLeadIn: 0
PreviewTime: 60175
Countdown: 0
SampleSet: Soft
StackLeniency: 0.3
Mode: 0
LetterboxInBreaks: 0
WidescreenStoryboard: 0

[Editor]
Bookmarks: 26827,37827,73827,88827
DistanceSpacing: 0.6
BeatDivisor: 4
GridSize: 16
TimelineZoom: 2.2

[Metadata]
Title:Kanpan Tasogare Shinbun
TitleUnicode:官板黄昏新聞
Artist:Akiyama Uni
ArtistUnicode:あきやま うに
Creator:09kami
Version:Lunatic
Source:東方Project
Tags:Twilight Frontier Tasofro 黄昏フロンティア th13.5 zun Touhou とうほうプロジェクト Officially-Sanctioned Twilight Newspaper 東方心綺楼 ~ Hopeless Masquerade IamKwaN
BeatmapID:895331
BeatmapSetID:388036

[Difficulty]
HPDrainRate:6
CircleSize:3
OverallDifficulty:7
ApproachRate:9
SliderMultiplier:3.1
SliderTickRate:1

[Events]
//Background and Video events
0,0,"2.jpg",0,0
//Break Periods
//Storyboard Layer 0 (Background)
//Storyboard Layer 1 (Fail)
//Storyboard Layer 2 (Pass)
//Storyboard Layer 3 (Foreground)
//Storyboard Sound Samples

[TimingPoints]
-4476,333.333333333333,5,1,0,60,1,0
523,-100,5,2,1,60,0,0
23857,-90.9090909090909,5,2,1,60,0,0
33190,-200,5,2,1,60,0,0
33857,-133.333333333333,5,2,1,60,0,0
34023,-133.333333333333,5,2,1,45,0,0
34190,-133.333333333333,5,2,1,30,0,0
35523,-133.333333333333,5,2,1,60,0,0
37523,-133.333333333333,5,2,1,45,0,0
37690,-133.333333333333,5,2,1,30,0,0
38523,-133.333333333333,5,2,1,60,0,0
38857,-133.333333333333,5,2,1,45,0,0
39023,-133.333333333333,5,2,1,30,0,0
40523,-133.333333333333,5,2,1,60,0,0
40690,-133.333333333333,5,2,1,45,0,0
40857,-133.333333333333,5,2,1,30,0,0
42190,-133.333333333333,5,2,1,60,0,0
43857,-133.333333333333,5,2,1,45,0,0
44023,-133.333333333333,5,2,1,30,0,0
45190,-133.333333333333,5,2,1,60,0,0
45523,-133.333333333333,5,2,1,45,0,0
45690,-133.333333333333,5,2,1,30,0,0
47190,-133.333333333333,5,2,1,60,0,0
47357,-133.333333333333,5,2,1,45,0,0
47523,-133.333333333333,5,2,1,30,0,0
48857,-133.333333333333,5,2,1,60,0,0
50857,-133.333333333333,5,2,1,45,0,0
51023,-133.333333333333,5,2,1,30,0,0
51857,-133.333333333333,5,2,1,60,0,0
52190,-133.333333333333,5,2,1,45,0,0
52357,-133.333333333333,5,2,1,30,0,0
53857,-133.333333333333,5,2,1,60,0,0
54023,-133.333333333333,5,2,1,45,0,0
54190,-133.333333333333,5,2,1,30,0,0
55523,-133.333333333333,5,2,1,60,0,0
57190,-133.333333333333,5,2,1,45,0,0
57357,-133.333333333333,5,2,1,30,0,0
58523,-133.333333333333,5,2,1,60,0,0
58857,-133.333333333333,5,2,1,70,0,0
59523,-133.333333333333,5,2,1,75,0,0
60023,-100,5,2,1,80,0,0
60523,-66.6666666666667,5,2,1,80,0,0
63190,-100,5,2,1,80,0,0
63857,-66.6666666666667,5,2,1,80,0,0
73857,-66.6666666666667,5,2,1,100,0,0
83857,-66.6666666666667,5,2,1,100,0,0
87190,-57.1428571428571,5,2,1,100,0,0

[Colours]
Combo1 : 255,247,185
Combo2 : 85,85,85
Combo3 : 227,227,227
Combo4 : 203,253,172

[HitObjects]
294,76,523,5,4,0:0:0:0:
466,172,1023,1,0,0:0:0:0:
238,149,1523,1,0,0:0:0:0:
466,172,1857,1,4,0:0:0:0:
259,239,2190,1,4,0:0:0:0:
466,172,2690,1,0,0:0:0:0:
319,307,3190,1,0,0:0:0:0:
466,172,3523,1,0,0:0:0:0:
218,308,3857,5,4,0:0:0:0:
46,212,4357,1,0,0:0:0:0:
274,235,4857,1,0,0:0:0:0:
46,212,5190,1,4,0:0:0:0:
253,145,5523,1,4,0:0:0:0:
46,212,6023,1,0,0:0:0:0:
193,77,6523,1,0,0:0:0:0:
46,212,6857,1,0,0:0:0:0:
408,80,7190,6,4,B|232:16|106:127|106:127|200:184|248:168,1,465,4|0,0:0|0:0,0:0:0:0:
408,80,8190,1,0,0:0:0:0:
424,328,8523,2,0,P|384:296|272:272,1,155,4|0,0:0|0:0,0:0:0:0:
360,240,8857,6,0,B|184:304|56:200|56:200|152:136|186:149,1,465,4|0,0:0|0:0,0:0:0:0:
464,64,9690,2,8,P|394:96|318:96,1,155,0|4,0:0|0:0,0:0:0:0:
38,55,10190,1,0,0:0:0:0:
61,328,10523,6,0,P|124:284|200:272,1,155,4|0,0:0|0:0,0:0:0:0:
408,160,11023,2,8,B|288:32|128:40|128:40|160:128|248:144,1,465,0|0,0:0|0:0,0:0:0:0:
448,328,11857,2,0,P|384:284|309:271,1,155,4|0,0:0|0:0,0:0:0:0:
336,208,12190,6,8,B|217:334|57:326|57:326|89:238|160:225,1,465,4|0,0:0|0:0,0:0:0:0:
464,64,13023,2,8,P|394:96|318:96,1,155,0|0,0:0|0:0,0:0:0:0:
48,66,13523,1,0,0:0:0:0:
28,356,13857,6,0,B|32:227|143:90|143:90|179:204|134:264,1,465,4|0,0:0|0:0,0:0:0:0:
444,331,14690,2,8,P|367:323|294:351,1,155,0|0,0:0|0:0,0:0:0:0:
477,95,15190,1,4,0:0:0:0:
19,304,15523,6,0,B|131:344|228:273|228:273|201:238|128:240,1,310,4|4,0:0|0:0,0:0:0:0:
186,83,16023,2,0,P|331:134|479:95,1,310,0|0,0:0|0:0,0:0:0:0:
324,282,16523,2,8,B|303:229|407:69|407:69|481:85|479:101,1,310,0|0,0:0|0:0,0:0:0:0:
32,72,17190,6,0,B|24:50|24:50|104:42|208:202|173:354|173:354|201:293,1,465,4|0,0:0|0:0,0:0:0:0:
359,59,18023,2,8,P|296:102|256:168,1,155,0|0,0:0|0:0,0:0:0:0:
416,208,18523,1,4,0:0:0:0:
101,160,18857,6,8,L|261:168,1,155,4|0,0:0|0:0,0:0:0:0:
416,208,19190,2,8,L|256:216,1,155,4|0,0:0|0:0,0:0:0:0:
19,266,19523,2,8,L|179:258,1,155,4|4,0:0|0:0,0:0:0:0:
428,341,19857,2,8,L|268:333,1,155,4|0,0:0|0:0,0:0:0:0:
193,42,20190,1,4,0:0:0:0:
496,272,20523,6,0,B|333:300|197:244|197:244|272:176|352:192,1,465,4|0,0:0|0:0,0:0:0:0:
210,357,21523,1,4,0:0:0:0:
83,52,21857,2,0,P|126:114|196:146,1,155,4|0,0:0|0:0,0:0:0:0:
368,224,22190,6,0,P|238:147|93:190,1,310,4|4,0:0|0:0,0:0:0:0:
405,91,22690,2,8,P|364:237|440:368,1,310,0|0,0:0|0:0,0:0:0:0:
492,199,23190,1,0,0:0:0:0:
128,80,23523,2,8,P|205:72|279:94,1,155,0|0,0:0|0:0,0:0:0:0:
376,168,23857,6,0,B|304:216|208:208|120:200|24:256,1,341.000010406494,4|0,0:0|0:0,0:0:0:0:
112,320,24357,2,8,P|188:328|283:291,2,170.500005203247,0|0|0,0:0|0:0|0:0,0:0:0:0:
488,176,24857,1,0,0:0:0:0:
248,48,25190,1,4,0:0:0:0:
256,304,25357,1,4,0:0:0:0:
488,176,25523,5,4,0:0:0:0:
256,304,25857,1,4,0:0:0:0:
40,80,26023,1,0,0:0:0:0:
40,80,26357,2,8,B|88:88|88:88|144:112|224:128,1,170.500005203247,0|0,0:0|0:0,0:0:0:0:
488,176,26857,2,0,B|440:184|440:184|384:208|323:219,1,170.500005203247,0|0,0:0|0:0,0:0:0:0:
204,123,27190,5,4,0:0:0:0:
72,216,27690,2,8,P|213:271|245:271,1,170.500005203247,0|0,0:0|0:0,0:0:0:0:
452,204,28023,1,0,0:0:0:0:
351,183,28190,2,0,B|398:180|454:204|454:204|342:285|277:268|218:250,1,341.000010406494,0|4,0:0|0:0,0:0:0:0:
351,183,28857,6,8,B|242:113|114:105|5:195|5:195|61:219|141:211,1,511.500015609742,4|0,0:0|0:0,0:0:0:0:
351,183,29690,1,0,0:0:0:0:
237,350,29857,1,0,0:0:0:0:
151,51,30190,1,0,0:0:0:0:
72,304,30523,5,4,0:0:0:0:
351,183,31023,1,0,0:0:0:0:
72,304,31357,1,0,0:0:0:0:
400,264,31523,1,0,0:0:0:0:
72,304,31857,1,4,0:0:0:0:
389,84,32190,5,4,0:0:0:0:
345,351,32357,1,0,0:0:0:0:
351,183,32690,1,0,0:0:0:0:
400,264,32857,1,0,0:0:0:0:
304,264,33023,1,0,0:0:0:0:
304,264,33190,6,0,L|244:249,1,38.75,4|0,0:0|0:0,0:0:0:0:
226,225,33357,2,0,L|133:248,2,77.5,0|4|0,0:0|0:0|0:0,0:0:0:0:
400,264,33857,5,4,0:0:0:0:
351,183,34023,1,2,0:0:0:0:
109,231,34190,2,0,L|239:224,1,116.250004434586,0|0,0:0|0:0,0:0:0:0:
351,183,34523,1,0,0:0:0:0:
400,264,34689,1,0,0:0:0:0:
303,263,34857,2,0,P|288:316|328:355,1,116.250004434586,0|0,0:0|0:0,0:0:0:0:
270,132,35190,2,0,P|285:79|246:41,1,116.250004434586,0|0,0:0|0:0,0:0:0:0:
70,112,35523,6,0,P|128:102|186:103,1,116.250004434586,2|0,0:0|0:0,0:0:0:0:
466,192,35857,2,0,P|407:182|350:183,1,116.250004434586,2|0,0:0|0:0,0:0:0:0:
185,121,36190,2,0,P|127:121|70:112,1,116.250004434586,2|0,0:0|0:0,0:0:0:0:
350,201,36524,2,0,P|408:201|466:192,1,116.250004434586,2|0,0:0|0:0,0:0:0:0:
421,99,36857,1,2,0:0:0:0:
370,306,37023,1,0,0:0:0:0:
468,348,37190,6,0,P|476:285|441:228,1,116.250004434586,2|0,0:0|0:0,0:0:0:0:
270,267,37523,2,0,P|203:271|146:258,2,116.250004434586,2|0|0,0:0|0:0|0:0,0:0:0:0:
183,299,38023,2,0,P|116:295|59:308,2,116.250004434586,0|0|0,0:0|0:0|0:0,0:0:0:0:
216,170,38523,1,0,0:0:0:0:
236,317,38690,1,0,0:0:0:0:
127,119,38857,6,0,P|172:72|237:66,1,116.250004434586,2|0,0:0|0:0,0:0:0:0:
304,116,39190,2,0,P|369:117|419:75,1,116.250004434586,2|0,0:0|0:0,0:0:0:0:
469,151,39523,2,0,P|453:206|473:260,1,116.250004434586,2|0,0:0|0:0,0:0:0:0:
370,292,39857,2,0,P|349:239|302:208,1,116.250004434586,2|0,0:0|0:0,0:0:0:0:
236,317,40190,1,2,0:0:0:0:
307,230,40357,1,0,0:0:0:0:
114,263,40523,5,10,0:0:0:0:
370,292,40690,1,0,0:0:0:0:
205,214,40857,2,0,P|218:154|218:85,1,116.250004434586,0|0,0:0|0:0,0:0:0:0:
236,317,41190,2,0,P|223:257|223:188,1,116.250004434586,0|0,0:0|0:0,0:0:0:0:
220,66,41523,2,0,P|218:124|205:181,1,116.250004434586,0|0,0:0|0:0,0:0:0:0:
207,317,41856,2,0,P|220:257|220:188,1,116.250004434586,0|0,0:0|0:0,0:0:0:0:
101,116,42190,5,2,0:0:0:0:
330,95,42357,1,0,0:0:0:0:
206,181,42523,5,2,0:0:0:0:
435,202,42690,1,0,0:0:0:0:
371,344,42857,5,2,0:0:0:0:
142,323,43024,1,0,0:0:0:0:
266,237,43190,5,2,0:0:0:0:
37,258,43357,1,0,0:0:0:0:
101,116,43523,5,2,0:0:0:0:
330,95,43690,1,0,0:0:0:0:
266,237,43857,6,0,L|285:364,1,116.250004434586,2|0,0:0|0:0,0:0:0:0:
141,322,44190,2,0,L|159:208,1,116.250004434586,0|0,0:0|0:0,0:0:0:0:
248,351,44523,2,0,L|265:236,1,116.250004434586,0|0,0:0|0:0,0:0:0:0:
123,207,44857,2,0,L|141:322,1,116.250004434586,0|0,0:0|0:0,0:0:0:0:
5,352,45190,5,2,0:0:0:0:
75,108,45357,1,0,0:0:0:0:
157,24,45523,2,0,L|200:132,1,116.250004434586,2|0,0:0|0:0,0:0:0:0:
248,17,45857,2,0,L|291:125,1,116.250004434586,0|0,0:0|0:0,0:0:0:0:
339,10,46190,2,0,L|382:118,1,116.250004434586,0|0,0:0|0:0,0:0:0:0:
430,3,46523,2,0,L|473:111,1,116.250004434586,2|2,0:0|0:0,0:0:0:0:
248,17,46857,2,0,L|291:125,1,116.250004434586,0|0,0:0|0:0,0:0:0:0:
430,3,47190,5,12,0:0:0:0:
404,257,47357,1,6,0:0:0:0:
325,328,47523,2,0,P|297:275|314:205,1,116.250004434586,0|0,0:0|0:0,0:0:0:0:
234,341,47857,2,0,P|206:288|223:218,1,116.250004434586,0|0,0:0|0:0,0:0:0:0:
127,163,48190,2,0,P|134:219|106:269,1,116.250004434586,0|0,0:0|0:0,0:0:0:0:
36,144,48523,2,0,P|43:200|15:250,1,116.250004434586,0|0,0:0|0:0,0:0:0:0:
94,83,48857,5,2,0:0:0:0:
316,60,49023,1,0,0:0:0:0:
179,82,49190,5,2,0:0:0:0:
389,154,49356,1,0,0:0:0:0:
209,161,49523,5,2,0:0:0:0:
368,315,49689,1,0,0:0:0:0:
179,82,49857,5,2,0:0:0:0:
258,288,50023,1,0,0:0:0:0:
94,83,50190,5,2,0:0:0:0:
78,303,50356,1,0,0:0:0:0:
209,161,50523,5,2,0:0:0:0:
404,56,50689,1,0,0:0:0:0:
94,83,50857,6,0,P|166:85|211:57,1,116.250004434586,2|0,0:0|0:0,0:0:0:0:
209,161,51190,2,0,P|281:159|326:187,1,116.250004434586,0|0,0:0|0:0,0:0:0:0:
94,45,51523,2,0,P|166:43|211:71,1,116.250004434586,0|0,0:0|0:0,0:0:0:0:
78,303,51857,5,0,0:0:0:0:
94,83,52023,1,0,0:0:0:0:
117,339,52190,2,0,L|139:219,1,116.250004434586,2|0,0:0|0:0,0:0:0:0:
238,364,52523,2,0,L|216:244,1,116.250004434586,2|0,0:0|0:0,0:0:0:0:
325,339,52857,2,0,L|347:219,1,116.250004434586,2|0,0:0|0:0,0:0:0:0:
446,364,53190,2,0,L|424:244,1,116.250004434586,2|0,0:0|0:0,0:0:0:0:
238,364,53523,2,0,L|216:244,1,116.250004434586,2|0,0:0|0:0,0:0:0:0:
117,339,53857,5,0,0:0:0:0:
167,144,54023,1,2,0:0:0:0:
61,89,54190,2,0,P|44:144|63:199,1,116.250004434586,0|0,0:0|0:0,0:0:0:0:
277,94,54523,2,0,P|294:148|276:203,1,116.250004434586,0|0,0:0|0:0,0:0:0:0:
75,199,54857,2,0,P|56:144|73:89,1,116.250004434586,0|0,0:0|0:0,0:0:0:0:
262,202,55190,2,0,P|280:147|263:92,1,116.250004434586,0|0,0:0|0:0,0:0:0:0:
167,144,55523,5,2,0:0:0:0:
262,202,55690,1,0,0:0:0:0:
167,144,55857,5,2,0:0:0:0:
343,151,56023,1,0,0:0:0:0:
167,144,56190,5,2,0:0:0:0:
277,94,56356,1,0,0:0:0:0:
167,144,56523,5,2,0:0:0:0:
343,39,56690,1,0,0:0:0:0:
167,144,56857,5,2,0:0:0:0:
410,91,57024,1,0,0:0:0:0:
167,144,57190,6,0,P|152:221|170:267,1,116.250004434586,2|0,0:0|0:0,0:0:0:0:
41,355,57523,2,0,P|56:278|38:232,1,116.250004434586,0|0,0:0|0:0,0:0:0:0:
66,51,57857,2,0,P|51:128|69:174,1,116.250004434586,0|0,0:0|0:0,0:0:0:0:
44,243,58190,2,0,P|56:299|40:354,1,116.250004434586,0|0,0:0|0:0,0:0:0:0:
165,327,58523,5,2,0:0:0:0:
344,356,58690,1,0,0:0:0:0:
509,275,58857,6,0,L|377:280,1,116.250004434586,2|0,0:0|0:0,0:0:0:0:
322,210,59190,2,0,L|185:188,1,116.250004434586,2|0,0:0|0:0,0:0:0:0:
122,230,59523,6,0,P|125:286|165:327,1,116.250004434586,2|0,0:0|0:0,0:0:0:0:
444,53,59857,1,2,0:0:0:0:
71,226,60023,6,0,P|74:301|128:355,1,155,0|4,0:0|0:0,0:0:0:0:
444,53,60357,1,4,0:0:0:0:
62,58,60523,6,0,B|191:66|341:130|452:286|452:286|299:264|231:187,1,697.500026607514,8|12,0:0|0:0,0:0:0:0:
129,282,61357,1,0,0:0:0:0:
352,304,61523,2,0,B|208:189|31:214|31:214|71:264|129:282,1,465.000017738343,8|8,0:0|0:0,0:0:0:0:
224,52,62023,1,0,0:0:0:0:
430,150,62190,6,8,P|317:74|215:52,1,232.500008869171,14|0,0:0|0:0,0:0:0:0:
44,55,62523,1,0,0:0:0:0:
223,52,62690,2,0,B|275:62|357:104|357:104|140:118|44:55,1,465.000017738343,8|8,0:0|0:0,0:0:0:0:
38,152,63190,6,8,P|21:183|45:313,1,155,4|0,0:0|0:0,0:0:0:0:
440,347,63523,2,8,P|461:274|437:202,1,155,4|0,0:0|0:0,0:0:0:0:
55,358,63857,6,0,B|43:289|103:127|259:79|371:95,1,465.000017738343,12|0,0:0|0:0,0:0:0:0:
423,294,64357,2,0,B|380:189|261:77|90:106|37:151,1,465.000017738343,12|0,0:0|0:0,0:0:0:0:
423,294,64857,2,0,P|340:220|410:144,1,232.500008869171,12|0,0:0|0:0,0:0:0:0:
122,223,65190,2,0,P|149:330|48:354,1,232.500008869171,4|0,0:0|0:0,0:0:0:0:
436,329,65523,6,0,B|307:320|157:257|46:101|46:101|199:123|267:200,1,697.500026607514,10|12,0:0|0:0,0:0:0:0:
83,313,66190,2,0,P|23:184|52:98,1,232.500008869171,4|0,0:0|0:0,0:0:0:0:
48,103,66440,1,0,0:0:0:0:
48,103,66523,1,8,0:0:0:0:
334,119,66690,1,4,0:0:0:0:
316,339,66857,2,8,B|394:243|330:111,1,232.500008869171,12|4,0:0|0:0,0:0:0:0:
497,150,67190,6,0,B|158:84|158:84|204:38|263:32,1,465.000017738343,12|0,0:0|0:0,0:0:0:0:
140,275,67690,2,8,B|114:290|36:301|36:301|122:175|335:119,1,465.000017738343,8|4,0:0|0:0,0:0:0:0:
453,350,68190,5,12,0:0:0:0:
414,46,68357,1,4,0:0:0:0:
140,275,68523,5,4,0:0:0:0:
302,28,68690,1,0,0:0:0:0:
276,313,68857,6,8,L|48:354,1,232.500008869171,12|0,0:0|0:0,0:0:0:0:
144,33,69190,2,0,P|41:148|45:246,1,232.500008869171,8|0,0:0|0:0,0:0:0:0:
375,197,69523,2,8,L|133:221,1,232.500008869171,8|0,0:0|0:0,0:0:0:0:
493,236,69857,2,8,B|481:287|428:331,2,116.250004434586,6|0|4,0:0|0:0|0:0,0:0:0:0:
50,110,70190,2,8,P|43:220|114:321,1,232.500008869171,4|8,0:0|0:0,0:0:0:0:
381,269,70523,6,0,B|472:289|510:340|510:340|197:303,1,465.000017738343,12|0,0:0|0:0,0:0:0:0:
279,98,71023,2,8,P|163:88|50:110,2,232.500008869171,4|4|0,0:0|0:0|0:0,0:0:0:0:
232,274,71523,2,8,B|491:142|491:142|488:209|371:274,1,465.000017738343,4|0,0:0|0:0,0:0:0:0:
411,43,72023,1,0,0:0:0:0:
163,215,72190,6,0,P|332:274|399:262,1,232.500008869171,12|0,0:0|0:0,0:0:0:0:
27,301,72523,1,0,0:0:0:0:
379,267,72690,2,8,P|470:192|491:68,2,232.500008869171,4|0|12,0:0|0:0|0:0,0:0:0:0:
57,96,73190,2,0,L|301:94,1,232.500008869171,8|8,0:0|0:0,0:0:0:0:
345,109,73440,1,0,0:0:0:0:
403,135,73523,2,8,B|53:95,1,348.750013303757,8|0,0:0|0:0,0:0:0:0:
149,23,73857,6,12,P|132:134|39:197,1,232.500008869171,14|0,0:0|0:0,0:0:0:0:
108,317,74190,2,8,L|342:249,1,232.500008869171,12|0,0:0|0:0,0:0:0:0:
445,355,74523,2,8,P|438:219|511:151,1,232.500008869171,4|0,0:0|0:0,0:0:0:0:
444,145,74773,1,0,0:0:0:0:
388,156,74857,2,8,P|460:242|444:354,1,232.500008869171,12|0,0:0|0:0,0:0:0:0:
39,197,75190,2,0,P|190:202|273:170,1,232.500008869171,12|0,0:0|0:0,0:0:0:0:
474,40,75523,6,0,P|322:34|240:67,1,232.500008869171,12|0,0:0|0:0,0:0:0:0:
467,367,75857,2,0,P|433:219|380:147,1,232.500008869171,4|0,0:0|0:0,0:0:0:0:
39,197,76190,1,12,0:0:0:0:
474,40,76357,1,4,0:0:0:0:
477,237,76523,2,0,P|362:313|249:330,1,232.500008869171,4|8,0:0|0:0,0:0:0:0:
64,237,76857,2,0,P|158:304|270:329,1,232.500008869171,12|8,0:0|0:0,0:0:0:0:
411,28,77190,6,0,L|304:256,1,232.500008869171,14|0,0:0|0:0,0:0:0:0:
293,284,77440,1,0,0:0:0:0:
274,323,77523,2,8,P|286:167|422:21,1,348.750013303757,4|0,0:0|0:0,0:0:0:0:
310,41,77857,2,8,P|254:31|203:57,2,116.250004434586,12|0|0,0:0|0:0|0:0,0:0:0:0:
502,363,78190,2,0,L|252:319,1,232.500008869171,12|0,0:0|0:0,0:0:0:0:
67,344,78523,2,8,P|177:261|150:173,1,232.500008869171,12|0,0:0|0:0,0:0:0:0:
112,54,78857,5,12,0:0:0:0:
281,156,79023,2,0,B|163:152|109:102|109:102|112:38,1,232.500008869171,0|4,0:0|0:0,0:0:0:0:
249,45,79357,2,8,P|276:125|260:277,1,232.500008869171,8|12,0:0|0:0,0:0:0:0:
248,303,79607,1,0,0:0:0:0:
230,336,79690,1,0,0:0:0:0:
62,218,79857,2,8,P|166:167|281:156,1,232.500008869171,4|4,0:0|0:0,0:0:0:0:
493,353,80190,2,8,P|414:268|369:161,1,232.500008869171,4|4,0:0|0:0,0:0:0:0:
248,44,80523,6,0,L|473:105,1,232.500008869171,14|0,0:0|0:0,0:0:0:0:
493,353,80857,1,4,0:0:0:0:
244,331,81023,2,0,P|352:288|320:192,1,232.500008869171,0|12,0:0|0:0,0:0:0:0:
288,224,81273,1,0,0:0:0:0:
240,240,81357,1,0,0:0:0:0:
192,224,81440,1,0,0:0:0:0:
167,178,81523,2,0,P|342:112|509:170,1,348.750013303757,12|0,0:0|0:0,0:0:0:0:
377,170,81857,2,8,P|271:130|167:176,1,232.500008869171,12|8,0:0|0:0,0:0:0:0:
244,331,82190,6,0,L|13:358,1,232.500008869171,12|0,0:0|0:0,0:0:0:0:
16,32,82523,1,12,0:0:0:0:
248,44,82690,1,0,0:0:0:0:
244,331,82857,1,4,0:0:0:0:
167,175,83023,1,0,0:0:0:0:
248,44,83190,2,0,L|490:132,1,232.500008869171,12|8,0:0|0:0,0:0:0:0:
29,181,83523,2,8,P|112:302|63:354,1,232.500008869171,12|8,0:0|0:0,0:0:0:0:
432,330,83857,6,0,B|82:207|82:207|127:211|167:174,1,465.000017738343,14|12,0:0|0:0,0:0:0:0:
342,70,84357,1,0,0:0:0:0:
127,53,84523,2,0,P|45:74|173:163,1,348.750013303757,12|0,0:0|0:0,0:0:0:0:
228,82,84857,2,8,P|280:69|348:71,2,116.250004434586,12|0|0,0:0|0:0|0:0,0:0:0:0:
451,337,85190,2,0,P|336:345|231:298,1,232.500008869171,12|0,0:0|0:0,0:0:0:0:
11,327,85523,6,8,P|170:204|194:164,2,232.500008869171,12|8|12,0:0|0:0|0:0,0:0:0:0:
451,337,86023,2,8,P|403:264|404:220,2,116.250004434586,14|0|0,0:0|0:0|0:0,0:0:0:0:
11,327,86357,2,8,P|59:254|58:210,2,116.250004434586,8|0|12,0:0|0:0|0:0,0:0:0:0:
451,337,86690,1,12,0:0:0:0:
258,161,86857,2,8,P|134:155|56:234,1,232.500008869171,12|0,0:0|0:0,0:0:0:0:
451,273,87190,6,0,B|118:276|31:246|31:246|174:113|272:168,1,678.125006467104,12|12,0:0|0:0,0:0:0:0:
451,273,87690,2,12,B|258:163|258:163|102:303|102:303|225:296,1,542.500005173683,12|12,0:0|0:0,0:0:0:0:
451,273,88190,2,8,L|294:243,1,135.625001293421,12|0,0:0|0:0,0:0:0:0:
91,206,88357,2,8,L|218:260,1,135.625001293421,12|0,0:0|0:0,0:0:0:0:
212,296,88523,1,12,0:0:0:0:
486,58,88857,5,12,0:0:0:0:
