osu file format v10

[General]
AudioFilename: doll play.mp3
AudioLeadIn: 2000
PreviewTime: 22964
Countdown: 0
SampleSet: Soft
StackLeniency: 0.7
Mode: 0
LetterboxInBreaks: 0

[Editor]
DistanceSpacing: 0.9
BeatDivisor: 8
GridSize: 8

[Metadata]
Title:Doll play
TitleUnicode:Doll play
Artist:Akiyama Hirokazu
ArtistUnicode:Akiyama Hirokazu
Creator:Lizsig
Version:Easy
Source:
Tags:H/MIX GALLERY hmix
BeatmapID:181776
BeatmapSetID:60850

[Difficulty]
HPDrainRate:3
CircleSize:3
OverallDifficulty:3
ApproachRate:3
SliderMultiplier:1
SliderTickRate:2

[Events]
//Background and Video events
0,0,"bgdoll.jpg"
//Break Periods
//Storyboard Layer 0 (Background)
//Storyboard Layer 1 (Fail)
//Storyboard Layer 2 (Pass)
//Storyboard Layer 3 (Foreground)
//Storyboard Sound Samples
//Background Colour Transformations
3,100,163,162,255

[TimingPoints]
72,500,3,2,1,50,1,0
10572,-100,3,2,1,30,0,0
12072,-100,3,2,1,50,0,0
20072,-100,3,2,1,40,0,0
23072,-100,3,2,1,30,0,0
24072,-100,3,2,1,50,0,0
54072,-100,3,2,1,50,0,1
76634,-100,3,2,1,30,0,0
76947,-100,3,2,1,40,0,0
77322,-100,3,2,1,35,0,0
77697,-100,3,2,1,30,0,0
78072,-100,3,2,1,25,0,0
78447,-100,3,2,1,20,0,0
78822,-100,3,2,1,15,0,0
79197,-100,3,2,1,10,0,0
79572,-100,3,2,1,5,0,0

[Colours]
Combo1 : 255,164,255
Combo2 : 181,106,255
Combo3 : 255,36,146
Combo4 : 224,193,255

[HitObjects]
96,312,72,2,0,B|184:248|288:296,1,200,2|0,0:0|0:0,0:0:0
360,344,1572,1,2,0:0:0
448,184,2572,6,0,B|472:136|472:80,2,100,0|2|2,0:0|0:0|0:0,0:0:0
328,48,4572,2,0,B|224:48,1,100,2|0,0:0|0:0,0:0:0
168,120,5572,6,0,B|128:160|112:216,1,100,0|2,0:0|0:0,0:0:0
232,344,7072,2,0,B|272:304|288:248,1,100,0|2,0:0|0:0,0:0:0
480,72,9072,6,0,B|440:112|424:168,1,100,0|2,0:0|0:0,0:0:0
256,200,10572,2,0,B|176:200,1,50,2|0,0:0|0:0,0:0:0
160,200,11072,6,0,B|152:152|176:96,2,100,2|2|2,0:0|0:0|0:0,0:0:0
280,328,13072,2,0,B|328:352|400:344,1,100,0|2,0:0|0:0,0:0:0
456,184,14572,6,0,B|480:144|488:88,2,100,0|2|2,0:0|0:0|0:0,0:0:0
296,104,16572,2,0,B|192:104,1,100,2|0,0:0|0:0,0:0:0
104,104,17572,6,0,B|80:160|80:216,1,100,0|2,0:0|0:0,0:0:0
232,304,19072,2,0,B|256:248|256:192,2,100,0|2|2,0:0|0:0|0:0,0:0:0
416,312,21072,6,0,B|440:264|488:232,1,100,2|0,0:0|0:0,0:0:0
416,72,22572,1,0,0:0:0
384,160,23072,6,0,B|360:224|272:256|208:232,1,200,2|2,0:0|0:0,0:0:0
152,168,24572,2,0,B|152:120|184:72,2,100,0|2|2,0:0|0:0|0:0,0:0:0
120,256,26072,2,0,B|136:304|184:336,1,100,0|2,0:0|0:0,0:0:0
264,304,27072,6,0,B|308:333|324:381,2,100,0|2|2,0:0|0:0|0:0,0:0:0
224,224,28572,2,0,B|248:176|304:160,1,100,0|2,0:0|0:0,0:0:0
480,176,30072,5,0,0:0:0
464,264,30572,2,0,B|432:312|368:296,2,100,2|2|2,0:0|0:0|0:0,0:0:0
392,208,32072,2,0,B|352:176|344:120,1,100,0|2,0:0|0:0,0:0:0
272,64,33072,6,0,B|312:24|368:32,2,100,0|2|2,0:0|0:0|0:0,0:0:0
256,152,34572,2,0,B|240:208|184:248,1,100,2|2,0:0|0:0,0:0:0
24,240,36072,5,2,0:0:0
16,152,36572,2,2,B|32:96|88:56,1,100
144,120,37572,2,0,B|182:93|198:37,2,100,0|2|2,0:0|0:0|0:0,0:0:0
168,208,39072,5,0,0:0:0
224,280,39572,2,2,B|280:288|328:264,1,100
368,192,40572,2,0,B|409:170|465:178,1,100,2|2,0:0|0:0,0:0:0
448,360,42072,5,2,0:0:0
368,320,42572,2,2,B|312:320|256:368,1,100,2|2,0:0|0:0,0:0:0
184,336,43572,2,0,B|146:367|90:367,2,100,0|2|2,0:0|0:0|0:0,0:0:0
184,248,45072,5,0,0:0:0
136,168,45572,2,2,B|120:120|136:64,1,100
216,112,46572,2,0,B|256:80|328:80,1,100,2|2,0:0|0:0,0:0:0
424,224,48072,5,2,0:0:0
384,304,48572,2,0,B|296:376|184:328,1,200,2|2,0:0|0:0,0:0:0
128,272,50072,1,2,0:0:0
184,104,51072,5,2,0:0:0
268,76,51572,2,0,B|340:64|412:120|412:188,1,200,2|2,0:0|0:0,0:0:0
408,272,53072,1,2,0:0:0
232,320,54072,6,0,B|184:312|144:264,1,100,4|2,0:0|0:0,0:0:0
96,192,55072,1,2,0:0:0
148,114,55572,2,0,B|184:72|232:64,1,100,0|2,0:0|0:0,0:0:0
312,96,56572,1,2,0:0:0
392,144,57072,6,0,B|416:96|392:40,2,100,0|2|2,0:0|0:0|0:0,0:0:0
416,232,58572,2,0,B|392:280|416:336,2,100,0|2|2,0:0|0:0|0:0,0:0:0
328,200,60072,5,0,0:0:0
280,272,60572,2,0,B|240:312|184:312,1,100,2|2,0:0|0:0,0:0:0
104,288,61572,1,0,0:0:0
48,216,62072,2,0,B|48:104,1,100,2|2,0:0|0:0,0:0:0
128,72,63072,5,0,0:0:0
216,88,63572,2,0,B|256:56|312:56,1,100,2|2,0:0|0:0,0:0:0
400,72,64572,1,0,0:0:0
344,144,65072,2,0,B|392:160|419:211,1,100,2|2,0:0|0:0,0:0:0
496,256,66072,6,0,B|480:312|416:352,1,100,4|2,0:0|0:0,0:0:0
352,320,67072,1,2,0:0:0
264,352,67572,2,0,B|216:320|144:320,1,100,0|2,0:0|0:0,0:0:0
104,256,68572,1,2,0:0:0
16,280,69072,6,0,B|0:328|16:400,2,100,0|2|2,0:0|0:0|0:0,0:0:0
40,192,70572,2,0,B|56:144|40:72,2,100,0|2|2,0:0|0:0|0:0,0:0:0
104,256,72072,5,0,0:0:0
192,264,72572,2,0,B|248:256|280:216,1,100,2|2,0:0|0:0,0:0:0
344,152,73572,1,0,0:0:0
384,232,74072,2,0,B|384:344,1,100,2|2,0:0|0:0,0:0:0
472,352,75072,5,0,0:0:0
472,264,75572,2,0,B|472:152,1,100,2|2,0:0|0:0,0:0:0
424,72,76634,5,6,0:0:0
256,192,76822,12,2,79572,0:0:0
