osu file format v5

[General]
AudioFilename: Battle Fontier.mp3
AudioLeadIn: 0
PreviewTime: -1
Countdown: 1
SampleSet: Normal
StackLeniency: 0.7
Mode: 0
LetterboxInBreaks: 1
EditorBookmarks: 11877,50488,75580,79145,150278

[Metadata]
Title:Battle Frontier
Artist:Akitomo Takaya
Creator:eirrol
Version:Hard
Source:
Tags:

[Difficulty]
HPDrainRate:5
CircleSize:5
OverallDifficulty:6
SliderMultiplier:1.5
SliderTickRate:2

[Events]
//Background and Video events
0,0,"pmsbg.JPG"
//Break Periods
2,35966,49959
2,74299,78709
2,141390,149842
//Storyboard Layer 0 (Background)
//Storyboard Layer 1 (Failing)
//Storyboard Layer 2 (Passing)
//Storyboard Layer 3 (Foreground)
//Storyboard Sound Samples
//Background Colour Transformations
3,100,255,255,255

[TimingPoints]
1100,370.690720375633,4,1,0,100

[Colours]
Combo1 : 128,255,0
Combo2 : 166,162,121
Combo3 : 255,128,64
Combo4 : 128,255,255
Combo5 : 255,128,128

[HitObjects]
416,288,12406,5,0
336,288,12591,1,0
256,288,12776,1,0
176,288,12962,2,0,B|109:236|144:152,3,150
304,136,14444,5,0
384,136,14630,1,0
440,80,14815,1,0
360,64,15000,6,0,B|256:56|200:128,1,150
216,176,15556,1,0
184,248,15742,1,0
160,320,15927,2,0,B|248:352|328:320,3,150
432,248,17410,1,0
400,176,17595,1,0
328,144,17781,1,0
248,136,17966,1,0
80,160,18337,5,0
160,160,18522,1,0
224,208,18707,2,0,B|285:276|224:352,4,150
168,256,20375,1,0
104,216,20561,1,0
88,136,20746,1,0
136,72,20931,6,0,B|197:27|288:32,1,150
336,64,21487,1,0
376,128,21673,1,0
384,208,21858,2,0,B|416:296|320:344,4,150
328,256,23526,1,0
288,192,23712,1,0
216,160,23897,1,0
368,96,24268,5,0
312,40,24453,1,0
256,96,24638,1,0
176,96,24824,2,0,B|109:148|144:232,3,150
304,248,26306,5,0
384,248,26492,1,0
440,304,26677,1,0
360,320,26863,6,0,B|256:328|200:256,1,150
216,208,27419,1,0
184,136,27604,1,0
160,64,27789,2,0,B|248:32|328:64,3,150
432,136,29272,1,0
400,208,29457,1,0
328,240,29643,1,0
248,248,29828,1,0
80,224,30199,5,0
160,224,30384,1,0
224,176,30569,2,0,B|285:108|224:32,4,150
168,128,32238,1,0
104,168,32423,1,0
88,248,32608,1,0
136,312,32794,6,0,B|197:357|288:352,1,150
336,320,33350,1,0
376,256,33535,1,0
384,176,33720,2,0,B|416:88|320:40,4,150
328,128,35388,1,0
248,128,35574,1,0
168,128,35759,1,0
40,80,50587,6,0,B|144:29|280:80,1,225
307,232,51513,1,0
140,209,51884,1,0
271,313,52255,2,0,B|303:351|367:321,2,75
233,237,52811,2,0,B|241:141|137:125,1,150
71,111,53367,1,0
64,278,53738,1,0
328,160,54479,5,0
384,264,54850,1,0
264,312,55220,2,0,B|232:350|168:320,2,75
272,248,55776,2,0,B|264:152|368:136,1,150
432,104,56332,1,0
440,264,56703,2,0,B|404:353|312:328,1,150
232,200,57444,6,0,B|144:167|96:264,2,150
384,168,58557,1,0
240,112,58927,1,0
160,112,59113,1,0
256,192,59669,12,4,62263
56,80,62449,2,0,B|130:51|198:49|296:96,1,225
304,216,63376,1,0
128,264,63746,1,0
248,312,64117,2,0,B|280:350|344:320,2,75
240,248,64673,2,0,B|248:152|144:136,1,150
80,104,65229,1,0
80,288,65600,1,0
328,160,66341,5,0
384,264,66712,1,0
264,312,67082,2,0,B|232:350|168:320,2,75
272,248,67638,2,0,B|264:152|368:136,1,150
432,104,68195,1,0
440,264,68565,2,0,B|404:353|312:328,1,150
224,200,69307,6,0,B|188:166|136:200,3,75
384,168,70419,1,0
312,128,70604,1,0
240,112,70789,1,0
160,112,70975,1,0
120,312,71345,5,0
216,232,71716,1,0
296,232,71901,1,0
256,192,72272,12,4,74126
40,192,79130,5,0
104,136,79315,1,0
176,80,79501,2,0,B|262:16|386:86|446:133|440:248,1,375
424,320,80613,2,0,B|344:344|256:320,1,150
256,248,81169,2,0,B|256:144,2,75
224,312,81725,6,0,B|144:320|64:272,1,150
88,200,82281,1,0
88,120,82466,1,0
88,40,82651,2,0,B|200:82|316:-3|480:56,1,375
456,136,83764,2,0,B|349:79|198:194|56:104,1,375
472,192,85061,5,0
408,136,85246,1,0
336,96,85432,2,0,B|264:56|177:34|72:107|80:248,1,375
88,320,86544,2,0,B|168:344|256:320,1,150
248,248,87100,2,0,B|248:144,2,75
288,312,87656,6,0,B|368:320|448:272,1,150
424,200,88212,1,0
424,120,88397,1,0
424,40,88583,2,0,B|312:82|196:-3|32:56,1,375
56,136,89695,2,0,B|163:79|314:194|456:104,1,375
40,192,90992,5,0
104,248,91177,1,0
184,288,91363,2,0,B|256:328|419:346|472:120,1,375
424,64,92475,2,0,B|344:40|256:64,1,150
256,128,93031,2,0,B|256:232,2,75
224,72,93587,6,0,B|144:64|64:112,1,150
88,184,94143,1,0
88,264,94328,1,0
88,344,94514,2,0,B|200:302|316:387|480:328,1,375
456,248,95626,2,0,B|349:305|198:190|56:280,1,375
472,192,96923,5,0
408,248,97108,1,0
336,288,97294,2,0,B|186:338|66:286|48:136,1,375
88,64,98406,2,0,B|168:40|256:64,1,150
248,136,98962,2,0,B|248:240,2,75
288,72,99518,6,0,B|368:64|448:112,1,150
424,184,100074,1,0
424,264,100259,1,0
424,344,100445,2,0,B|312:302|196:387|32:328,1,375
56,248,101557,2,0,B|163:305|314:190|456:280,1,375
256,80,103039,5,0
104,136,103410,2,0,B|152:87|259:207|344:96,2,225
56,192,104708,1,0
456,296,105634,6,0,B|375:345|304:280,1,150
232,176,106376,1,0
120,264,106746,1,0
352,344,107302,1,0
408,224,107673,2,0,B|304:152|262:47|213:148|98:157|8:48,1,450
96,48,108970,5,0
88,216,109341,2,0,B|200:72|224:368|360:168,1,300
376,160,110268,1,0
248,72,110639,1,0
104,128,111009,1,0
184,256,111380,1,0
304,160,111751,1,0
448,240,112121,5,0
368,256,112307,1,0
224,328,112677,1,0
144,312,112863,1,0
72,168,113233,1,0
152,200,113419,1,0
224,56,113789,5,0
304,88,113975,1,0
304,88,114160,1,0
384,144,114346,1,0
472,256,114716,1,0
320,320,115087,2,0,B|203:356|72:296,1,225
80,224,115828,5,0
136,160,116014,1,0
216,168,116199,1,0
280,112,116384,1,0
352,152,116570,1,0
424,304,116940,1,4
478,145,117311,6,0,B|421:79|379:59|267:40,1,225
233,202,118237,1,0
386,269,118608,1,0
223,311,118979,2,0,B|191:349|127:319,2,75
272,243,119535,2,0,B|264:147|368:131,1,150
432,104,120091,1,0
432,288,120462,1,0
184,160,121203,5,0
128,264,121574,1,0
248,312,121944,2,0,B|280:350|344:320,2,75
240,248,122500,2,0,B|248:152|144:136,1,150
80,104,123056,1,0
72,264,123427,2,0,B|108:353|200:328,1,150
280,200,124168,6,0,B|368:167|416:264,2,150
128,168,125281,1,0
272,112,125651,1,0
352,112,125837,1,0
256,192,126022,12,4,128802
456,80,129173,2,0,B|368:29|319:28|224:80,1,225
208,216,130100,1,0
384,264,130471,1,0
264,312,130841,2,0,B|232:350|168:320,2,75
272,248,131397,2,0,B|264:152|368:136,1,150
432,104,131953,1,0
432,288,132324,1,0
184,160,133065,5,0
128,264,133436,1,0
248,312,133807,2,0,B|280:350|344:320,2,75
240,248,134363,2,0,B|248:152|144:136,1,150
80,104,134919,1,0
72,264,135290,2,0,B|108:353|200:328,1,150
288,200,136031,6,0,B|324:166|376:200,3,75
128,168,137143,1,0
200,128,137328,1,0
272,112,137514,1,0
352,112,137699,1,0
392,312,138070,5,0
296,232,138440,1,0
216,232,138626,1,0
256,192,138904,12,4,141221
424,296,150673,6,0,B|325:355|192:304,1,225
104,176,151600,1,0
184,176,151785,1,0
240,112,151971,1,0
296,48,152156,2,0,B|384:24|447:45|464:168,1,225
448,248,152897,2,0,B|421:336|373:367|240:336,1,225
280,264,153639,5,0
224,200,153824,2,0,B|164:140|72:184,1,150
8,288,154380,1,0
88,272,154565,1,0
168,256,154751,1,0
248,240,154936,1,0
328,224,155121,1,0
456,120,155492,1,0
376,96,155678,1,0
216,56,156048,1,0
160,160,156790,5,0
104,224,156975,1,0
144,296,157160,1,0
216,336,157346,1,0
296,336,157531,1,0
264,256,157716,5,0
232,184,157902,1,0
288,120,158087,1,0
288,40,158272,1,0
208,48,158458,5,0
128,72,158643,1,0
104,152,158828,1,0
176,192,159014,1,0
256,200,159199,1,0
336,208,159384,5,0
416,208,159570,1,0
456,280,159755,1,0
392,328,159940,1,0
312,336,160126,5,0
232,304,160311,1,0
232,224,160497,1,0
264,144,160682,1,0
288,64,160867,1,0
256,192,161238,12,4,162350
360,104,162721,1,0
288,72,162906,1,0
208,80,163091,1,0
136,120,163277,1,0
112,288,163647,1,0
176,232,163833,1,0
240,288,164018,1,0
312,288,164203,5,4
376,256,164389,1,4
336,192,164574,1,4
264,200,164759,1,4
192,176,164945,1,4
128,128,165130,1,4
184,80,165315,1,4
256,64,165501,1,4
264,272,165872,1,4
464,200,166242,5,0
280,112,166798,1,0
120,112,167169,1,0
56,264,167540,1,0
256,208,167910,1,0
336,224,168096,1,0
392,272,168281,1,0
328,328,168466,2,0,B|248:336|160:296,1,150
128,240,169022,1,0
104,96,169393,1,0
296,152,170134,5,0
424,256,170505,1,0
256,208,170876,1,0
176,224,171061,1,0
120,272,171247,1,0
176,336,171432,2,0,B|256:344|344:304,1,150
384,240,171988,1,0
408,96,172359,1,0
80,128,173100,6,0,B|152:72|248:128,1,150
184,176,173656,1,0
400,304,174212,1,0
256,248,174583,1,0
176,296,174768,1,0
88,64,175324,5,0
264,48,175695,1,0
384,136,176066,2,0,B|448:216|416:304|296:360|112:360|16:304,1,525
64,240,177548,1,0
120,176,177734,1,0
200,200,177919,1,0
280,224,178104,1,0
352,264,178290,6,0,B|296:312|208:272,2,150
368,88,179402,1,0
160,72,179772,1,0
304,144,180143,1,0
424,256,180514,5,0
336,232,180699,1,0
256,264,180884,1,0
184,304,181070,1,0
160,232,181255,1,0
256,120,181626,1,0
105,47,181997,5,0
56,206,182367,1,0
218,246,182738,1,0
360,184,183109,1,0
360,264,183294,1,0
200,304,183665,1,0
120,288,183850,1,0
72,128,184221,1,0
256,192,184962,12,4,189410
456,304,189966,2,0,B|368:355|323:359|225:296,1,225
208,168,190893,1,0
384,120,191264,1,0
264,72,191635,2,0,B|232:34|168:64,2,75
272,136,192191,2,0,B|264:232|368:248,1,150
432,280,192747,1,0
432,96,193117,1,0
184,224,193859,5,0
128,120,194229,1,0
248,72,194600,2,0,B|280:34|344:64,2,75
240,136,195156,2,0,B|248:232|144:248,1,150
80,280,195712,1,0
72,120,196083,2,0,B|108:31|200:56,1,150
288,184,196824,6,0,B|324:218|376:184,3,75
128,216,197936,1,0
200,256,198122,1,0
272,272,198307,1,0
352,272,198492,1,0
392,72,198863,5,0
296,152,199234,1,0
216,152,199419,1,0
256,192,199975,12,4,210169
