osu file format v5

[General]
AudioFilename: Battle Fontier.mp3
AudioLeadIn: 0
PreviewTime: -1
Countdown: 0
SampleSet: Normal
StackLeniency: 0.7
Mode: 0
LetterboxInBreaks: 1
EditorBookmarks: 11877,50488,75580,79145,150278

[Metadata]
Title:Battle Frontier
Artist:Akitomo Takaya
Creator:eirrol
Version:Easy
Source:
Tags:

[Difficulty]
HPDrainRate:0
CircleSize:4
OverallDifficulty:2
SliderMultiplier:1.3
SliderTickRate:2

[Events]
//Background and Video events
0,0,"pmsbg.JPG"
//Break Periods
2,35955,50162
2,74692,89734
2,141046,155346
//Storyboard Layer 0 (Background)
//Storyboard Layer 1 (Failing)
//Storyboard Layer 2 (Passing)
//Storyboard Layer 3 (Foreground)
//Storyboard Sound Samples
//Background Colour Transformations
3,100,239,239,255

[TimingPoints]
1100,370.690720375633,4,1,0,100

[Colours]
Combo1 : 128,255,0
Combo2 : 166,162,121
Combo3 : 255,128,64
Combo4 : 128,255,255
Combo5 : 255,128,128

[HitObjects]
256,56,12591,5,0
256,168,12962,1,0
80,288,13703,1,0
224,288,14259,2,0,B|290:261|376:296,2,130
160,224,15371,5,0
160,128,15742,1,0
240,72,16112,2,0,B|308:48|392:72,3,130
320,240,17966,1,4
88,288,18893,5,0
96,192,19263,1,0
96,88,19634,1,0
192,72,20005,1,0
296,72,20375,2,0,B|364:99|440:64,3,130
376,160,21858,1,0
376,256,22229,1,0
280,288,22600,5,0
200,248,22970,1,0
120,200,23341,2,0,B|73:126|104:72,2,130
256,320,24824,5,0
192,256,25194,1,0
272,216,25565,1,0
216,152,25936,1,0
264,80,26306,5,0
120,112,26863,1,0
64,184,27233,1,0
120,264,27604,1,0
168,264,27789,2,0,B|232:280|320:256,3,130
280,176,29272,1,0
136,176,29828,1,4
264,80,30384,5,0
360,72,30755,1,0
416,152,31125,1,0
456,240,31496,1,0
408,320,31867,1,0
320,280,32238,2,0,B|240:272|160:288,3,130
104,248,33720,1,0
104,160,34091,1,0
256,48,34832,5,0
256,184,35388,1,0
256,280,35759,1,4
256,72,51513,5,0
256,240,52255,1,0
120,280,52811,1,0
256,312,53367,1,4
352,312,53738,1,4
256,152,54479,5,0
64,160,55220,1,0
136,40,55776,1,0
192,168,56332,1,0
192,264,56703,1,0
256,80,57444,6,0,B|256:288,1,195
128,232,58557,1,0
200,184,58927,1,0
360,192,59669,5,0
424,272,60039,1,0
328,328,60410,2,4,B|48:328,1,260
64,152,61893,5,0
80,56,62263,1,0
160,104,62634,1,0
256,104,63005,1,0
256,200,63376,5,0
256,32,64117,1,0
360,128,64673,1,0
256,232,65229,1,0
168,184,65600,1,0
256,352,66341,5,0
256,160,67082,1,0
160,264,67638,1,0
304,272,68194,1,0
400,272,68565,1,0
256,144,69307,6,0,B|208:72|120:64|64:104,1,195
96,224,70419,1,0
184,248,70789,2,0,B|240:327|368:344,1,195
256,192,71901,12,4,74496
256,64,91178,5,0
320,128,91548,1,0
240,168,91919,1,0
296,232,92290,1,0
248,304,92660,5,0
392,272,93217,1,0
448,200,93587,1,0
392,120,93958,1,0
344,120,94143,2,0,B|280:104|192:128,3,130
232,208,95626,1,0
376,208,96182,1,4
152,312,97109,5,0
96,232,97479,1,0
56,144,97850,1,0
104,64,98221,1,0
192,104,98592,2,0,B|272:112|352:96,3,130
408,136,100074,1,0
408,224,100445,1,0
256,336,101186,5,0
256,200,101742,1,0
256,56,102298,1,4
120,80,103410,5,0
120,264,104152,1,0
224,176,104708,1,0
360,176,105264,1,0
400,264,105634,5,0
360,336,106005,1,0
288,296,106376,1,0
176,216,106932,1,0
72,128,107488,1,0
248,56,108229,1,0
344,64,108600,5,0
424,112,108970,1,0
448,208,109341,1,0
232,320,110268,5,0
176,240,110639,1,0
264,184,111009,1,0
200,104,111380,1,0
296,56,111751,1,0
256,192,112307,12,0,114160
160,104,114716,5,0
160,200,115087,1,0
296,152,115643,1,0
392,152,116014,1,0
392,248,116384,1,4
392,248,116570,1,4
296,248,116940,1,4
136,192,118238,5,0
304,192,118980,1,0
344,328,119536,1,0
376,192,120092,1,4
376,96,120463,1,4
216,192,121204,5,0
224,384,121945,1,0
104,312,122501,1,0
232,256,123057,1,0
328,256,123428,1,0
144,192,124169,6,0,B|352:192,1,195
296,320,125282,1,0
248,248,125652,1,0
256,88,126393,5,0
336,24,126764,1,0
392,120,127135,2,4,B|392:400,1,260
216,384,128618,5,0
120,368,128988,1,0
168,288,129359,1,0
168,192,129730,1,0
248,192,130101,5,0
416,192,130842,1,0
320,296,131398,1,0
216,192,131954,1,0
264,104,132325,1,0
96,192,133066,5,0
288,192,133807,1,0
184,96,134363,1,0
176,240,134919,1,0
176,336,135290,1,0
304,192,136032,6,0,B|376:144|384:56|344:0,1,195
224,32,137144,1,0
200,120,137514,2,0,B|121:176|104:304,1,195
256,192,138626,12,4,140850
256,192,156790,12,4,162350
80,144,162721,1,0
184,48,163277,1,0
320,144,164018,1,0
368,144,164203,5,4
376,240,164574,1,4
376,336,164945,1,4
280,336,165315,1,4
256,192,165872,1,4
216,104,166242,5,0
64,104,166798,1,0
64,200,167169,5,0
160,200,167540,1,0
256,192,167910,2,0,B|416:192,1,130
400,336,168837,1,0
352,336,169022,1,0
256,336,169393,1,4
80,288,170134,5,0
80,192,170505,1,0
80,96,170876,2,0,B|240:96,1,130
304,192,171803,1,0
400,280,172359,1,0
424,152,172915,1,0
392,120,173100,1,0
256,112,173656,5,0
120,104,174212,1,0
88,176,174583,1,0
240,56,175324,1,0
248,152,175695,1,0
336,216,176066,1,4
456,120,176622,1,4
336,320,177548,5,0
144,320,178290,1,0
64,256,178660,1,0
96,176,179031,6,4,B|144:128|240:176,3,130
168,248,180514,1,0
232,320,180884,1,0
272,224,181255,1,0
104,152,181997,5,0
192,112,182367,1,0
280,144,182738,1,0
312,248,183109,2,4,B|369:300|448:248,3,130
240,200,184962,6,0,B|195:84|240:32|400:80,1,260
360,168,186074,1,0
328,256,186445,5,0
144,264,187186,1,0
80,208,187557,1,0
256,192,187928,12,0,190152
344,192,190893,6,4,B|256:192,1,65
224,192,191264,2,4,B|136:192,1,65
112,200,191635,1,4
112,248,191820,1,4
152,264,192005,1,4
248,264,192376,1,0
296,264,192561,1,0
344,264,192747,1,0
440,264,193117,1,0
448,80,193859,5,0
384,144,194229,1,0
312,88,194600,1,4
280,120,194785,1,4
232,96,194971,1,4
184,96,195156,1,4
88,104,195527,1,0
48,136,195712,1,0
128,192,196083,1,0
256,344,196824,6,0,B|256:8,2,325
256,192,199048,12,4,202385
