osu file format v14

[General]
AudioFilename: TTT2 - Massive Mix.mp3
AudioLeadIn: 0
PreviewTime: 68342
Countdown: 0
SampleSet: Normal
StackLeniency: 0.7
Mode: 2
LetterboxInBreaks: 0
WidescreenStoryboard: 0

[Editor]
DistanceSpacing: 1
BeatDivisor: 4
GridSize: 8
TimelineZoom: 1

[Metadata]
Title:Tekken Tag Tournament Piano Intro -Massive Mix-
TitleUnicode:Tekken Tag Tournament Piano Intro -Massive Mix-
Artist:Akitaka Tohyama
ArtistUnicode:遠山明孝
Creator:Sey
Version:Platter
Source:Tekken Tag Tournament 2
Tags:TTT2 鉄拳タッグトーナメント Soundtrack OST Breakbeat Trance Playstation XBox bandai namco
BeatmapID:502225
BeatmapSetID:213656

[Difficulty]
HPDrainRate:6
CircleSize:3.5
OverallDifficulty:8
ApproachRate:8
SliderMultiplier:1.30000000596046
SliderTickRate:1

[Events]
//Background and Video events
0,0,"wallpaper.jpg",0,0
//Break Periods
2,36827,41877
//Storyboard Layer 0 (Background)
//Storyboard Layer 1 (Fail)
//Storyboard Layer 2 (Pass)
//Storyboard Layer 3 (Foreground)
//Storyboard Sound Samples

[TimingPoints]
8342,428.571428571429,4,2,0,60,1,0
13484,-100,4,1,0,65,0,0
28913,-100,4,1,0,40,0,0
29770,-100,4,1,0,65,0,0
43484,-100,4,1,0,70,0,0
57199,-100,4,2,0,55,0,0
66627,-100,4,1,0,57,0,0
67484,-100,4,2,0,57,0,0
68342,-100,4,1,0,70,0,1
73484,-100,4,1,0,65,0,1
75199,-100,4,1,0,70,0,1
80342,-100,4,1,0,65,0,0
82056,-100,4,1,0,70,0,1
87199,-100,4,1,0,65,0,1
88913,-100,4,1,0,70,0,1
94056,-100,4,1,0,65,0,0
95770,-100,4,1,0,70,0,1
99199,-100,4,1,0,50,0,0
100913,-100,4,1,0,45,0,0
101342,-100,4,1,0,40,0,0
101770,-100,4,1,0,35,0,0
102199,-100,4,1,0,30,0,0
102627,-100,4,1,0,25,0,0
103056,-100,4,1,0,20,0,0
103484,-100,4,1,0,15,0,0
103913,-100,4,1,0,10,0,0
104342,-100,4,2,0,5,0,0

[Colours]
Combo1 : 192,192,192
Combo2 : 255,0,0
Combo3 : 128,128,128
Combo4 : 255,128,128

[HitObjects]
120,192,8341,6,0,P|68:116|80:72,1,130.000000596046,0|0,0:0|0:0,0:0:0:0:
336,192,9199,2,0,P|331:254|272:304,1,130.000000596046,0|0,0:0|0:0,0:0:0:0:
176,192,9842,1,2,0:0:0:0:
336,208,10056,6,0,P|388:128|368:88,1,130.000000596046,2|0,0:0|0:0,0:0:0:0:
184,192,10914,2,0,P|180:254|224:304,1,130.000000596046,0|0,0:0|0:0,0:0:0:0:
336,192,11557,1,2,0:0:0:0:
168,96,11770,6,0,L|298:96,1,130.000000596046,2|0,0:0|0:0,0:0:0:0:
432,96,12627,2,0,L|336:192,1,130.000000596046,0|0,0:0|0:0,0:0:0:0:
240,192,13270,1,2,0:0:0:0:
136,192,13484,5,8,0:0:0:0:
336,192,13699,1,0,0:0:0:0:
296,192,13806,1,8,0:0:0:0:
112,96,14020,1,0,0:0:0:0:
152,96,14127,1,8,0:0:0:0:
320,112,14342,5,8,0:0:0:0:
376,112,14449,1,0,0:0:0:0:
424,112,14556,1,0,0:0:0:0:
376,112,14663,1,8,0:0:0:0:
320,112,14770,1,0,0:0:0:0:
376,112,14877,1,0,0:0:0:0:
424,144,14984,1,0,0:0:0:0:
304,144,15092,1,0,0:0:0:0:
192,138,15199,6,0,L|144:96,2,65.000000298023,12|0|2,0:0|0:0|0:0,0:0:0:0:
360,58,16056,6,0,L|328:64,2,32.5000001490115,8|0|0,0:0|0:0|0:0,0:0:0:0:
464,72,16377,2,0,L|504:56,2,32.5000001490115,2|0|0,0:0|0:0|0:0,0:0:0:0:
320,138,16913,6,0,L|368:96,2,65.000000298023,8|0|2,0:0|0:0|0:0,0:0:0:0:
152,58,17770,6,0,L|184:64,2,32.5000001490115,8|0|0,0:0|0:0|0:0,0:0:0:0:
48,72,18091,2,0,L|8:56,2,32.5000001490115,8|0|0,0:0|0:0|0:0,0:0:0:0:
352,128,18627,6,0,P|288:184|232:184,2,130.000000596046,12|0|8,0:0|0:0|0:0,0:0:0:0:
440,128,19592,1,0,0:0:0:0:
384,128,19699,1,0,0:0:0:0:
231,184,19913,2,0,L|296:184,2,65.000000298023,2|0|8,0:0|0:0|0:0,0:0:0:0:
304,96,20556,5,0,0:0:0:0:
408,96,20770,1,2,0:0:0:0:
272,96,20984,1,0,0:0:0:0:
424,208,21199,2,0,L|363:183,1,65.000000298023,8|0,0:0|0:0,0:0:0:0:
280,176,21520,2,0,L|216:96,1,97.5000004470345,0|0,0:0|0:0,0:0:0:0:
56,152,22056,6,0,L|136:120,1,65.000000298023,12|0,0:0|0:0,0:0:0:0:
296,96,22484,2,0,L|224:80,1,65.000000298023,8|0,0:0|0:0,0:0:0:0:
417,171,22913,2,0,L|448:184,2,32.5000001490115,2|0|0,0:0|0:0|0:0,0:0:0:0:
312,88,23342,2,0,P|272:160|304:208,1,130.000000596046,8|8,0:0|0:0,0:0:0:0:
88,136,23984,5,0,0:0:0:0:
216,96,24199,2,0,L|288:80,1,65.000000298023,8|0,0:0|0:0,0:0:0:0:
94,171,24628,2,0,L|64:184,2,32.5000001490115,2|0|0,0:0|0:0|0:0,0:0:0:0:
200,88,25056,2,0,P|240:160|208:208,1,130.000000596046,8|6,0:0|0:0,0:0:0:0:
384,160,25913,6,0,P|344:232|264:240,1,162.500000745057,0|0,0:0|0:0,0:0:0:0:
352,232,26556,1,0,0:0:0:0:
160,168,26770,6,0,P|120:240|64:248,1,130.000000596046,2|0,0:0|0:0,0:0:0:0:
200,152,27413,2,0,L|128:112,2,65.000000298023,2|0|8,0:0|0:0|0:0,0:0:0:0:
328,136,28056,2,0,L|392:120,1,65.000000298023,2|0,0:0|0:0,0:0:0:0:
504,128,28484,1,8,0:0:0:0:
232,216,28913,6,0,B|160:176|160:176|104:192|104:192|64:168|64:168|144:168,1,260.000001192092,0|6,0:0|0:0,0:0:0:0:
424,152,30199,5,8,0:0:0:0:
208,144,30627,2,0,L|160:136,2,32.5000001490115,0|0|0,0:0|0:0|0:0,0:0:0:0:
344,104,31056,2,0,L|416:72,1,65.000000298023,0|0,0:0|0:0,0:0:0:0:
184,144,31484,2,0,L|120:158,1,65.000000298023,8|0,0:0|0:0,0:0:0:0:
368,96,31913,6,0,L|427:69,1,65.000000298023,8|0,0:0|2:2,0:0:0:0:
144,96,32342,2,0,L|84:69,1,65.000000298023,8|2,0:0|2:0,0:0:0:0:
200,96,32663,1,8,0:0:0:0:
312,96,32770,1,0,0:0:0:0:
184,56,32984,2,0,L|224:40,1,32.5000001490115,0|0,0:0|0:0,0:0:0:0:
335,64,33199,6,0,P|374:114|360:176,1,130.000000596046,12|2,0:0|0:0,0:0:0:0:
102,171,34056,2,0,L|72:184,2,32.5000001490115,8|0|0,0:0|0:0|0:0,0:0:0:0:
208,136,34484,1,2,0:0:0:0:
328,128,34592,2,0,L|368:112,2,32.5000001490115,0|0|0,0:0|0:0|0:0,0:0:0:0:
456,152,34913,6,0,P|416:224|400:288,1,130.000000596046,8|8,0:0|0:0,0:0:0:0:
344,144,35556,1,0,0:0:0:0:
208,160,35770,2,0,L|232:88,1,65.000000298023,0|8,0:0|0:0,0:0:0:0:
112,160,36092,2,0,L|91:221,1,65.000000298023
256,160,36520,2,0,L|264:120,1,32.5000001490115,0|2,0:0|2:0,0:0:0:0:
152,192,42627,5,8,0:0:0:0:
216,192,42734,1,0,0:0:0:0:
280,192,42842,1,0,0:0:0:0:
336,192,42949,1,0,0:0:0:0:
280,120,43056,1,8,0:0:0:0:
216,112,43163,1,0,0:0:0:0:
128,112,43270,1,0,0:0:0:0:
216,112,43377,1,0,0:0:0:0:
328,112,43484,1,12,0:0:0:0:
168,112,43699,6,0,L|120:56,1,65.000000298023,2|8,0:0|0:0,0:0:0:0:
216,112,44020,2,0,L|200:40,1,65.000000298023,2|0,0:0|0:0,0:0:0:0:
312,64,44342,2,0,L|344:56,2,32.5000001490115,10|0|0,0:0|0:0|0:0,0:0:0:0:
128,136,44770,6,0,L|64:128,2,65.000000298023,0|0|0,0:0|0:0|0:0,0:0:0:0:
266,178,45413,2,0,L|208:208,1,65.000000298023,2|8,0:0|0:0,0:0:0:0:
336,152,45734,2,0,L|288:144,1,32.5000001490115,0|0,0:0|0:0,0:0:0:0:
197,162,46056,6,0,L|256:192,1,65.000000298023,8|0,0:0|0:0,0:0:0:0:
136,192,46377,2,0,L|184:184,1,32.5000001490115
256,192,46699,1,2,0:0:0:0:
384,192,46806,2,0,L|432:160,1,32.5000001490115,0|12,0:0|0:0,0:0:0:0:
256,192,47127,6,0,L|192:160,1,65.000000298023,0|0,0:0|0:0,0:0:0:0:
352,168,47556,2,0,L|293:197,1,65.000000298023,8|0,0:0|0:0,0:0:0:0:
428,210,47877,2,0,L|448:184,1,32.5000001490115
144,192,48199,1,0,0:0:0:0:
352,64,48627,6,0,P|400:128|368:176,1,130.000000596046,8|8,0:0|0:0,0:0:0:0:
144,192,49270,1,0,0:0:0:0:
96,192,49484,5,0,0:0:0:0:
312,192,49699,1,0,0:0:0:0:
368,192,49806,1,0,0:0:0:0:
312,192,49913,1,8,0:0:0:0:
216,192,50127,1,0,0:0:0:0:
112,192,50234,1,0,0:0:0:0:
216,192,50342,5,12,0:0:0:0:
368,192,50556,2,0,P|400:152|400:112,1,65.000000298023,2|8,0:0|0:0,0:0:0:0:
277,75,50877,2,0,P|288:106|312:128,1,65.000000298023,2|0,0:0|0:0,0:0:0:0:
200,80,51199,2,0,P|189:110|165:132,1,65.000000298023,10|0,0:0|0:0,0:0:0:0:
64,120,51627,2,0,P|87:98|98:67,1,65.000000298023,0|0,0:0|0:0,0:0:0:0:
200,80,52056,5,10,0:0:0:0:
144,192,52270,2,0,P|112:152|112:112,1,65.000000298023,0|8,0:0|0:0,0:0:0:0:
200,128,52591,2,0,P|232:88|232:48,1,65.000000298023,0|0,0:0|0:0,0:0:0:0:
312,80,52913,2,0,P|323:110|347:132,1,65.000000298023,8|0,0:0|0:0,0:0:0:0:
448,120,53341,2,0,P|425:98|414:67,1,65.000000298023,0|0,0:0|0:0,0:0:0:0:
120,128,53770,5,4,0:0:0:0:
448,192,54199,2,0,L|320:144,1,130.000000596046,8|0,0:0|0:0,0:0:0:0:
272,176,54734,2,0,L|312:160,1,32.5000001490115,0|0,0:0|0:0,0:0:0:0:
112,224,55056,2,0,P|72:160|112:96,1,130.000000596046,8|2,0:0|0:0,0:0:0:0:
328,176,55913,5,8,0:0:0:0:
432,120,56127,1,0,0:0:0:0:
152,96,56342,2,0,L|104:88,2,32.5000001490115,8|0|2,0:0|0:0|0:0,0:0:0:0:
432,200,56770,1,8,0:0:0:0:
256,192,57199,5,0,0:0:0:0:
96,192,57627,1,0,0:0:0:0:
392,192,58056,2,0,P|336:128|288:112,1,130.000000596046,2|0,0:0|0:0,0:0:0:0:
416,192,58913,5,2,0:0:0:0:
120,192,59342,2,0,P|176:128|224:112,1,130.000000596046,0|2,0:0|0:0,0:0:0:0:
336,144,60199,1,0,0:0:0:0:
88,192,60627,6,0,P|120:120|88:80,1,130.000000596046,2|0,0:0|0:0,0:0:0:0:
256,128,61484,1,2,0:0:0:0:
424,192,61913,2,0,P|392:120|424:64,1,130.000000596046,0|2,0:0|0:0,0:0:0:0:
128,192,62770,6,0,L|32:296,2,130.000000596046,0|2|0,0:0|0:0|0:0,0:0:0:0:
256,192,64056,12,0,66199,0:0:0:0:
368,160,66627,6,0,L|416:96,1,65.000000298023,8|0,0:0|0:0,0:0:0:0:
280,128,66949,2,0,L|248:184,1,65.000000298023,8|0,0:0|0:0,0:0:0:0:
104,192,67270,1,8,0:0:0:0:
392,184,67913,2,0,L|456:152,1,65.000000298023,8|0,0:0|0:0,0:0:0:0:
432,152,68234,1,0,0:0:0:0:
256,144,68342,6,0,L|136:96,1,130.000000596046,6|8,0:0|0:0,0:0:0:0:
184,120,68984,2,0,L|104:96,2,65.000000298023
368,120,69627,1,8,0:0:0:0:
160,192,70056,5,8,0:0:0:0:
64,192,70270,1,0,0:0:0:0:
192,192,70484,1,8,0:0:0:0:
336,192,70699,2,0,L|368:192,1,32.5000001490115,0|0,0:0|0:0,0:0:0:0:
240,136,70913,2,0,P|200:80|248:32,1,130.000000596046,2|8,2:0|0:0,0:0:0:0:
400,144,71770,6,0,P|430:197|390:243,1,130.000000596046,2|8,2:0|0:0,0:0:0:0:
200,224,72413,2,0,P|160:168|208:120,1,130.000000596046,2|0,2:0|0:0,0:0:0:0:
344,176,73056,1,8,0:0:0:0:
400,176,73163,1,0,0:0:0:0:
344,176,73270,1,0,0:0:0:0:
400,176,73377,1,0,0:0:0:0:
480,176,73484,5,2,2:0:0:0:
344,176,73699,1,0,0:0:0:0:
208,176,73913,1,8,0:0:0:0:
32,176,74234,1,8,0:0:0:0:
176,112,74556,2,0,L|240:72,1,65.000000298023,2|0,2:0|0:0,0:0:0:0:
440,184,74984,1,0,0:0:0:0:
216,192,75199,6,0,B|144:152|112:104,1,130.000000596046,4|0,0:0|2:0,0:0:0:0:
302,183,75842,2,0,L|273:171,2,32.5000001490115,0|0|0,0:0|0:0|0:0,0:0:0:0:
424,176,76163,2,0,L|448:136,1,32.5000001490115,0|0,0:0|0:0,0:0:0:0:
256,184,76484,1,0,0:0:0:0:
80,192,76913,6,0,L|152:168,1,65.000000298023,2|0,2:0|2:0,0:0:0:0:
296,184,77342,2,0,L|256:168,2,32.5000001490115,8|0|0,0:0|0:0|0:0,0:0:0:0:
424,176,77663,2,0,L|448:136,1,32.5000001490115,0|2,0:0|2:0,0:0:0:0:
256,184,77984,1,0,0:0:0:0:
80,192,78199,1,8,0:0:0:0:
176,56,78627,6,0,P|208:120|176:168,1,130.000000596046,2|8,2:0|0:0,0:0:0:0:
496,192,79270,2,0,L|447:234,1,65.000000298023,2|0,2:0|2:0,0:0:0:0:
336,192,79699,1,0,0:0:0:0:
128,192,79913,2,0,L|272:152,1,130.000000596046,8|0,0:0|0:0,0:0:0:0:
368,80,80556,6,0,L|296:72,1,65.000000298023,0|2,0:0|2:0,0:0:0:0:
200,80,80984,2,0,L|248:72,1,32.5000001490115,0|8,0:0|0:0,0:0:0:0:
376,192,81306,2,0,L|328:184,1,32.5000001490115,0|8,0:0|0:0,0:0:0:0:
126,107,81627,2,0,L|184:136,1,65.000000298023,8|0,0:0|0:0,0:0:0:0:
208,144,81948,1,0,0:0:0:0:
256,144,82056,6,0,L|376:96,1,130.000000596046,6|8,0:0|0:0,0:0:0:0:
328,120,82698,2,0,L|408:96,2,65.000000298023,0|0|0,0:0|0:0|0:0,0:0:0:0:
168,112,83342,1,8,0:0:0:0:
400,192,83770,6,0,L|448:128,1,65.000000298023,2|0,2:0|0:0,0:0:0:0:
112,64,84199,1,8,0:0:0:0:
157,107,84627,6,0,L|256:192,1,130.000000596046,2|8,2:0|0:0,0:0:0:0:
392,192,85270,1,0,0:0:0:0:
104,216,85484,6,0,P|96:151|127:83,1,130.000000596046,2|8,2:0|0:0,0:0:0:0:
336,192,86127,2,0,P|360:248|368:320,1,130.000000596046,2|0,2:0|0:0,0:0:0:0:
160,192,86770,1,8,0:0:0:0:
264,192,86984,1,0,2:0:0:0:
464,200,87199,6,0,P|440:256|440:280,1,65.000000298023,8|0,0:0|0:0,0:0:0:0:
256,192,87627,1,8,0:0:0:0:
104,112,87949,2,0,L|208:88,1,97.5000004470345,0|2,0:0|2:0,0:0:0:0:
344,112,88484,1,8,0:0:0:0:
448,112,88699,1,0,0:0:0:0:
152,96,88913,6,0,P|201:66|225:119,1,130.000000596046,6|8,2:0|0:0,0:0:0:0:
40,176,89556,2,0,L|112:184,1,65.000000298023,0|8,0:0|0:0,0:0:0:0:
312,200,89984,2,0,L|247:192,1,65.000000298023,0|8,0:0|0:0,0:0:0:0:
104,184,90413,1,0,0:0:0:0:
424,136,90627,6,0,P|368:88|352:128,1,130.000000596046,2|8,2:0|0:0,0:0:0:0:
424,136,91270,1,0,0:0:0:0:
264,112,91484,2,0,P|208:64|192:104,1,130.000000596046,2|8,2:0|0:0,0:0:0:0:
264,112,92127,1,0,0:0:0:0:
92,224,92342,6,0,P|141:194|164:246,1,130.000000596046,2|8,2:0|0:0,0:0:0:0:
408,136,92984,2,0,P|352:88|336:128,1,130.000000596046,2|0,2:0|0:0,0:0:0:0:
56,192,93627,1,8,0:0:0:0:
184,192,93842,1,0,0:0:0:0:
312,192,94056,5,2,2:0:0:0:
440,192,94270,1,8,0:0:0:0:
312,192,94484,1,8,0:0:0:0:
184,152,94699,2,0,L|224:128,1,32.5000001490115,0|2,0:0|2:0,0:0:0:0:
80,104,95020,2,0,L|52:120,1,32.5000001490115,0|2,0:0|2:0,0:0:0:0:
328,112,95342,2,0,L|272:72,1,65.000000298023,8|0,0:0|0:0,0:0:0:0:
416,104,95770,6,0,L|336:80,2,65.000000298023,6|2|8,2:0|2:0|0:0,0:0:0:0:
96,104,96627,2,0,L|176:80,2,65.000000298023,8|0|8,0:0|0:0|0:0,0:0:0:0:
456,104,97484,6,0,L|368:88,1,65.000000298023,2|0,2:0|0:0,0:0:0:0:
272,240,97913,2,0,L|304:208,1,32.5000001490115,8|0,0:0|0:0,0:0:0:0:
78,131,98234,2,0,L|48:144,1,32.5000001490115,0|0,0:0|0:0,0:0:0:0:
376,136,98556,2,0,L|416:136,2,32.5000001490115,2|0|0,2:0|0:0|0:0,0:0:0:0:
304,136,98877,2,0,L|344:136,1,32.5000001490115,0|0,0:0|0:0,0:0:0:0:
48,144,99199,5,0,0:0:0:0:
400,160,99842,1,0,0:0:0:0:
88,264,100484,1,2,0:0:0:0:
256,192,100913,12,2,104342,2:0:0:0:
