osu file format v9

[General]
AudioFilename: Gotya Gotya Uruse!.mp3
AudioLeadIn: 0
PreviewTime: 44660
Countdown: 0
SampleSet: Soft
StackLeniency: 0.3
Mode: 0
LetterboxInBreaks: 0

[Editor]
Bookmarks: 9888,18615,27342,44797,62251,70979,79706,97160,105888,114615,132070
DistanceSpacing: 1.2
BeatDivisor: 4
GridSize: 8

[Metadata]
Title:Gotya Gotya Uruse~!
Artist:Akita Neru
Creator:Mafiamaster
Version:Insane
Source:owatap
Tags:Vocaloid Hatsune Miku Vicho-kun Sanjenin Nagi -U Kite

[Difficulty]
HPDrainRate:6
CircleSize:4
OverallDifficulty:7
ApproachRate:9
SliderMultiplier:1.28
SliderTickRate:1

[Events]
//Background and Video events
0,0,"BG.png"
//Break Periods
2,71178,79106
2,106088,114015
//Storyboard Layer 0 (Background)
//Storyboard Layer 1 (Fail)
//Storyboard Layer 2 (Pass)
//Storyboard Layer 3 (Foreground)
//Storyboard Sound Samples
//Background Colour Transformations
3,100,0,0,0

[TimingPoints]
70,272.727272727273,4,2,0,100,1,0
18479,-100,4,2,0,50,0,0
19570,-100,4,2,0,60,0,0
20660,-100,4,2,0,70,0,0
21751,-100,4,2,0,80,0,0
22842,-100,4,2,0,90,0,0
25092,-100,4,2,0,100,0,0
52910,-142.857142857143,4,2,0,100,0,0
53729,-100,4,2,0,100,0,0
62115,-100,4,2,0,50,0,0
63206,-100,4,2,0,60,0,0
64297,-100,4,2,0,70,0,0
65388,-100,4,2,0,80,0,0
66479,-100,4,2,0,90,0,0
68729,-100,4,2,0,100,0,0
97024,-142.857142857143,4,2,0,100,0,0
114479,-100,4,2,0,100,0,0
122729,-142.857142857143,4,2,0,100,0,0
123547,-100,4,2,0,100,0,0

[HitObjects]
200,192,9888,1,0
200,192,10024,1,2
88,304,10297,1,0
24,264,10433,1,2
0,192,10569,1,0
24,120,10706,1,2
88,80,10842,1,0
120,232,11115,6,0,B|184:280,1,64,0|2
120,152,11388,2,0,B|184:104,1,64,0|0
24,120,11660,1,0
0,192,11797,1,2
24,264,11933,1,0
160,192,12206,5,2
352,192,12479,1,0
336,272,12615,1,2
296,344,12751,1,0
216,344,12888,1,2
176,272,13024,1,0
160,192,13160,1,0
184,112,13297,1,0
256,152,13433,1,2
328,112,13569,1,0
256,32,13706,5,4
256,32,13979,1,4
312,192,14251,5,0
312,192,14388,1,2
424,304,14660,1,0
488,264,14797,1,2
512,192,14933,1,0
488,120,15069,1,2
424,80,15206,1,0
392,232,15479,6,0,B|328:280,1,64,0|2
392,152,15751,2,0,B|328:104,1,64
488,120,16024,1,0
512,192,16160,1,2
488,264,16297,1,0
352,192,16569,5,2
160,192,16842,1,0
176,112,16978,1,2
216,40,17114,1,0
296,40,17251,1,2
336,112,17387,1,0
352,192,17523,1,0
328,272,17660,1,0
256,232,17796,1,2
184,272,17932,1,0
256,352,18069,5,4
256,352,18342,1,4
112,288,18615,6,0,B|48:272,1,64,0|2
112,192,18888,2,0,B|40:192,1,64,0|2
112,96,19160,2,0,B|48:112,2,64,0|0|2
400,96,19706,6,0,B|464:112,1,64,0|2
400,192,19979,2,0,B|472:192,1,64,0|2
400,288,20251,2,0,B|464:272,2,64,0|0|2
256,352,20797,5,0
192,312,20933,1,2
192,232,21069,1,0
256,192,21206,1,2
320,152,21342,1,0
320,72,21479,1,0
256,32,21615,1,2
256,32,21888,5,0
192,72,22024,1,2
192,152,22160,1,0
256,192,22297,1,2
320,232,22433,1,0
320,312,22569,1,0
256,352,22706,1,2
104,352,22979,5,0
40,312,23115,1,2
104,272,23251,1,8
168,232,23388,1,0
168,312,23524,1,2
104,272,23660,1,0
40,232,23797,1,8
104,192,23933,1,2
168,232,24069,6,0,B|200:176,1,64,0|2
40,232,24342,2,0,B|8:176,1,64,8|0
64,120,24615,2,0,B|48:48,1,64,2|0
144,120,24888,2,0,B|160:48,1,64,8|0
408,32,25160,5,0
472,72,25297,1,2
408,112,25433,1,8
344,152,25569,1,0
344,72,25706,1,2
408,112,25842,1,0
472,152,25979,1,8
408,192,26115,1,2
344,152,26251,6,0,B|312:208,1,64,0|2
472,152,26524,2,0,B|504:208,1,64,8|0
448,264,26797,2,0,B|464:336,1,64,2|0
368,264,27069,2,0,B|352:336,1,64,8|2
256,384,27342,5,4
216,320,27479,2,0,B|224:288|256:272|256:272|288:288|296:320,2,128,0|0|0
176,384,28160,2,0,B|112:384,1,64,8|0
152,248,28433,6,0,B|96:192,1,64,0|2
256,144,28706,2,0,B|256:64,2,64,8|2|0
405,202,29115,2,0,B|360:248,1,64,2|8
296,296,29388,5,0
216,296,29524,2,0,B|216:232,1,64
296,296,29797,2,0,B|296:232,1,64,8|0
184,160,30069,1,0
256,144,30206,1,0
328,160,30342,1,8
296,232,30479,1,0
216,232,30615,6,0,B|216:304,1,64,0|2
376,296,30888,2,0,B|376:232,1,64,8|2
136,232,31160,2,0,B|136:296,1,64,0|2
296,296,31433,2,0,B|296:232,1,64,8|0
328,160,31706,6,0,B|272:104|328:48,1,128,0|8
256,16,32115,1,0
184,48,32251,2,0,B|240:104|184:159,1,128,0|8
256,192,32660,1,0
192,240,32797,6,0,B|160:296,1,64,0|2
320,240,33069,2,0,B|352:296,1,64,8|2
256,272,33342,2,0,B|256:344,2,64,0|2|8
256,192,33751,1,0
256,112,33888,5,0
184,144,34024,1,0
256,96,34160,1,8
328,144,34297,1,0
256,80,34433,1,0
184,144,34569,5,0
328,144,34706,1,8
256,64,34842,1,0
184,32,34979,6,0,B|112:72,1,64,0|2
256,112,35251,2,0,B|256:176,1,64,8|2
328,32,35524,2,0,B|400:72,2,64,0|2|8
256,64,35933,1,0
328,144,36070,5,0
328,224,36206,1,0
256,256,36342,2,0,B|256:320,2,64,8|0|0
184,224,36751,1,0
184,144,36888,1,8
256,176,37024,1,0
184,288,37160,5,0
176,368,37297,1,2
256,384,37433,2,0,B|256:312,2,64,8|2|0
336,368,37842,1,2
328,288,37979,1,8
352,216,38115,1,0
312,152,38251,6,0,B|256:96|201:152,1,128,0|8
160,216,38660,1,0
184,288,38797,1,0
160,360,38933,1,0
80,360,39070,1,8
56,288,39206,1,0
80,216,39342,6,0,B|16:216,1,64,0|2
80,136,39615,2,0,B|80:72,1,64,8|2
160,136,39888,2,0,B|224:136,1,64,0|2
160,216,40160,2,0,B|160:288,1,64,8|0
160,360,40433,5,0
208,296,40570,1,0
256,360,40706,1,8
304,296,40842,1,0
352,360,40979,5,0
160,360,41251,1,8
160,216,41524,6,0,B|232:192,1,64,0|2
352,216,41797,2,0,B|280:192,1,64,8|2
320,128,42070,1,0
256,88,42206,1,2
192,128,42342,1,8
256,88,42479,1,0
320,128,42615,6,0,B|392:152,1,64
352,56,42888,1,8
296,0,43024,1,0
216,0,43160,1,0
160,56,43297,1,0
192,128,43433,2,0,B|120:152,1,64,8|0
192,264,43706,5,0
144,320,43842,1,2
192,384,43979,1,8
256,344,44115,1,2
320,384,44251,1,0
368,320,44388,1,2
320,264,44524,1,8
192,264,44797,5,4
216,192,44933,2,0,B|224:160|256:144|256:144|288:160|296:192,1,128,0|0
320,264,45342,2,0,B|408:232,1,64,2|0
192,264,45615,2,0,B|104:232,1,64,8|2
184,128,45888,2,0,B|176:80|240:72,1,64,2|0
328,128,46160,2,0,B|336:80|272:72,1,64,8|2
218,304,46433,6,0,B|162:248|218:192,1,128,2|8
294,192,46842,2,0,B|349:247|293:303,1,128,0|0
304,376,47251,2,0,B|384:368,1,64,8|0
208,376,47524,2,0,B|128:368,1,64,2|0
104,304,47797,5,8
144,240,47933,1,2
216,216,48070,1,2
296,216,48206,1,0
368,240,48342,1,8
408,304,48479,1,2
312,336,48615,6,0,B|256:392|200:336,1,128,2|8
256,280,49024,2,0,B|256:152,1,128,0|0
184,136,49433,2,0,B|160:216,1,64,8|0
256,152,49706,2,0,B|256:80,1,64,2|0
328,136,49979,2,0,B|352:216,1,64,8|2
368,272,50251,6,0,B|336:304|360:344,1,64,2|0
144,272,50524,2,0,B|176:304|152:344,1,64,8|2
184,216,50797,2,0,B|216:208|232:176|232:176|216:144|184:136,1,128,2|8
327,136,51206,2,0,B|296:144|280:176|280:176|296:208|328:216,1,128
256,96,51615,5,8
184,88,51751,1,0
136,144,51888,1,2
136,224,52024,1,0
184,280,52160,1,8
256,272,52297,1,2
328,280,52433,1,2
376,224,52570,1,0
376,144,52706,1,8
328,88,52842,1,2
256,96,52979,6,0,B|256:192,1,89.5999978637696,2|8
256,185,53388,2,0,B|256:280,1,89.5999978637696
256,352,53797,1,8
192,312,53933,1,0
320,312,54070,1,2
360,376,54206,5,0
320,312,54342,1,8
256,352,54479,1,2
192,312,54615,1,2
152,376,54751,1,0
256,272,54888,5,8
256,192,55024,1,2
312,128,55160,2,0,B|256:72|200:128,1,128,2|8
192,208,55570,6,0,B|320:208,1,128
296,136,55979,2,0,B|376:136,1,64,8|0
216,136,56251,2,0,B|136:136,1,64,2|0
152,272,56524,2,0,B|216:272,1,64,8|2
360,272,56797,2,0,B|296:272,1,64,2|0
192,344,57070,1,8
256,384,57206,1,2
320,344,57342,1,2
400,144,57751,6,0,B|384:66|309:74,1,128,0|0
256,136,58160,2,0,B|256:208,1,64,8|0
202,74,58432,2,0,B|127:66|112:144,1,128,2|8
144,296,58979,1,2
184,360,59115,1,0
256,384,59251,1,8
328,360,59388,1,2
376,296,59524,1,2
112,144,60070,5,0
192,144,60206,1,0
256,192,60342,2,0,B|256:272,1,64,8|0
320,144,60615,1,0
400,144,60751,1,0
360,72,60888,5,8
256,56,61024,1,0
152,72,61160,1,2
256,288,61433,1,0
360,72,61706,1,6
400,96,62251,6,0,B|464:112,1,64,0|2
400,192,62524,2,0,B|472:192,1,64,0|2
400,288,62797,2,0,B|464:272,2,64,0|0|2
112,288,63342,6,0,B|48:272,1,64,0|2
112,192,63615,2,0,B|40:192,1,64,0|2
112,96,63888,2,0,B|48:112,2,64,0|0|2
256,32,64433,5,0
320,72,64570,1,2
320,152,64706,1,0
256,192,64842,1,2
192,232,64979,1,0
192,312,65115,1,0
256,352,65251,1,2
256,32,65524,5,0
192,72,65660,1,2
192,152,65797,1,0
256,192,65933,1,2
320,232,66070,1,0
320,312,66206,1,0
256,352,66342,1,2
408,32,66615,5,0
472,72,66751,1,2
408,112,66888,1,8
344,152,67024,1,0
344,72,67160,1,2
408,112,67297,1,0
472,152,67433,1,8
408,192,67570,1,2
344,152,67706,6,0,B|312:208,1,64,0|2
472,152,67979,2,0,B|504:208,1,64,8|0
368,264,68251,2,0,B|352:336,1,64,2|0
448,264,68524,2,0,B|464:336,1,64,8|0
104,352,68797,5,0
40,312,68933,1,2
104,272,69070,1,8
168,232,69206,1,0
168,312,69342,1,2
104,272,69479,1,0
40,232,69615,1,8
104,192,69751,1,2
168,232,69888,6,0,B|200:176,1,64,0|2
40,232,70160,2,0,B|8:176,1,64,8|0
144,120,70433,2,0,B|160:48,1,64,2|0
64,120,70706,2,0,B|48:48,2,64,8|2|4
320,64,79706,6,0,B|384:48,2,64,0|0|8
256,16,80115,1,0
192,64,80251,2,0,B|128:48,2,64,0|0|8
256,112,80660,1,0
200,168,80797,6,0,B|168:224,1,64,0|2
312,168,81069,2,0,B|344:224,1,64,8|2
256,216,81342,2,0,B|256:152,2,64,0|2|8
256,296,81751,1,0
192,336,81888,5,0
256,376,82024,1,0
320,336,82160,1,8
256,376,82297,1,0
192,336,82433,1,0
192,256,82569,1,0
256,216,82706,1,8
320,256,82842,1,0
384,296,82979,6,0,B|440:248,1,64,0|2
256,216,83251,2,0,B|256:152,1,64,8|2
128,296,83524,2,0,B|72:248,2,64,0|2|8
256,296,83933,1,0
192,256,84070,5,0
184,176,84206,1,0
256,216,84342,2,0,B|256:152,2,64,8|0|0
320,256,84751,1,0
328,176,84887,1,8
256,152,85024,1,0
320,96,85160,5,0
336,16,85297,1,2
256,8,85433,2,0,B|256:80,2,64,8|2|0
176,16,85842,1,2
192,96,85979,1,8
184,176,86115,1,0
112,144,86251,5,0
104,224,86388,1,0
176,256,86524,1,8
184,336,86660,1,0
256,296,86797,1,0
328,336,86933,1,0
336,256,87070,1,8
408,224,87206,1,0
400,144,87342,6,0,B|384:64,1,64,0|2
320,120,87615,2,0,B|288:48,1,64,8|2
192,120,87888,2,0,B|224:48,1,64,0|2
112,144,88160,2,0,B|128:64,1,64,8|0
256,168,88433,6,0,B|256:240,2,64,0|0|8
192,312,88979,2,0,B|224:384,1,64
294,370,89251,2,0,B|320:312,1,64,8|0
336,232,89524,5,0
328,152,89660,1,2
296,80,89797,1,8
216,80,89933,1,2
184,152,90070,1,0
176,232,90206,1,2
256,264,90342,1,8
200,152,90615,6,0,B|256:96|311:152,1,128,0|8
352,216,91024,1,0
328,288,91160,1,0
352,360,91297,1,0
432,360,91433,1,8
456,288,91569,1,0
432,216,91706,6,0,B|496:216,1,64,0|2
432,136,91979,2,0,B|432:72,1,64,8|2
352,136,92251,2,0,B|288:136,1,64,0|2
352,216,92524,2,0,B|352:288,1,64,8|0
352,360,92797,5,0
304,296,92933,1,0
256,360,93069,1,8
208,296,93206,1,0
160,360,93342,2,0,B|120:288,1,64
352,360,93615,2,0,B|392:288,1,64,8|0
352,216,93888,6,0,B|280:192,1,64,0|2
160,216,94160,2,0,B|232:192,1,64,8|2
192,128,94433,1,0
256,88,94569,1,2
320,128,94706,1,8
256,88,94842,1,0
192,128,94979,6,0,B|128:136,1,64
160,56,95251,1,8
216,0,95388,1,0
296,0,95524,1,0
352,56,95660,1,0
320,128,95797,2,0,B|384:136,1,64,8|0
448,336,96069,6,0,B|384:336,1,64,0|2
320,384,96342,1,8
256,344,96479,1,2
192,384,96615,1,0
64,336,96751,2,0,B|128:336,1,64,2|8
128,192,97160,6,0,B|96:160,1,44.7999989318848,2|0
160,120,97433,2,0,B|144:72,1,44.7999989318848
216,56,97706,2,0,B|216:8,1,44.7999989318848,2|0
296,56,97979,2,0,B|296:8,1,44.7999989318848,0|2
352,120,98251,2,0,B|368:72,1,44.7999989318848,0|2
384,192,98524,2,0,B|416:160,1,44.7999989318848
296,264,98797,2,0,B|256:288|256:288|216:264,1,89.5999978637696,2|2
216,192,99206,6,0,B|256:168|256:168|296:192,1,89.5999978637696,0|2
352,240,99615,2,0,B|384:288,1,44.7999989318848,2|0
344,368,99888,2,0,B|319:330,1,44.7999989318848,2|0
256,368,100160,2,0,B|256:320,1,44.7999989318848,0|2
168,368,100433,2,0,B|192:330,1,44.7999989318848,0|2
160,239,100706,2,0,B|135:277,1,44.7999989318848,0|0
256,240,100979,2,0,B|256:192,3,44.7999989318848,2|0|2|0
328,160,101524,5,2
296,96,101660,2,0,B|256:72|256:72|216:96,1,89.5999978637696,0|0
184,160,102070,1,2
256,160,102206,1,0
328,160,102342,6,0,B|344:200,1,44.7999989318848,0|2
256,160,102615,2,0,B|256:208,1,44.7999989318848,0|2
184,160,102888,2,0,B|168:200,1,44.7999989318848,0|2
224,264,103160,2,0,B|232:288|256:304|280:288|288:264,1,89.5999978637696,2|0
296,336,103570,6,0,B|256:360|256:360|216:336,1,89.5999978637696,2|0
144,336,103979,2,0,B|80:336,1,44.7999989318848,2|0
144,264,104251,2,0,B|144:208,1,44.7999989318848,0|2
216,264,104524,2,0,B|272:264,1,44.7999989318848,0|0
216,336,104797,2,0,B|216:384,1,44.7999989318848,2|0
296,336,105070,2,0,B|296:384,1,44.7999989318848,2|0
368,336,105342,2,0,B|432:336,1,44.7999989318848,0|2
368,264,105615,2,0,B|368:208,1,44.7999989318848,0|0
296,264,105888,1,6
320,120,114615,5,4
296,192,114751,2,0,B|288:224|256:240|256:240|224:224|216:192,1,128,0|0
192,120,115160,2,0,B|104:152,1,64,2|0
320,120,115433,2,0,B|408:152,1,64,8|2
328,256,115706,2,0,B|336:304|272:312,1,64,2|0
184,256,115978,2,0,B|176:304|240:312,1,64,8|2
294,80,116251,6,0,B|350:136|294:192,1,128,2|8
218,192,116660,2,0,B|163:137|219:81,1,128,0|0
208,8,117069,2,0,B|128:16,1,64,8|0
304,8,117342,2,0,B|384:16,1,64,2|0
408,80,117615,5,8
368,144,117751,1,2
296,168,117888,1,2
216,168,118024,1,0
144,144,118160,1,8
104,80,118297,1,2
200,48,118433,6,0,B|256:-8|312:48,1,128,2|8
256,104,118842,2,0,B|256:232,1,128
328,248,119251,2,0,B|352:168,1,64,8|0
256,232,119524,2,0,B|256:304,1,64,2|0
184,248,119797,2,0,B|160:168,1,64,8|2
144,112,120069,6,0,B|176:80|152:40,1,64,2|0
368,112,120342,2,0,B|336:80|360:40,1,64,8|2
328,168,120615,2,0,B|296:176|280:208|280:208|296:240|328:248,1,128,2|8
185,248,121024,2,0,B|216:240|232:208|232:208|216:176|184:168,1,128
256,288,121433,5,8
328,296,121569,1,0
376,240,121706,1,2
376,160,121842,1,0
328,104,121978,1,8
256,112,122115,1,2
184,104,122251,1,2
136,160,122388,1,0
136,240,122524,1,8
184,296,122660,1,2
256,288,122797,6,0,B|256:192,1,89.5999978637696,2|8
256,199,123206,2,0,B|256:104,1,89.5999978637696
256,32,123615,1,8
320,72,123751,1,0
192,72,123888,1,2
152,8,124024,5,0
192,72,124160,1,8
256,32,124297,1,2
320,72,124433,1,2
360,8,124569,1,0
256,112,124706,5,8
256,192,124842,1,2
200,256,124978,2,0,B|256:312|312:256,1,128,2|8
320,176,125388,6,0,B|192:176,1,128
216,248,125797,2,0,B|160:280,1,64,8|0
296,248,126070,2,0,B|352:280,1,64,2|0
216,136,126342,2,0,B|160:104,1,64,8|0
296,136,126615,2,0,B|352:104,1,64,2|0
320,40,126888,1,8
256,0,127024,1,2
192,40,127160,1,2
112,240,127570,6,0,B|127:317|202:309,1,128,0|0
256,248,127979,2,0,B|256:176,1,64,8|0
309,309,128251,2,0,B|384:317|400:240,1,128,2|8
368,88,128797,1,2
328,24,128933,1,0
256,0,129069,1,8
184,24,129206,1,2
144,88,129342,1,2
400,240,129888,5,0
320,240,130024,1,0
256,192,130160,2,0,B|256:112,1,64,8|0
192,240,130433,1,0
112,240,130569,1,0
152,312,130706,5,8
256,328,130842,1,0
360,312,130978,1,2
256,96,131251,1,0
152,312,131524,1,6
112,288,132069,6,0,B|48:272,1,64,0|2
112,192,132342,2,0,B|40:192,1,64,0|2
112,96,132615,2,0,B|48:112,2,64,0|0|2
400,96,133160,6,0,B|464:112,1,64,0|2
400,192,133433,2,0,B|472:192,1,64,0|2
400,288,133706,2,0,B|464:272,2,64,0|0|2
256,352,134251,5,0
192,312,134388,1,2
192,232,134524,1,0
256,192,134660,1,2
320,152,134797,1,0
320,72,134933,1,0
256,32,135069,1,2
256,32,135342,5,0
192,72,135479,1,2
192,152,135615,1,0
256,192,135751,1,2
320,232,135888,1,0
320,312,136024,1,0
256,352,136160,1,2
104,352,136433,5,0
40,312,136569,1,2
104,272,136706,1,8
168,232,136842,1,0
168,312,136979,1,2
104,272,137115,1,0
40,232,137251,1,8
104,192,137388,1,2
168,232,137524,6,0,B|200:176,1,64,0|2
40,232,137797,2,0,B|8:176,1,64,8|0
64,120,138069,2,0,B|48:48,1,64,2|0
144,120,138342,2,0,B|160:48,1,64,8|0
408,32,138615,5,0
472,72,138751,1,2
408,112,138888,1,8
344,152,139024,1,0
344,72,139160,1,2
408,112,139297,1,0
472,152,139433,1,8
408,192,139569,1,2
344,152,139706,6,0,B|312:208,1,64,0|2
472,152,139979,2,0,B|504:208,1,64,8|0
448,264,140251,2,0,B|464:336,1,64,2|0
368,264,140524,2,0,B|352:336,1,64,8|2
200,192,140797,5,0
200,192,140933,1,2
88,304,141206,1,0
24,264,141342,1,2
0,192,141479,1,0
24,120,141615,1,2
88,80,141751,1,0
56,192,141888,5,0
120,232,142024,2,0,B|184:280,1,64,0|2
171,113,142297,2,0,B|120:152,1,64
24,120,142569,1,0
0,192,142706,1,2
24,264,142842,1,0
160,192,143115,5,2
352,192,143388,1,0
352,272,143524,1,2
296,328,143660,1,0
216,328,143797,1,2
160,272,143933,1,0
160,192,144069,1,0
184,120,144206,1,0
256,152,144342,1,2
328,120,144479,1,0
256,32,144615,5,4
256,32,144888,1,4
312,192,145160,5,0
312,192,145297,1,2
424,80,145569,1,0
488,120,145706,1,2
512,192,145842,1,0
488,264,145979,1,2
424,304,146115,1,0
456,192,146251,5,0
392,152,146388,2,0,B|328:104,1,64,0|2
340,270,146660,2,0,B|392:232,1,64
488,264,146933,1,0
512,192,147070,1,2
488,120,147206,1,0
352,192,147479,5,2
160,192,147751,1,0
200,264,147888,1,2
216,344,148024,1,0
296,344,148160,1,2
312,264,148297,1,0
352,192,148433,1,0
328,120,148570,1,0
256,152,148706,1,2
184,120,148842,1,0
256,32,148979,5,4
256,32,149251,1,4
312,192,149524,5,0
312,192,149660,1,2
424,80,149933,1,0
488,120,150069,1,2
512,192,150206,1,0
488,264,150342,1,2
424,304,150478,1,0
456,192,150615,5,0
392,232,150751,2,0,B|352:247|354:278,1,64,0|2
392,152,151024,2,0,B|352:136|354:105,1,64,0|0
488,264,151296,1,0
512,192,151433,1,2
488,120,151569,1,0
352,192,151842,5,2
160,192,152115,1,0
160,112,152251,1,2
216,48,152387,1,0
296,48,152524,1,2
352,112,152660,1,0
352,192,152796,1,0
328,264,152933,1,0
256,232,153069,1,2
184,264,153206,1,0
256,352,153342,5,4
256,352,153615,1,4
200,192,153887,5,0
200,192,154024,1,2
88,304,154296,1,0
24,264,154433,1,2
0,192,154569,1,0
24,120,154706,1,2
88,80,154842,1,0
56,192,154978,5,0
120,231,155115,2,0,B|159:247|157:278,1,64,0|2
120,152,155388,2,0,B|159:136|157:105,1,64,0|0
24,120,155660,1,0
0,192,155797,1,2
24,264,155933,1,0
160,192,156206,5,2
352,192,156478,1,0
304,128,156615,1,2
296,48,156751,1,0
216,48,156887,1,2
208,128,157024,1,0
160,192,157160,1,0
224,240,157297,2,0,B|256:240|256:240|288:240,2,64,0|2|0
256,352,157706,5,4
256,352,157978,1,4
