osu file format v9

[General]
AudioFilename: Promise.mp3
AudioLeadIn: 2007
PreviewTime: 89771
Countdown: 0
SampleSet: Soft
StackLeniency: 0.7
Mode: 0
LetterboxInBreaks: 1

[Editor]
Bookmarks: 32173
DistanceSpacing: 0.9
BeatDivisor: 2
GridSize: 8

[Metadata]
Title:Promise (Reprise)
Artist:Akira Yamaoka
Creator:Hitomi May
Version:Normal
Source:Silent Hill 2
Tags:OST Video Game Soundtrack

[Difficulty]
HPDrainRate:4
CircleSize:3
OverallDifficulty:4
ApproachRate:4
SliderMultiplier:1
SliderTickRate:1

[Events]
//Background and Video events
0,0,"BG.jpg"
//Break Periods
2,32374,37172
//Storyboard Layer 0 (Background)
//Storyboard Layer 1 (Fail)
//Storyboard Layer 2 (Pass)
//Storyboard Layer 3 (Foreground)
//Storyboard Sound Samples
//Background Colour Transformations
3,100,163,162,255

[TimingPoints]
185,399.866711096301,4,2,0,60,1,0
2584,-100,4,2,0,20,0,0
3583,-100,4,2,0,60,0,0
5783,-100,4,2,0,20,0,0
6183,-100,4,2,0,60,0,0
7382,-100,4,2,0,20,0,0
8382,-100,4,2,0,60,0,0
10581,-100,4,2,0,20,0,0
10781,-100,4,2,0,60,0,0
11381,-100,4,2,0,20,0,0
12580,-100,4,2,0,60,0,0
12974,-100,4,2,0,45,0,0
13180,-100,4,2,0,60,0,0
14580,-100,4,2,0,45,0,0
14780,-100,4,2,0,60,0,0
15379,-100,4,2,0,20,0,0
15579,-100,4,2,0,60,0,0
16179,-100,4,2,0,20,0,0
16379,-100,4,2,0,60,0,0
17779,-100,4,2,0,45,0,0
17979,-100,4,2,0,60,0,0
18578,-100,4,2,0,20,0,0
18778,-100,4,2,0,60,0,0
19378,-100,4,2,0,45,0,0
19578,-100,4,2,0,60,0,0
20178,-100,4,2,0,20,0,0
20378,-100,4,2,0,60,0,0
20978,-100,4,2,0,20,0,0
21178,-100,4,2,0,60,0,0
22577,-100,4,2,0,45,0,0
22777,-100,4,2,0,60,0,0
23377,-100,4,2,0,20,0,0
23577,-100,4,2,0,60,0,0
24177,-100,4,2,0,20,0,0
25176,-100,4,2,0,60,0,0
25776,-100,4,2,0,45,0,0
25976,-100,4,2,0,60,0,0
26576,-100,4,2,0,45,0,0
26776,-100,4,2,0,60,0,0
28175,-100,4,2,0,20,0,0
29175,-100,4,2,0,60,0,0
30574,-100,4,2,0,45,0,0
30774,-100,4,2,0,60,0,0
31374,-100,4,2,0,20,0,0
31574,-100,4,2,0,60,0,0
38572,-100,4,2,0,20,0,1
38772,-100,4,2,0,60,0,0
39371,-100,4,2,0,45,0,0
39571,-100,4,2,0,60,0,0
40971,-100,4,2,0,20,0,0
41171,-100,4,2,0,60,0,0
41771,-100,4,2,0,20,0,0
41971,-100,4,2,0,60,0,0
42570,-100,4,2,0,45,0,0
42770,-100,4,2,0,60,0,0
44170,-100,4,2,0,20,0,0
44370,-100,4,2,0,60,0,0
44970,-100,4,2,0,45,0,0
45170,-100,4,2,0,60,0,0
45769,-100,4,2,0,20,0,0
45969,-100,4,2,0,60,0,0
48168,-100,4,2,0,45,0,0
48368,-100,4,2,0,60,0,0
49768,-100,4,2,0,20,0,0
49968,-100,4,2,0,60,0,0
50573,-100,4,2,0,20,0,0
50767,-100,4,2,0,60,0,0
50768,-100,4,2,0,60,0,0
51367,-100,4,2,0,20,0,0
51567,-100,4,2,0,60,0,0
52167,-100,4,2,0,45,0,0
52367,-100,4,2,0,60,0,0
53767,-100,4,2,0,20,0,0
53966,-100,4,2,0,60,0,0
54566,-100,4,2,0,20,0,0
54766,-100,4,2,0,45,0,0
55366,-100,4,2,0,45,0,0
55566,-100,4,2,0,60,0,0
56966,-100,4,2,0,20,0,0
57165,-100,4,2,0,60,0,0
57765,-100,4,2,0,20,0,0
58765,-100,4,2,0,60,0,0
59365,-100,4,2,0,20,0,0
59565,-100,4,2,0,60,0,0
60964,-100,4,2,0,45,0,0
61164,-100,4,2,0,60,0,0
62563,-100,4,2,0,20,0,0
63563,-100,4,2,0,60,0,0
64163,-100,4,2,0,20,0,1
64363,-100,4,2,0,60,0,0
64963,-100,4,2,0,45,0,0
65172,-100,4,2,0,60,0,0
65763,-100,4,2,0,45,0,0
65962,-100,4,2,0,60,0,0
66562,-100,4,2,0,20,0,0
66772,-100,4,2,0,60,0,0
67362,-100,4,2,0,45,0,0
67562,-100,4,2,0,60,0,0
68162,-100,4,2,0,45,0,0
68362,-100,4,2,0,60,0,0
68962,-100,4,2,0,45,0,0
69162,-100,4,2,0,60,0,0
69761,-100,4,2,0,20,0,0
69961,-100,4,2,0,60,0,0
70561,-100,4,2,0,45,0,0
70761,-100,4,2,0,60,0,0
71361,-100,4,2,0,20,0,0
72360,-100,4,2,0,60,0,0
72960,-100,4,2,0,20,0,0
73160,-100,4,2,0,60,0,0
73760,-100,4,2,0,45,0,0
73960,-100,4,2,0,60,0,0
74572,-100,4,2,0,45,0,0
74760,-100,4,2,0,60,0,0
75359,-100,4,2,0,20,0,0
77159,-100,4,2,0,60,0,0
77759,-100,4,2,0,45,0,0
77959,-100,4,2,0,60,0,0
78558,-100,4,2,0,45,0,0
78758,-100,4,2,0,60,0,0
79358,-100,4,2,0,20,0,0
79558,-100,4,2,0,60,0,0
80158,-100,4,2,0,20,0,0
80358,-100,4,2,0,60,0,0
80958,-100,4,2,0,45,0,0
81158,-100,4,2,0,60,0,0
81757,-100,4,2,0,45,0,0
81957,-100,4,2,0,60,0,0
82557,-100,4,2,0,20,0,0
82757,-100,4,2,0,60,0,0
83357,-100,4,2,0,45,0,0
83557,-100,4,2,0,60,0,0
84157,-100,4,2,0,20,0,0
84356,-100,4,2,0,60,0,0
84756,-100,4,2,0,20,0,0
85156,-100,4,2,0,60,0,0
85756,-100,4,2,0,45,0,0
85956,-100,4,2,0,60,0,0
86556,-100,4,2,0,45,0,0
86756,-100,4,2,0,60,0,0
87355,-100,4,2,0,45,0,0
87555,-100,4,2,0,60,0,0
88155,-100,4,2,0,20,0,0
89355,-100,4,2,0,60,0,0
89755,-100,4,2,0,20,0,1
89955,-100,4,2,0,60,0,0
92154,-100,4,2,0,20,0,0
93154,-100,4,2,0,60,0,0
95353,-100,4,2,0,20,0,0
95553,-100,4,2,0,60,0,0
96952,-100,4,2,0,20,0,0
97952,-100,4,2,0,60,0,0
100151,-100,4,2,0,20,0,0
100551,-100,4,2,0,60,0,0
100951,-100,4,2,0,20,0,0
101351,-100,4,2,0,15,0,0
101751,-100,4,2,0,10,0,0
102151,-100,4,2,0,5,0,0

[Colours]
Combo1 : 86,79,176
Combo2 : 176,86,82

[HitObjects]
64,192,185,2,0,B|80:136|136:128,1,100
120,40,984,2,0,B|176:32|208:80,1,100
288,112,1784,1,0
216,168,2184,1,0
207,78,2584,2,4,B|240:24|288:16|336:24|368:80,1,200
288,112,3783,5,0
360,168,4183,2,0,B|416:160|448:208,1,100
368,256,4983,2,0,B|320:280|272:256,1,100
200,200,5783,2,0,B|160:248|192:304,1,100,4|0
272,256,6582,5,0
328,184,6982,1,0
256,128,7382,2,4,B|208:104|152:104|104:152|104:216,1,200
128,288,8582,1,0
216,312,8982,1,0
304,328,9381,1,0
392,352,9781,6,0,B|392:288|344:248|344:248|304:176,1,200,0|4
256,104,10981,1,0
208,176,11381,2,0,B|168:248|168:248|120:288|120:352,1,200,4|4
208,328,12580,1,0
288,296,12980,6,0,B|328:280|369:239|369:239|384:192|384:136,2,200,2|0|2
200,272,14980,1,0
176,184,15379,2,4,B|227:169|267:209,1,100,4|0
336,151,16179,2,0,B|256:79|148:99,1,200,4|0
88,160,17379,1,0
104,247,17779,6,0,B|120:296|176:320,1,100,2|0
259,301,18578,2,0,B|243:252|187:228,1,100,4|0
170,317,19378,6,0,B|256:392|352:319,1,200,2|4
392,240,20578,1,0
408,152,20978,2,0,B|352:144|312:192,1,100,4|0
304,272,21777,2,0,B|248:256|232:208,1,100
256,120,22577,6,0,B|192:112|152:136|128:192|144:240,1,200,2|4
160,328,23777,1,0
248,344,24177,2,4,B|312:352|352:328|376:272|360:224,2,200,4|4|2
272,256,26176,5,0
240,168,26576,1,2
328,136,26976,1,0
360,224,27375,2,0,B|416:200|416:144,1,100
384,64,28175,2,4,B|336:32|289:51|289:51|240:72|192:32,1,200
128,96,29375,5,0
208,136,29775,2,0,B|176:184|120:184,1,100
48,144,30574,2,0,B|24:192|56:240,1,100,2|0
136,272,31374,2,0,B|184:272|232:240,1,100,4|0
256,152,32174,1,0
152,176,38572,6,0,B|208:80|328:96,1,200,6|2
400,144,39771,1,0
392,232,40171,2,0,B|336:328|216:312,1,200,0|4
88,192,41771,6,0,B|88:128|136:96|136:96|184:112|224:96,1,200,6|2
376,192,43370,2,0,B|376:256|328:288|328:288|280:272|240:288,1,200,0|4
312,120,44970,6,0,B|336:72|384:56,1,100,2|0
472,88,45769,1,4
400,144,46169,1,0
312,120,46569,2,0,B|232:128|232:128|192:144|192:144|112:152,1,200
56,224,47769,1,0
144,240,48169,2,0,B|224:232|224:232|264:216|264:216|344:208,2,200,2|0|6
88,312,50168,1,0
176,328,50568,2,0,B|240:320|240:320|280:320,1,100,4|0
368,304,51367,5,6
448,264,51767,1,0
440,176,52167,1,2
352,152,52567,1,0
304,232,52967,2,0,B|256:192|248:144|264:88|320:64,1,200,0|4
408,80,54167,1,0
352,152,54566,6,0,B|296:160|248:152,1,100,6|0
176,104,55366,2,0,B|128:128|88:160,1,100,2|0
56,240,56166,1,0
136,280,56566,1,0
176,200,56966,2,0,B|224:208|272:224,1,100,4|0
328,152,57765,6,4,B|376:200|368:240|360:304|288:312,1,200
272,224,58965,1,0
232,144,59365,2,0,B|232:88|288:64,2,100,4|0|0
176,216,60564,1,0
216,296,60964,6,0,B|264:320|312:296,1,100,2|0
376,232,61764,2,0,B|424:208|472:232,1,100
480,144,62564,2,4,B|424:128|376:136|333:148|296:192,1,200
296,280,63763,1,0
376,232,64163,6,0,B|400:176|368:136,1,100,6|0
360,48,64963,2,0,B|304:56|280:112,1,100,2|0
192,120,65763,2,0,B|200:176|256:192,1,100,2|0
184,256,66562,2,0,B|136:232|120:184,1,100,4|0
104,96,67362,5,2
104,96,67762,1,0
168,32,68162,1,2
168,32,68562,1,0
232,96,68962,1,2
232,96,69361,1,0
168,160,69761,1,4
168,160,70161,1,0
256,184,70561,6,0,B|304:200|320:256,1,100,2|0
272,328,71361,2,4,B|336:352|376:336|416:288|400:232,1,200,4|6
384,144,72560,1,0
312,200,72960,2,0,B|280:152|304:96,1,100,4|0
376,56,73760,2,0,B|432:56|464:104,2,100,2|0|2
288,32,74960,1,0
224,96,75359,6,4,B|184:128|120:120|120:120|64:192,2,200,6|4|6
158,34,77359,1,0
224,96,77759,2,0,B|264:128|272:184,1,100,2|0
192,232,78558,2,0,B|221:276|277:276,1,100,2|0
368,256,79358,1,4
448,216,79758,1,0
448,128,80158,5,6
368,168,80558,2,0,B|352:120|377:72,2,100,0|2|0
368,256,81757,2,0,B|336:288|280:304|280:304|224:288|192:256,1,200,2|4
136,184,82957,1,0
224,176,83357,6,0,B|216:120|160:96,1,100
240,40,84157,2,4,B|288:16|336:40,2,100,4|0|6
288,112,85356,2,0,B|336:136|384:112,2,100,0|2|0
240,184,86556,6,0,B|288:216|336:208,1,100,2|0
424,192,87355,1,2
440,280,87755,1,0
352,296,88155,2,4,B|304:296|304:296|208:344|208:344|160:344,1,200,6|4
88,288,89355,1,0
96,200,89755,1,6
168,144,90155,6,0,B|224:152|256:104,2,100
184,56,91354,2,0,B|224:16|280:24,1,100
344,88,92154,2,4,B|336:144|376:192|448:200|488:168,1,200
432,96,93353,1,0
392,16,93753,1,0
302,13,94153,1,0
232,72,94553,6,0,B|184:104|176:152,1,100
264,152,95353,2,0,B|312:128|360:152,2,100,4|0|0
216,232,96552,1,0
176,312,96952,2,4,B|216:352|216:352|256:320|296:352|296:352|336:312,1,200
296,232,98152,5,0
256,152,98552,2,0,B|232:104|176:104,1,100
168,192,99351,2,0,B|117:173|76:211,1,100
136,280,100151,2,0,B|88:304|89:360,1,100,4|0
179,357,100951,5,4
224,280,101351,1,4
288,216,101751,1,4
328,136,102151,1,4
