osu file format v9

[General]
AudioFilename: Promise.mp3
AudioLeadIn: 2007
PreviewTime: 89771
Countdown: 0
SampleSet: Soft
StackLeniency: 0.7
Mode: 0
LetterboxInBreaks: 1

[Editor]
DistanceSpacing: 1.2
BeatDivisor: 2
GridSize: 4

[Metadata]
Title:Promise (Reprise)
Artist:Akira Yamaoka
Creator:Hitomi May
Version:Hard
Source:Silent Hill 2
Tags:OST Video Game Soundtrack

[Difficulty]
HPDrainRate:6
CircleSize:4
OverallDifficulty:6
ApproachRate:6
SliderMultiplier:1.2
SliderTickRate:1

[Events]
//Background and Video events
0,0,"BG.jpg"
//Break Periods
//Storyboard Layer 0 (Background)
//Storyboard Layer 1 (Fail)
//Storyboard Layer 2 (Pass)
//Storyboard Layer 3 (Foreground)
//Storyboard Sound Samples
//Background Colour Transformations
3,100,163,162,255

[TimingPoints]
185,399.866711096301,4,2,0,60,1,0
2584,-100,4,2,0,20,0,0
3583,-100,4,2,0,60,0,0
5783,-100,4,2,0,20,0,0
6183,-100,4,2,0,60,0,0
7382,-100,4,2,0,20,0,0
8382,-100,4,2,0,60,0,0
10581,-100,4,2,0,20,0,0
11181,-100,4,2,0,60,0,0
11381,-100,4,2,0,20,0,0
11981,-100,4,2,0,60,0,0
12181,-100,4,2,0,20,0,0
12580,-100,4,2,0,60,0,0
12980,-100,4,2,0,45,0,0
13180,-100,4,2,0,60,0,0
13780,-100,4,2,0,45,0,0
13980,-100,4,2,0,60,0,0
14580,-100,4,2,0,45,0,0
14780,-100,4,2,0,60,0,0
15379,-100,4,2,0,20,0,0
15579,-100,4,2,0,60,0,0
16179,-100,4,2,0,20,0,0
16379,-100,4,2,0,60,0,0
17779,-100,4,2,0,45,0,0
17979,-100,4,2,0,60,0,0
18578,-100,4,2,0,20,0,0
18778,-100,4,2,0,60,0,0
19378,-100,4,2,0,45,0,0
19578,-100,4,2,0,60,0,0
20178,-100,4,2,0,20,0,0
20378,-100,4,2,0,60,0,0
20978,-100,4,2,0,20,0,0
21178,-100,4,2,0,60,0,0
21777,-100,4,2,0,45,0,0
21977,-100,4,2,0,60,0,0
22577,-100,4,2,0,45,0,0
22777,-100,4,2,0,60,0,0
23377,-100,4,2,0,20,0,0
23577,-100,4,2,0,60,0,0
24177,-100,4,2,0,20,0,0
24376,-100,4,2,0,60,0,0
24976,-100,4,2,0,20,0,0
25176,-100,4,2,0,60,0,0
25776,-100,4,2,0,45,0,0
25976,-100,4,2,0,60,0,0
26576,-100,4,2,0,45,0,0
26776,-100,4,2,0,60,0,0
27375,-100,4,2,0,45,0,0
27575,-100,4,2,0,60,0,0
28175,-100,4,2,0,20,0,0
28375,-100,4,2,0,60,0,0
28975,-100,4,2,0,20,0,0
29175,-100,4,2,0,60,0,0
30574,-100,4,2,0,45,0,0
30774,-100,4,2,0,60,0,0
31374,-100,4,2,0,20,0,0
31574,-100,4,2,0,60,0,0
32174,-100,4,2,0,45,0,0
32374,-100,4,2,0,60,0,0
32974,-100,4,2,0,20,0,0
33174,-100,4,2,0,60,0,0
33773,-100,4,2,0,20,0,0
33973,-100,4,2,0,60,0,0
34573,-100,4,2,0,45,0,0
34773,-100,4,2,0,60,0,0
36173,-100,4,2,0,20,0,0
36372,-100,4,2,0,60,0,0
36972,-100,4,2,0,20,0,0
37172,-100,4,2,0,60,0,0
37772,-100,4,2,0,20,0,0
37972,-100,4,2,0,60,0,0
38572,-100,4,2,0,20,0,1
38772,-100,4,2,0,60,0,0
40171,-100,4,2,0,45,0,0
40371,-100,4,2,0,60,0,0
40971,-100,4,2,0,20,0,0
41171,-100,4,2,0,60,0,0
41771,-100,4,2,0,20,0,0
41971,-100,4,2,0,60,0,0
43370,-100,4,2,0,45,0,0
43570,-100,4,2,0,60,0,0
44170,-100,4,2,0,20,0,0
44370,-100,4,2,0,60,0,0
44970,-100,4,2,0,45,0,0
45170,-100,4,2,0,60,0,0
45769,-100,4,2,0,20,0,0
45969,-100,4,2,0,60,0,0
47369,-100,4,2,0,45,0,0
47569,-100,4,2,0,60,0,0
49768,-100,4,2,0,20,0,0
49968,-100,4,2,0,60,0,0
50568,-100,4,2,0,20,0,0
50768,-100,4,2,0,60,0,0
51367,-100,4,2,0,20,0,0
51567,-100,4,2,0,60,0,0
52167,-100,4,2,0,45,0,0
52367,-100,4,2,0,60,0,0
53767,-100,4,2,0,20,0,0
53967,-100,4,2,0,60,0,0
54566,-100,4,2,0,20,0,0
54766,-100,4,2,0,60,0,0
56166,-100,4,2,0,45,0,0
56366,-100,4,2,0,60,0,0
56966,-100,4,2,0,20,0,0
57166,-100,4,2,0,60,0,0
57765,-100,4,2,0,20,0,0
57965,-100,4,2,0,60,0,0
58565,-100,4,2,0,20,0,0
58765,-100,4,2,0,60,0,0
59365,-100,4,2,0,20,0,0
59565,-100,4,2,0,60,0,0
60165,-100,4,2,0,45,0,0
60364,-100,4,2,0,60,0,0
60964,-100,4,2,0,45,0,0
61164,-100,4,2,0,60,0,0
62564,-100,4,2,0,20,0,0
62764,-100,4,2,0,60,0,0
63363,-100,4,2,0,20,0,0
63563,-100,4,2,0,60,0,0
64163,-100,4,2,0,20,0,1
64363,-100,4,2,0,60,0,0
64963,-100,4,2,0,45,0,0
65163,-100,4,2,0,60,0,0
65763,-100,4,2,0,45,0,0
65963,-100,4,2,0,60,0,0
66562,-100,4,2,0,20,0,0
66762,-100,4,2,0,60,0,0
67362,-100,4,2,0,45,0,0
67562,-100,4,2,0,60,0,0
68162,-100,4,2,0,45,0,0
68362,-100,4,2,0,60,0,0
68962,-100,4,2,0,45,0,0
69162,-100,4,2,0,60,0,0
69761,-100,4,2,0,20,0,0
69961,-100,4,2,0,60,0,0
70561,-100,4,2,0,45,0,0
70761,-100,4,2,0,60,0,0
71361,-100,4,2,0,20,0,0
71561,-100,4,2,0,60,0,0
72161,-100,4,2,0,20,0,0
72360,-100,4,2,0,60,0,0
72960,-100,4,2,0,20,0,0
73160,-100,4,2,0,60,0,0
73760,-100,4,2,0,45,0,0
73960,-100,4,2,0,60,0,0
74560,-100,4,2,0,45,0,0
74760,-100,4,2,0,60,0,0
75359,-100,4,2,0,20,0,0
77159,-100,4,2,0,60,0,0
77759,-100,4,2,0,45,0,0
77959,-100,4,2,0,60,0,0
78558,-100,4,2,0,45,0,0
78758,-100,4,2,0,60,0,0
79358,-100,4,2,0,20,0,0
79558,-100,4,2,0,60,0,0
80158,-100,4,2,0,20,0,0
80358,-100,4,2,0,60,0,0
80958,-100,4,2,0,45,0,0
81158,-100,4,2,0,60,0,0
81757,-100,4,2,0,45,0,0
81957,-100,4,2,0,60,0,0
82557,-100,4,2,0,20,0,0
82757,-100,4,2,0,60,0,0
83357,-100,4,2,0,45,0,0
83557,-100,4,2,0,60,0,0
84157,-100,4,2,0,20,0,0
84356,-100,4,2,0,60,0,0
84956,-100,4,2,0,20,0,0
85156,-100,4,2,0,60,0,0
85756,-100,4,2,0,45,0,0
85956,-100,4,2,0,60,0,0
86556,-100,4,2,0,45,0,0
86756,-100,4,2,0,60,0,0
87355,-100,4,2,0,45,0,0
87555,-100,4,2,0,60,0,0
88155,-100,4,2,0,20,0,0
88755,-100,4,2,0,60,0,0
88955,-100,4,2,0,20,0,0
89555,-100,4,2,0,60,0,0
89755,-100,4,2,0,20,0,1
89955,-100,4,2,0,60,0,0
92154,-100,4,2,0,20,0,0
93154,-100,4,2,0,60,0,0
95353,-100,4,2,0,20,0,0
95553,-100,4,2,0,60,0,0
96952,-100,4,2,0,20,0,0
97952,-100,4,2,0,60,0,0
100151,-100,4,2,0,20,0,0
100551,-100,4,2,0,60,0,0
100951,-100,4,2,0,20,0,0
101351,-100,4,2,0,15,0,0
101751,-100,4,2,0,10,0,0
102151,-100,4,2,0,5,0,0

[Colours]
Combo1 : 86,79,176
Combo2 : 176,86,82

[HitObjects]
80,184,185,2,0,B|112:200|144:192|168:168|168:128,1,120
240,200,984,2,0,B|264:176|272:152|272:120|256:88,1,120
176,40,1784,1,0
168,136,2184,1,0
240,200,2584,2,4,B|320:256|352:200|384:152|464:200,1,240
408,280,3783,5,0
360,368,4183,2,0,B|321:329|321:329|305:265,1,120
216,224,4983,2,0,B|248:352,1,120
156,301,5783,2,0,B|128:184,1,120,4|0
208,128,6582,5,0
304,128,6982,1,0
368,200,7382,2,4,B|320:240|256:208|256:208|192:240|136:200,1,240
80,128,8582,5,0
104,32,8982,2,0,B|176:40|176:120,1,120
88,160,9781,1,0
168,216,10181,1,0
240,160,10581,2,0,B|256:112|288:80|344:80|384:96,1,180,4|0
400,144,11381,2,0,B|383:192|351:224|295:224|255:207,1,180,4|0
208,197,12181,2,0,B|176:136|104:160,1,120,4|0
140,300,12980,5,2
204,328,13180,1,0
272,312,13380,1,0
308,252,13580,1,0
288,184,13780,2,0,B|272:156|240:148,1,60,2|0
176,184,14180,2,0,B|192:212|224:220,2,60,0|0|2
188,40,14980,1,0
332,40,15379,2,0,B|396:64|384:136,1,120,4|0
316,110,15979,1,0
328,180,16179,6,0,B|348:208|380:216|412:208|434:187,1,120,4|0
260,156,16979,2,0,B|240:128|208:120|176:128|154:149,2,120,0|0|2
204,204,17979,1,0
132,220,18179,1,0
84,164,18378,1,0
108,96,18578,2,0,B|152:56|220:56,1,120,4|0
324,236,19378,6,0,B|364:279,2,60,2|0|0
256,212,19978,1,0
188,236,20178,2,0,B|148:279,1,60,4|0
76,276,20578,2,0,B|80:248|80:248|104:224,2,60,0|0|4
148,152,21377,1,0
256,56,21777,1,2
364,152,22177,1,0
380,224,22377,1,0
328,276,22577,6,0,B|352:332|352:332|380:348|408:332,2,120,2|0|4
184,276,23777,2,0,B|160:332|160:332|132:348|104:332,1,120,0|6
108,260,24376,1,0
160,208,24576,1,0
228,184,24776,1,0
252,252,24976,1,4
208,116,25376,1,0
488,348,25776,6,0,B|504:292,1,60,2|0
444,252,26176,2,0,B|428:308,1,60
368,268,26576,2,0,B|384:210,1,60,2|0
324,172,26976,2,0,B|307:229,2,60,0|0|2
356,108,27575,1,0
304,60,27775,2,0,B|284:36|256:24|256:24|224:36|208:60,2,120,0|4|0
256,116,28775,1,0
184,128,28975,5,4
156,196,29175,1,0
208,248,29375,2,0,B|228:272|256:284|256:284|288:272|304:248,2,120
356,196,30574,5,2
420,168,30774,1,0
364,124,30974,1,0
432,96,31174,1,0
376,52,31374,1,4
488,140,31774,1,0
376,52,32174,6,0,B|328:60|328:60|312:72|312:72|260:80,1,120,2|0
188,88,32774,1,0
116,104,32974,2,0,B|124:140|152:152,1,60,4|0
148,224,33373,2,0,B|180:228|204:204,2,60,0|0|4
76,224,33973,1,0
52,156,34173,1,0
100,292,34573,1,2
240,328,34973,1,0
304,296,35173,1,0
368,260,35373,6,0,B|384:292|380:320|368:348|332:364,1,120
304,220,36173,2,0,B|288:188|292:160|304:132|340:116,1,120,4|0
368,184,36772,1,0
312,48,36972,2,0,B|344:40|372:52,2,60,6|0|0
256,92,37572,1,0
184,76,37772,2,0,B|184:112|184:112|196:132|196:132|212:152|212:152|244:164,1,120,4|0
472,140,38572,6,0,B|464:200,1,60,6|0
392,216,38972,2,0,B|368:200|332:208|300:228|299:264,2,120,0|0|0
368,284,39971,1,0
300,260,40171,2,0,B|232:260|204:196,1,120,2|0
260,332,40971,2,0,B|200:316|156:268,1,120,4|0
136,204,41571,1,0
208,184,41771,6,0,B|192:137|232:113|232:113|256:57|280:113|280:113|320:137|304:185,1,240,4|0
184,264,42970,1,0
328,264,43370,2,0,B|360:256|376:232,1,60,2|0
432,184,43770,2,0,B|448:208|448:240,2,60,0|0|4
320,88,44570,1,0
256,216,44970,6,0,B|176:240|152:168|152:168|176:112|128:64,1,240,2|4
256,108,46169,1,0
256,216,46569,2,0,B|336:240|360:168|360:168|336:112|381:66,1,240,0|2
256,108,47769,1,0
256,280,48169,2,0,B|288:336,1,60,0|0
356,340,48568,2,0,B|396:284|460:292,2,120
436,220,49768,5,6
404,156,49968,1,0
332,152,50168,1,0
292,212,50368,1,0
364,224,50568,2,0,B|344:288|264:284,1,120,4|0
124,112,51367,6,0,B|100:92|68:92,2,60,6|0|0
72,164,51967,1,0
140,184,52167,2,0,B|132:216|104:228,2,60,2|0|0
192,136,52767,1,0
180,64,52967,1,0
216,204,53367,2,0,B|232:264|232:264|260:316,2,120,0|4|0
264,148,54366,1,0
332,128,54566,6,0,B|340:184|312:200|292:216|300:240,1,120,4|0
340,376,55366,2,0,B|332:320|360:304|380:288|372:264,1,120
404,124,56166,1,2
368,60,56366,1,0
296,52,56566,1,0
236,92,56766,1,0
240,164,56966,1,4
356,248,57365,1,0
240,164,57765,6,0,B|200:208,1,60,6|0
148,156,58165,2,0,B|124:212,1,60
164,272,58565,1,4
220,316,58765,1,0
292,316,58965,1,0
348,272,59165,1,0
312,208,59365,6,0,B|256:176|196:208,1,120,4|0
320,132,60165,2,0,B|352:140|372:152|392:176|388:224,1,120,2|0
420,280,60764,1,0
348,272,60964,6,0,B|280:268|260:340,2,120,2|0|0
492,288,62164,1,0
420,164,62564,2,0,B|380:120,2,60,6|0|0
360,204,63164,1,0
312,148,63363,2,0,B|296:80|360:48,1,120,4|0
288,220,64163,6,0,B|256:224|232:208,1,60,4|0
212,136,64563,2,0,B|180:148|164:176,1,60
96,192,64963,2,0,B|104:224|132:236,1,60,2|0
196,272,65363,2,0,B|176:300|148:308,1,60
80,288,65763,5,2
80,288,65963,1,0
36,232,66163,1,0
36,232,66362,1,0
32,160,66562,1,4
32,160,66762,1,0
92,120,66962,1,0
92,120,67162,1,0
160,144,67362,6,0,B|192:160|220:144|220:144|220:88,1,120,2|0
256,20,67962,1,0
292,86,68162,2,0,B|292:144|292:144|320:160|352:144,1,120,2|0
424,128,68762,1,0
404,196,68962,5,2
384,340,69361,1,0
244,312,69761,1,4
268,172,70161,1,0
124,60,70561,6,0,B|68:84,1,60,2|0
84,156,70961,2,0,B|144:132,1,60
192,84,71361,1,6
216,152,71561,1,0
192,220,71761,1,0
124,248,71961,1,0
56,224,72161,6,0,B|44:256|64:288,3,60,6|0|0|0
124,320,72960,2,0,B|152:332|188:328,3,60,6|0|0|0
240,288,73760,2,0,B|260:224|328:220,1,120,2|0
472,212,74560,2,0,B|452:276|384:280,1,120,2|0
344,140,75359,6,0,B|336:92|288:84|288:84|256:60|224:84|224:84|176:92|168:140,2,240,6|4|6
324,208,77159,5,0
256,232,77359,1,0
188,208,77559,1,0
200,280,77759,2,0,B|220:336,1,60,2|0
292,336,78159,2,0,B|312:280,1,60
324,208,78558,5,2
392,180,78758,1,0
364,112,78958,1,0
296,140,79158,1,0
216,140,79358,1,6
148,112,79558,1,0
120,180,79758,1,0
188,208,79958,1,0
256,232,80158,6,0,B|272:288,1,60,6|0
344,276,80558,2,0,B|360:332,1,60
432,316,80958,2,0,B|408:240,1,60,2|0
480,228,81357,2,0,B|456:152,1,60
392,192,81757,6,0,B|332:168|316:104,2,120,2|0|4
368,48,82957,1,0
236,108,83357,5,2
168,132,83557,1,0
100,156,83757,2,0,B|100:216,1,60
100,288,84157,5,6
168,264,84356,1,0
236,240,84556,2,0,B|236:180,1,60
236,108,84956,5,6
304,88,85156,1,0
372,68,85356,2,0,B|372:128,2,60,0|0|2
440,48,85956,1,0
440,120,86156,2,0,B|440:180,1,60
372,208,86556,6,0,B|300:196|276:260,1,120,2|0
348,280,87156,1,0
296,328,87355,2,0,B|260:336|228:320|212:300|204:268,1,120,2|0
272,116,88155,6,0,B|228:20|120:52,1,180,6|0
92,116,88955,2,0,B|136:212|244:180,1,180,6|0
312,176,89755,6,0,B|380:152|420:212,1,120,4|0
448,300,90554,2,0,B|380:324|340:264,1,120
418,208,91354,1,0
440,116,91754,1,0
364,56,92154,2,4,B|332:48|332:48|308:64|308:64|256:37|256:37|204:64|204:64|180:48|180:48|144:56|144:56,1,240
72,116,93353,5,0
28,200,93753,2,0,B|52:220|84:224|112:212|136:188,1,120
72,116,94553,1,0
156,164,94953,1,0
240,208,95353,1,4
280,120,95753,1,0
196,76,96153,6,0,B|236:24|304:32,1,120
368,100,96952,2,4,B|376:160|324:216|256:236|200:216,1,240
160,128,98152,1,0
256,132,98552,2,0,B|288:184|224:184|256:248,1,120
292,336,99351,5,0
384,304,99751,1,0
352,216,100151,2,0,B|372:152|432:133,1,120,4|0
237,194,100951,2,4,B|305:178|352:215,1,120
126,173,101751,2,4,B|174:217|238:193,1,120
