osu file format v14

[General]
AudioFilename: Akira Complex - Odyssey (au5 Remixx).mp3
AudioLeadIn: 0
PreviewTime: 69598
Countdown: 0
SampleSet: Soft
StackLeniency: 0.4
Mode: 0
LetterboxInBreaks: 1
WidescreenStoryboard: 0

[Editor]
DistanceSpacing: 1
BeatDivisor: 4
GridSize: 32
TimelineZoom: 2.699999

[Metadata]
Title:Odyssey (Au5 Remix)
TitleUnicode:Odyssey (Au5 Remix)
Artist:Akira Complex
ArtistUnicode:Akira Complex
Creator:ProfessionalBox
Version:Excursion
Source:
Tags:dnb drum and bass drumstep dubstep neurofunk filthstep the synthesis collective
BeatmapID:754143
BeatmapSetID:341007

[Difficulty]
HPDrainRate:6.2
CircleSize:4
OverallDifficulty:8.2
ApproachRate:9.4
SliderMultiplier:2
SliderTickRate:1

[Events]
//Background and Video events
0,0,"pls.jpg",0,0
//Break Periods
2,92341,101716
2,114284,119030
2,213027,228744
2,300798,305544
//Storyboard Layer 0 (Background)
//Storyboard Layer 1 (Fail)
//Storyboard Layer 2 (Pass)
//Storyboard Layer 3 (Foreground)
//Storyboard Sound Samples

[TimingPoints]
256,342.857142857143,4,1,0,20,1,0
256,-133.333333333333,4,2,1,20,0,0
4370,-117.647058823529,4,2,1,20,0,0
4713,-117.647058823529,4,2,12,20,0,0
9856,-153.846153846153,4,2,12,20,0,0
10198,-117.647058823529,4,2,12,20,0,0
12941,-153.846153846153,4,2,12,20,0,0
13284,-133.333333333333,4,2,12,20,0,0
13970,-117.647058823529,4,2,12,20,0,0
14313,-181.818181818181,4,2,12,20,0,0
14656,-153.846153846153,4,2,12,20,0,0
14998,-133.333333333333,4,2,12,20,0,0
15341,-117.647058823529,4,2,12,30,0,0
16713,-105.263157894737,4,2,12,25,0,0
17056,-117.647058823529,4,2,12,25,0,0
24941,-117.647058823529,4,2,1,25,0,0
25456,-181.818181818181,4,2,1,25,0,0
25970,-117.647058823529,4,2,1,25,0,0
26313,-100,4,2,1,45,0,0
31798,-153.846153846153,4,2,1,45,0,0
32141,-100,4,2,1,45,0,0
44141,-117.647058823529,4,2,1,45,0,0
45084,-100,4,2,1,45,0,0
46713,-166.666666666667,4,2,1,45,0,0
47570,-100,4,2,1,45,0,0
48256,-83.3333333333333,4,2,1,45,0,0
48598,-71.4285714285714,4,2,1,45,0,0
48770,-100,4,2,1,45,0,0
50656,-76.9230769230769,4,2,1,45,0,0
50998,-125,4,2,1,45,0,0
51513,-83.3333333333333,4,2,1,45,0,0
53741,-100,4,2,1,45,0,0
54084,-71.4285714285714,4,2,1,45,0,0
54256,-83.3333333333333,4,2,1,45,0,0
54598,-100,4,2,1,45,0,0
56484,-83.3333333333333,4,2,1,45,0,0
56998,-100,4,2,1,45,0,0
58198,-83.3333333333333,4,2,1,45,0,0
58541,-71.4285714285714,4,2,1,45,0,0
58713,-100,4,2,1,45,0,0
59570,-83.3333333333333,4,2,1,45,0,0
60084,-100,4,2,1,45,0,0
61627,-83.3333333333333,4,2,1,45,0,0
61970,-100,4,2,1,45,0,0
62313,-71.4285714285714,4,2,1,45,0,0
62484,-83.3333333333333,4,2,1,45,0,0
62827,-100,4,2,1,45,0,0
65056,-71.4285714285714,4,2,1,45,0,0
65227,-83.3333333333333,4,2,1,45,0,0
65570,-100,4,2,1,45,0,0
67456,-83.3333333333333,4,2,1,45,0,0
67798,-71.4285714285714,4,2,1,45,0,0
67970,-83.3333333333333,4,2,1,45,0,0
68313,-100,4,2,3,45,0,0
70198,-100,4,2,3,55,0,1
72941,-83.3333333333333,4,2,3,55,0,1
73284,-100,4,2,3,55,0,1
75684,-83.3333333333333,4,2,3,55,0,1
76370,-100,4,2,3,55,0,1
78427,-83.3333333333333,4,2,3,55,0,1
78941,-100,4,2,3,55,0,1
89227,-83.3333333333333,4,2,3,55,0,1
89741,-100,4,2,3,55,0,1
92141,-100,4,2,7,55,0,0
102256,-133.333333333333,4,2,1,40,0,0
103113,-117.647058823529,4,2,1,40,0,0
106198,-133.333333333333,4,2,1,40,0,0
106541,-153.846153846153,4,2,1,40,0,0
108598,-117.647058823529,4,2,1,40,0,0
113398,-100,4,2,1,40,0,0
119570,-200,4,2,1,35,0,0
119913,-166.666666666667,4,2,1,35,0,0
120427,-125,4,2,1,35,0,0
120941,-100,4,2,1,35,0,0
122656,-100,4,2,1,40,0,0
122998,-100,4,2,1,45,0,0
124713,-100,4,2,5,50,0,0
125056,-83.3333333333333,4,1,5,55,0,0
125398,-71.4285714285714,4,1,5,55,0,0
125570,-83.3333333333333,4,1,5,55,0,0
126256,-66.6666666666667,4,1,5,55,0,0
126598,-62.5,4,1,5,55,0,0
126770,-71.4285714285714,4,1,5,55,0,0
127113,-62.5,4,1,5,55,0,0
127627,-71.4285714285714,4,1,5,55,0,0
127798,-83.3333333333333,4,1,5,55,0,0
128141,-71.4285714285714,4,1,5,55,0,0
128313,-83.3333333333333,4,1,5,55,0,0
128827,-62.5,4,1,5,55,0,0
128998,-62.5,4,1,5,55,0,0
129513,-71.4285714285714,4,1,5,55,0,0
130541,-83.3333333333333,4,1,5,55,0,0
130884,-62.5,4,1,5,55,0,0
131056,-71.4285714285714,4,1,5,55,0,0
131741,-62.5,4,1,5,55,0,0
132256,-71.4285714285714,4,1,5,55,0,0
132598,-62.5,4,1,5,55,0,0
132941,-83.3333333333333,4,1,5,55,0,0
134656,-62.5,4,1,5,55,0,0
134998,-125,4,1,5,55,0,0
135341,-83.3333333333333,4,1,5,55,0,0
136370,-62.5,4,1,5,55,0,0
136541,-71.4285714285714,4,1,5,55,0,0
137741,-83.3333333333333,4,1,5,55,0,0
138084,-100,4,1,5,55,0,0
138427,-142.857142857143,4,1,5,55,0,0
138770,-66.6666666666667,4,1,5,55,0,0
139113,-62.5,4,1,5,55,0,0
139284,-71.4285714285714,4,1,5,55,0,0
139627,-62.5,4,1,5,55,0,0
139970,-71.4285714285714,4,1,5,55,0,0
140827,-83.3333333333333,4,1,5,55,0,0
141856,-62.5,4,1,5,55,0,0
142027,-71.4285714285714,4,1,5,55,0,0
142713,-62.5,4,1,5,55,0,0
143227,-71.4285714285714,4,1,5,55,0,0
143570,-100,4,1,5,55,0,0
143913,-142.857142857143,4,1,5,55,0,0
145627,-71.4285714285714,4,1,5,55,0,0
145970,-111.111111111111,4,1,5,55,0,0
146313,-200,4,1,5,55,0,0
146998,-83.3333333333333,4,1,5,55,0,0
148027,-62.5,4,1,5,55,0,0
148541,-76.9230769230769,4,1,5,55,0,0
148884,-62.5,4,1,5,55,0,0
149398,-71.4285714285714,4,1,5,55,0,0
150256,-83.3333333333333,4,1,5,55,0,0
150598,-71.4285714285714,4,1,5,55,0,0
150941,-83.3333333333333,4,1,5,55,0,0
151284,-71.4285714285714,4,1,5,55,0,0
151713,-62.5,4,1,5,55,0,0
152227,-71.4285714285714,4,1,5,55,0,0
152484,-83.3333333333333,4,1,5,55,0,0
152998,-100,4,1,5,55,0,0
153341,-71.4285714285714,4,1,5,55,0,0
153513,-62.5,4,1,5,55,0,0
154198,-71.4285714285714,4,1,5,55,0,0
154541,-62.5,4,1,5,55,0,0
154884,-71.4285714285714,4,1,5,55,0,0
155227,-83.3333333333333,4,1,5,55,0,0
155570,-62.5,4,1,5,55,0,0
155741,-71.4285714285714,4,1,5,55,0,0
156084,-62.5,4,1,5,55,0,0
156427,-71.4285714285714,4,1,5,55,0,0
157284,-83.3333333333333,4,1,5,55,0,0
158313,-71.4285714285714,4,1,5,55,0,0
158570,-83.3333333333333,4,1,5,55,0,0
158827,-100,4,1,5,55,0,0
158998,-71.4285714285714,4,1,5,55,0,0
159513,-83.3333333333333,4,1,5,55,0,0
160370,-71.4285714285714,4,1,5,55,0,0
160713,-83.3333333333333,4,1,5,55,0,0
161056,-62.5,4,1,5,55,0,0
162084,-71.4285714285714,4,1,5,55,0,0
162256,-62.5,4,1,5,55,0,0
162427,-62.5,4,1,5,55,0,0
163456,-83.3333333333333,4,1,5,55,0,0
163798,-62.5,4,1,5,55,0,0
163970,-71.4285714285714,4,1,5,55,0,0
164484,-62.5,4,1,5,55,0,0
164998,-83.3333333333333,4,1,5,55,0,0
165341,-71.4285714285714,4,1,5,55,0,0
165856,-62.5,4,1,5,55,0,0
166198,-83.3333333333333,4,1,5,55,0,0
166541,-62.5,4,1,5,55,0,0
166713,-71.4285714285714,4,1,5,55,0,0
168256,-71.4285714285714,4,2,5,40,0,0
168941,-100,4,2,5,55,0,1
174427,-83.3333333333333,4,2,5,55,0,1
174770,-71.4285714285714,4,2,5,55,0,1
175113,-83.3333333333333,4,2,5,55,0,1
177170,-117.647058823529,4,2,5,55,0,1
179913,-100,4,2,5,55,0,1
185398,-153.846153846153,4,2,5,55,0,0
186084,-100,4,2,5,55,0,1
187113,-100,4,2,5,55,0,1
188141,-133.333333333333,4,2,5,55,0,0
188827,-100,4,2,5,55,0,1
190884,-100,4,2,5,55,0,0
199113,-133.333333333333,4,2,5,55,0,0
199798,-100,4,2,5,55,0,0
203913,-133.333333333333,4,2,5,55,0,0
204598,-100,4,2,5,55,0,0
207341,-200,4,2,5,55,0,0
208027,-100,4,2,5,55,0,0
210084,-200,4,2,5,55,0,0
210770,-100,4,2,5,55,0,0
212827,-100,4,2,1,55,0,0
234084,-100,4,2,1,55,0,0
234427,-100,4,2,3,55,0,0
234770,-117.647058823529,4,2,3,55,0,0
255170,-100,4,2,3,55,0,0
256713,-83.3333333333333,4,2,1,55,0,0
265970,-83.3333333333333,4,2,4,55,0,0
266484,-83.3333333333333,4,2,1,55,0,0
268027,-71.4285714285714,4,2,1,55,0,0
268198,-83.3333333333333,4,2,1,55,0,0
270770,-71.4285714285714,4,2,1,55,0,0
270941,-83.3333333333333,4,2,1,55,0,0
273513,-71.4285714285714,4,2,1,55,0,0
273684,-83.3333333333333,4,2,1,55,0,0
276256,-71.4285714285714,4,2,1,55,0,0
276427,-83.3333333333333,4,2,1,55,0,0
276941,-100,4,2,1,55,0,0
278656,-100,4,2,1,55,0,1
281398,-71.4285714285714,4,2,1,55,0,1
283113,-100,4,2,1,55,0,1
284141,-83.3333333333333,4,2,1,55,0,1
284998,-100,4,2,1,55,0,1
286884,-83.3333333333333,4,2,1,55,0,1
287913,-100,4,2,1,55,0,1
300598,-100,4,2,1,55,0,0
306084,-133.333333333333,4,2,1,55,0,0
307113,-117.647058823529,4,2,1,55,0,0
307456,-105.263157894737,4,2,1,55,0,0
308827,-100,4,2,1,55,0,0
311570,-83.3333333333333,4,1,5,55,0,1
311913,-71.4285714285714,4,1,5,55,0,1
312084,-83.3333333333333,4,1,5,55,0,1
312427,-71.4285714285714,4,1,5,55,0,1
313284,-83.3333333333333,4,1,5,55,0,1
314656,-71.4285714285714,4,1,5,55,0,1
315513,-62.5,4,1,5,55,0,1
316027,-71.4285714285714,4,1,5,55,0,1
317056,-83.3333333333333,4,1,5,55,0,1
317398,-71.4285714285714,4,1,5,55,0,1
319113,-83.3333333333333,4,1,5,55,0,1
320827,-62.5,4,1,5,55,0,1
321170,-83.3333333333333,4,1,5,55,0,1
322884,-71.4285714285714,4,1,5,55,0,1
323398,-62.5,4,1,5,55,0,1
323741,-71.4285714285714,4,1,5,55,0,1
324941,-83.3333333333333,4,1,5,55,0,1
325284,-71.4285714285714,4,1,5,55,0,1
326484,-62.5,4,1,5,55,0,1
328027,-71.4285714285714,4,1,5,55,0,1
328370,-62.5,4,1,5,55,0,1
328541,-76.9230769230769,4,1,5,55,0,1
328713,-62.5,4,1,5,55,0,1
329741,-71.4285714285714,4,1,5,55,0,1
330084,-83.3333333333333,4,1,5,55,0,1
331798,-62.5,4,1,5,55,0,1
332141,-71.4285714285714,4,1,5,55,0,1
332484,-100,4,1,5,55,0,1
332827,-200,4,1,5,55,0,1
333513,-133.333333333333,4,1,5,55,0,0
336598,-66.6666666666667,4,1,5,55,0,0
336770,-133.333333333333,4,1,5,55,0,0
337284,-66.6666666666667,4,1,5,55,0,0
337627,-100,4,1,5,55,0,0
337970,-83.3333333333333,4,1,5,55,0,0
338998,-200,4,1,5,55,0,0
339684,-133.333333333333,4,1,5,55,0,0
341056,-153.846153846153,4,1,5,55,0,0
341741,-100,4,1,5,55,0,0
342770,-66.6666666666667,4,1,5,55,0,0
343798,-100,4,1,5,55,0,0
344484,-200,4,1,5,55,0,0
345170,-133.333333333333,4,1,5,55,0,0
347570,-66.6666666666667,4,1,5,55,0,0
347913,-100,4,1,5,55,0,0
348256,-66.6666666666667,4,1,5,55,0,0
348598,-83.3333333333333,4,1,5,55,0,0
349970,-200,4,1,5,55,0,0
350656,-133.333333333333,4,1,5,55,0,0
352027,-153.846153846153,4,1,5,55,0,0
352713,-100,4,1,5,55,0,0
353056,-66.6666666666667,4,1,5,55,0,0
353741,-66.6666666666667,4,1,5,55,0,0
354427,-100,4,1,5,55,0,0
354770,-100,4,2,5,55,0,0
355456,-100,4,2,5,55,0,1
360941,-83.3333333333333,4,2,5,55,0,1
363684,-100,4,2,5,55,0,1
366427,-100,4,2,5,55,0,1
372598,-100,4,2,5,55,0,1
377398,-100,4,2,5,55,0,0
379456,-133.333333333333,4,2,5,55,0,0
380141,-100,4,2,5,55,0,0
385627,-100,4,2,5,55,0,0
393856,-200,4,2,5,55,0,0
394541,-100,4,2,5,55,0,0
396598,-200,4,2,5,55,0,0
397284,-100,4,2,5,55,0,0
398827,-83.3333333333333,4,2,14,55,0,0

[Colours]
Combo1 : 216,216,216
Combo2 : 255,157,201
Combo3 : 136,100,202
Combo4 : 230,230,230
Combo5 : 41,254,148
Combo6 : 134,255,227
Combo7 : 253,216,147
Combo8 : 128,128,128

[HitObjects]
214,159,4027,54,0,L|102:180,1,112.500004291535,8|0,0:0|0:0,0:0:0:0:
55,106,4370,38,0,L|156:88,1,85.0000016212464,4|0,0:0|0:0,0:0:0:0:
304,114,4713,1,8,0:0:0:0:
283,31,4884,1,0,0:0:0:0:
214,159,5056,2,0,P|209:202|209:248,1,85.0000016212464
308,291,5398,2,0,P|312:337|312:375,1,85.0000016212464,8|0,0:0|0:0,0:0:0:0:
154,201,6084,5,8,0:0:0:0:
100,134,6256,1,0,0:0:0:0:
304,114,6427,1,0,0:0:0:0:
234,163,6598,1,0,0:0:0:0:
383,183,6770,2,0,L|475:172,1,85.0000016212464,8|0,0:0|0:0,0:0:0:0:
304,114,7284,101,0,0:0:0:0:
234,163,7456,1,8,0:0:0:0:
196,295,7627,1,0,0:0:0:0:
310,293,7798,6,0,B|319:255|319:255|308:199,1,85.0000016212464
188,96,8141,2,0,B|179:58|179:58|190:2,1,85.0000016212464,8|0,0:0|0:0,0:0:0:0:
102,133,8656,101,0,0:0:0:0:
272,54,8827,2,0,L|367:40,1,85.0000016212464,8|8,0:0|0:0,0:0:0:0:
365,83,9084,1,0,0:0:0:0:
394,114,9170,1,0,0:0:0:0:
434,127,9256,1,0,0:0:0:0:
475,121,9341,1,0,0:0:0:0:
360,218,9513,2,0,P|345:268|357:318,1,85.0000016212464
478,249,9856,70,0,B|433:269|433:269|479:288,1,97.4999955368044,2|0,0:0|0:0,0:0:0:0:
473,370,10198,54,0,B|432:354|432:354|375:363,1,85.0000016212464,8|0,0:0|0:0,0:0:0:0:
198,345,10541,2,0,B|239:361|239:361|296:352,1,85.0000016212464
105,279,10884,2,0,L|19:297,1,85.0000016212464,8|0,0:0|0:0,0:0:0:0:
198,345,11227,1,0,0:0:0:0:
228,267,11398,1,0,0:0:0:0:
183,130,11570,1,8,0:0:0:0:
12,105,11913,102,0,P|48:126|62:127,1,42.5000008106232
142,139,12084,2,0,P|170:136|185:128,1,42.5000008106232
282,62,12256,2,0,L|391:78,1,85.0000016212464,8|0,0:0|0:0,0:0:0:0:
183,130,12770,5,0,0:0:0:0:
130,33,12941,2,0,L|216:47,1,64.9999970245363,8|0,0:0|0:0,0:0:0:0:
12,105,13284,2,0,B|4:68|4:68|10:25,1,75.0000028610231
183,130,13627,2,0,B|191:167|191:167|185:210,1,75.0000028610231,8|0,0:0|0:0,0:0:0:0:
55,307,14141,101,0,0:0:0:0:
128,280,14313,2,0,L|183:290,1,55.0000016784668,8|0,0:0|0:0,0:0:0:0:
291,324,14656,2,0,L|369:314,1,64.9999970245363
175,202,14998,2,0,L|88:187,1,75.0000028610231,8|0,0:0|0:0,0:0:0:0:
291,324,15341,6,0,P|415:312|434:277,1,170.000003242493,4|8,0:0|0:0,0:0:0:0:
258,209,15856,1,0,0:0:0:0:
347,245,16027,2,0,P|355:202|341:158,1,85.0000016212464
188,106,16370,2,0,P|180:63|194:19,1,85.0000016212464,8|0,0:0|0:0,0:0:0:0:
382,78,16713,102,0,B|326:105|280:70|280:70|294:91|282:128,1,142.49999619484
335,8,17056,1,8,0:0:0:0:
188,106,17227,1,0,0:0:0:0:
245,183,17398,5,0,0:0:0:0:
214,198,17484,1,0,0:0:0:0:
180,201,17570,1,0,0:0:0:0:
147,189,17656,1,0,0:0:0:0:
121,166,17741,2,0,L|134:280,1,85.0000016212464,8|0,0:0|0:0,0:0:0:0:
12,126,18084,102,0,B|2:82|2:82|9:38,1,85.0000016212464
178,22,18427,2,0,B|190:65|190:65|187:113,1,85.0000016212464,8|0,0:0|0:0,0:0:0:0:
130,250,18770,2,0,L|120:165,1,85.0000016212464
75,335,19113,1,8,0:0:0:0:
221,264,19284,2,0,P|295:262|368:355,1,170.000003242493
451,281,19798,5,8,0:0:0:0:
376,199,19970,2,0,P|372:178|373:145,1,42.5000008106232,8|0,0:0|0:0,0:0:0:0:
445,79,20141,2,0,P|446:58|442:21,1,42.5000008106232,8|0,0:0|0:0,0:0:0:0:
493,160,20313,1,0,0:0:0:0:
337,64,20484,2,0,L|225:85,1,85.0000016212464,8|0,0:0|0:0,0:0:0:0:
156,147,20827,102,0,B|119:97|148:28|148:28|172:40|184:84,1,170.000003242493,0|8,0:0|0:0,0:0:0:0:
194,217,21341,2,0,P|154:229|116:215,1,85.0000016212464
62,129,21684,1,0,0:0:0:0:
9,240,21856,2,0,L|0:326,1,85.0000016212464,8|0,0:0|0:0,0:0:0:0:
62,129,22370,5,0,0:0:0:0:
163,299,22541,2,0,L|258:286,1,85.0000016212464,8|0,0:0|0:0,0:0:0:0:
448,221,22884,1,0,0:0:0:0:
405,222,22970,1,0,0:0:0:0:
364,209,23056,1,0,0:0:0:0:
330,180,23141,1,0,0:0:0:0:
305,144,23227,2,0,P|294:99|305:40,1,85.0000016212464,8|0,0:0|0:0,0:0:0:0:
87,46,23741,101,0,0:0:0:0:
160,117,23913,2,0,P|169:173|164:207,1,85.0000016212464,8|0,0:0|0:0,0:0:0:0:
90,291,24256,2,0,B|45:299|45:299|0:286,1,85.0000016212464,2|0,0:0|0:0,0:0:0:0:
127,362,24513,1,2,0:0:0:0:
127,362,24598,2,0,B|171:356|171:356|210:366,1,85.0000016212464,8|0,0:0|0:0,0:0:0:0:
214,285,24941,70,0,L|172:275,1,42.5000008106232,8|0,0:0|0:0,0:0:0:0:
287,327,25113,2,0,L|371:315,1,85.0000016212464
172,275,25456,102,0,L|48:247,1,110.000003356934,8|0,0:0|0:0,0:0:0:0:
292,241,25970,6,0,B|385:224|385:224|446:240,1,127.50000243187,8|0,0:0|0:0,0:0:0:0:
498,147,26313,70,0,B|468:156|468:156|389:132,1,100,4|0,0:0|0:0,0:0:0:0:
256,42,26656,1,0,0:0:0:0:
270,140,26827,1,0,0:0:0:0:
156,183,26998,6,0,P|143:128|158:84,1,100,0|8,0:0|0:0,0:0:0:0:
344,35,27341,2,0,L|443:58,1,100,0|8,0:0|0:0,0:0:0:0:
256,42,28027,101,0,0:0:0:0:
168,100,28198,1,0,0:0:0:0:
72,52,28370,1,0,0:0:0:0:
60,84,28456,1,0,0:0:0:0:
60,120,28541,1,0,0:0:0:0:
76,152,28627,1,0,0:0:0:0:
102,178,28713,2,0,L|-12:192,1,100
180,247,29056,6,0,B|331:221|331:221|285:292,1,200,8|0,0:0|0:0,0:0:0:0:
243,339,29570,1,0,0:0:0:0:
204,155,29741,2,0,L|310:137,1,100,0|8,0:0|0:0,0:0:0:0:
499,214,30084,2,0,P|441:225|404:202,1,100,2|8,0:0|0:0,0:0:0:0:
494,40,30427,101,0,0:0:0:0:
463,134,30598,1,0,0:0:0:0:
365,22,30770,1,0,0:0:0:0:
273,177,30941,1,2,0:0:0:0:
225,192,31027,1,0,0:0:0:0:
175,186,31113,1,2,0:0:0:0:
136,154,31198,1,0,0:0:0:0:
120,106,31284,1,8,0:0:0:0:
320,258,31456,6,0,P|329:296|330:333,2,50
214,102,31798,6,0,B|208:68|189:49|189:49|208:59|240:51,1,97.4999955368044
407,80,32141,86,0,L|308:77,1,100
489,27,32484,2,0,P|508:76|488:140,1,100,0|8,0:0|0:0,0:0:0:0:
371,275,32827,2,0,P|352:224|366:164,1,100,0|8,0:0|0:0,0:0:0:0:
443,346,33341,5,8,0:0:0:0:
272,282,33513,2,0,L|393:274,1,100
209,356,33856,1,0,0:0:0:0:
180,315,33941,1,0,0:0:0:0:
173,265,34027,1,0,0:0:0:0:
191,218,34113,1,0,0:0:0:0:
220,178,34198,1,0,0:0:0:0:
216,127,34284,1,0,0:0:0:0:
191,82,34370,1,0,0:0:0:0:
272,282,34713,101,0,0:0:0:0:
116,156,34884,2,0,B|70:149|70:149|9:169,1,100
272,282,35227,2,0,B|318:289|318:289|379:269,1,100,0|8,0:0|0:0,0:0:0:0:
442,155,35570,5,2,0:0:0:0:
416,37,35741,1,0,0:0:0:0:
305,186,35913,101,0,0:0:0:0:
317,65,36084,1,0,0:0:0:0:
196,150,36256,5,0,0:0:0:0:
184,29,36427,1,0,0:0:0:0:
80,162,36598,102,0,L|85:111,2,50,0|0|8,0:0|0:0|0:0,0:0:0:0:
63,261,36941,2,0,B|121:252|121:252|173:267,1,100
292,369,37284,6,0,P|341:369|380:340,1,100,4|0,0:0|0:0,0:0:0:0:
262,143,37627,1,0,0:0:0:0:
250,242,37798,1,0,0:0:0:0:
365,103,37970,2,0,P|416:93|473:84,1,100,0|8,0:0|0:0,0:0:0:0:
273,44,38313,1,0,0:0:0:0:
161,181,38484,2,0,P|112:174|53:163,1,100,8|0,0:0|0:0,0:0:0:0:
250,242,38998,101,0,0:0:0:0:
461,202,39341,1,0,0:0:0:0:
412,209,39427,1,0,0:0:0:0:
370,236,39513,1,0,0:0:0:0:
346,280,39598,1,0,0:0:0:0:
344,330,39684,2,0,L|445:321,1,100,2|0,0:0|0:0,0:0:0:0:
250,242,40027,6,0,L|132:253,1,100,8|0,0:0|0:0,0:0:0:0:
0,371,40370,1,0,0:0:0:0:
61,283,40541,1,0,0:0:0:0:
0,107,40713,2,0,L|12:206,1,100
58,29,41056,1,0,0:0:0:0:
58,29,41141,1,0,0:0:0:0:
58,29,41227,1,0,0:0:0:0:
168,103,41398,102,0,B|258:68|258:144|379:87,1,200
434,177,41913,2,0,P|382:198|357:196,1,50,2|0,0:0|0:0,0:0:0:0:
262,204,42084,2,0,P|237:201|214:190,1,50,2|0,0:0|0:0,0:0:0:0:
135,28,42256,1,8,0:0:0:0:
69,134,42427,2,0,P|81:188|76:218,1,50,8|0,0:0|0:0,0:0:0:0:
85,296,42598,1,0,0:0:0:0:
85,296,42770,6,0,P|142:251|237:272,1,150
270,303,43113,2,0,L|261:192,1,100
173,342,43456,1,0,0:0:0:0:
360,250,43627,2,0,B|408:241|408:241|462:261,1,100
398,342,43970,1,0,0:0:0:0:
414,141,44141,1,0,0:0:0:0:
414,141,44484,101,0,0:0:0:0:
322,167,44656,2,0,B|205:198|205:198|243:125,1,170.000003242493
272,83,45084,1,0,0:0:0:0:
222,75,45170,1,0,0:0:0:0:
174,92,45256,1,0,0:0:0:0:
146,132,45341,1,0,0:0:0:0:
175,268,45513,6,0,B|203:285|213:330|213:330|214:286|255:253,1,150,8|0,0:0|0:0,0:0:0:0:
117,344,45856,1,0,0:0:0:0:
310,334,46027,2,0,L|426:347,1,100
482,193,46370,1,0,0:0:0:0:
497,291,46541,1,0,0:0:0:0:
394,174,46713,6,0,B|421:95|503:105|503:105|451:63|476:8,1,239.999992675781,4|0,0:0|0:0,0:0:0:0:
337,82,47570,21,0,0:0:0:0:
300,116,47656,1,0,0:0:0:0:
250,121,47741,1,0,0:0:0:0:
203,101,47827,1,0,0:0:0:0:
173,60,47913,2,0,L|60:82,1,100
3,179,48256,6,0,B|138:152|138:152|119:205,1,179.999994506836,8|0,0:0|0:0,0:0:0:0:
0,267,48598,2,0,L|71:253,1,69.9999978637696
208,200,48770,102,0,B|192:248|192:248|206:306,1,100,8|4,0:0|0:0,0:0:0:0:
315,354,49113,1,0,0:0:0:0:
336,365,49198,1,0,0:0:0:0:
360,367,49284,1,0,0:0:0:0:
384,363,49370,1,0,0:0:0:0:
405,350,49456,1,0,0:0:0:0:
418,329,49541,1,0,0:0:0:0:
421,304,49627,5,0,0:0:0:0:
411,270,49713,1,0,0:0:0:0:
416,234,49798,1,0,0:0:0:0:
435,204,49884,1,0,0:0:0:0:
476,185,49970,1,0,0:0:0:0:
501,147,50056,1,0,0:0:0:0:
498,102,50141,1,0,0:0:0:0:
475,62,50227,1,0,0:0:0:0:
432,47,50313,1,0,0:0:0:0:
294,125,50484,1,0,0:0:0:0:
409,129,50656,102,0,B|353:162|293:124|293:124|318:164|292:206,1,194.999991073609,8|0,0:0|0:0,0:0:0:0:
217,166,50998,6,0,P|206:125|220:79,1,80,8|0,0:0|0:0,0:0:0:0:
355,50,51341,1,0,0:0:0:0:
66,81,51513,102,0,L|132:73,1,59.9999981689454,8|0,0:0|0:0,0:0:0:0:
298,194,51856,1,0,0:0:0:0:
283,220,51941,1,0,0:0:0:0:
262,241,52027,1,0,0:0:0:0:
233,250,52113,1,0,0:0:0:0:
203,252,52198,1,0,0:0:0:0:
175,239,52284,1,0,0:0:0:0:
142,212,52370,5,0,0:0:0:0:
103,193,52456,1,0,0:0:0:0:
61,198,52541,1,0,0:0:0:0:
25,220,52627,1,0,0:0:0:0:
8,271,52713,1,0,0:0:0:0:
18,323,52798,1,0,0:0:0:0:
60,356,52884,1,0,0:0:0:0:
114,355,52970,1,0,0:0:0:0:
159,326,53056,102,0,L|228:319,2,59.9999981689454
218,160,53398,1,8,0:0:0:0:
218,160,53484,1,8,0:0:0:0:
218,160,53570,1,0,0:0:0:0:
364,355,53741,6,0,B|429:369|429:369|541:339,1,150
498,248,54084,102,0,L|405:271,1,69.9999978637696
273,207,54256,2,0,L|422:169,1,119.999996337891,0|4,0:0|0:0,0:0:0:0:
286,291,54598,1,0,0:0:0:0:
261,294,54684,1,0,0:0:0:0:
236,289,54770,1,0,0:0:0:0:
216,273,54856,1,0,0:0:0:0:
199,254,54941,1,0,0:0:0:0:
189,230,55027,1,0,0:0:0:0:
186,194,55113,5,0,0:0:0:0:
197,161,55198,1,0,0:0:0:0:
205,126,55284,1,0,0:0:0:0:
199,91,55370,1,0,0:0:0:0:
171,54,55456,1,0,0:0:0:0:
129,37,55541,1,0,0:0:0:0:
82,45,55627,1,0,0:0:0:0:
46,75,55713,1,0,0:0:0:0:
32,115,55798,101,0,0:0:0:0:
41,159,55884,1,0,0:0:0:0:
69,193,55970,1,0,0:0:0:0:
273,207,56141,1,8,0:0:0:0:
119,122,56313,1,0,0:0:0:0:
119,122,56398,1,0,0:0:0:0:
119,122,56484,6,0,B|177:93|218:138|218:138|250:106|321:127,1,179.999994506836,8|0,0:0|0:0,0:0:0:0:
211,35,56827,2,0,P|168:25|138:29,1,59.9999981689454
306,47,56998,2,0,P|330:45|363:32,1,50
446,121,57341,101,0,0:0:0:0:
426,150,57427,1,0,0:0:0:0:
423,185,57513,1,0,0:0:0:0:
434,217,57598,1,0,0:0:0:0:
453,246,57684,1,0,0:0:0:0:
459,280,57770,1,0,0:0:0:0:
452,316,57856,5,0,0:0:0:0:
511,177,58027,1,0,0:0:0:0:
366,275,58198,2,0,B|240:282|240:282|287:247,1,179.999994506836
153,235,58541,2,0,L|211:193,1,69.9999978637696
66,194,58713,1,0,0:0:0:0:
102,168,58798,1,0,0:0:0:0:
138,141,58884,1,0,0:0:0:0:
175,116,58970,1,0,0:0:0:0:
133,98,59056,1,0,0:0:0:0:
11,206,59227,102,0,P|60:249|29:188,1,150,8|0,0:0|0:0,0:0:0:0:
21,61,59570,6,0,P|15:102|34:148,1,59.9999981689454
152,256,59741,2,0,P|158:215|141:163,1,59.9999981689454,8|0,0:0|0:0,0:0:0:0:
256,126,60083,101,0,0:0:0:0:
279,135,60170,1,0,0:0:0:0:
303,138,60256,1,0,0:0:0:0:
327,138,60341,1,0,0:0:0:0:
351,133,60427,1,0,0:0:0:0:
372,120,60512,1,0,0:0:0:0:
389,90,60598,5,0,0:0:0:0:
417,69,60684,1,0,0:0:0:0:
451,63,60770,1,0,0:0:0:0:
483,75,60856,1,0,0:0:0:0:
510,109,60941,1,0,0:0:0:0:
511,154,61027,1,0,0:0:0:0:
486,191,61113,1,0,0:0:0:0:
464,230,61198,1,0,0:0:0:0:
469,274,61283,101,0,0:0:0:0:
512,362,61456,1,8,0:0:0:0:
377,273,61627,2,0,B|318:244|268:283|268:283|237:245|281:204,1,179.999994506836,8|0,0:0|0:0,0:0:0:0:
329,359,61970,6,0,P|285:384|217:362,1,100,8|0,0:0|0:0,0:0:0:0:
62,308,62313,102,0,P|80:308|146:239,1,69.9999978637696
158,190,62484,2,0,L|8:180,1,119.999996337891,8|4,0:0|0:0,0:0:0:0:
224,255,62827,5,0,0:0:0:0:
237,233,62913,1,0,0:0:0:0:
244,209,62998,1,0,0:0:0:0:
247,184,63084,1,0,0:0:0:0:
241,159,63170,1,0,0:0:0:0:
228,137,63256,1,0,0:0:0:0:
204,111,63341,101,0,0:0:0:0:
193,77,63427,1,0,0:0:0:0:
200,42,63513,1,0,0:0:0:0:
226,19,63598,1,0,0:0:0:0:
269,7,63684,1,0,0:0:0:0:
312,19,63770,1,0,0:0:0:0:
337,56,63856,1,0,0:0:0:0:
339,100,63941,5,0,0:0:0:0:
322,141,64027,1,8,0:0:0:0:
325,186,64113,1,0,0:0:0:0:
345,225,64198,1,0,0:0:0:0:
488,152,64370,2,0,L|473:52,1,100
345,225,64713,102,0,B|338:268|338:268|348:304|348:304|338:340|338:340|345:371,1,150,8|0,0:0|0:0,0:0:0:0:
432,335,65056,6,0,B|440:299|440:299|427:261,1,69.9999978637696
252,244,65227,2,0,B|243:273|243:273|256:306|256:306|246:339|246:339|253:366,1,119.999996337891,8|4,0:0|0:0,0:0:0:0:
422,200,65570,101,0,0:0:0:0:
410,177,65656,1,0,0:0:0:0:
392,159,65741,1,0,0:0:0:0:
369,148,65827,1,0,0:0:0:0:
343,146,65913,1,0,0:0:0:0:
318,151,65998,1,0,0:0:0:0:
289,170,66084,5,0,0:0:0:0:
258,186,66170,1,0,0:0:0:0:
222,187,66256,1,0,0:0:0:0:
190,172,66341,1,0,0:0:0:0:
164,135,66427,1,0,0:0:0:0:
160,89,66513,1,0,0:0:0:0:
138,49,66598,1,0,0:0:0:0:
96,31,66684,1,0,0:0:0:0:
51,36,66770,101,0,0:0:0:0:
13,61,66856,1,0,0:0:0:0:
0,104,66941,1,0,0:0:0:0:
74,205,67113,1,8,0:0:0:0:
251,100,67284,1,0,0:0:0:0:
251,100,67370,1,0,0:0:0:0:
251,100,67456,6,0,B|297:54|369:68|369:68|366:89|317:134,1,179.999994506836
199,41,67798,102,0,P|226:21|277:0,1,69.9999978637696
450,118,67970,2,0,P|383:133|322:85,1,119.999996337891,0|4,0:0|0:0,0:0:0:0:
492,23,68313,5,0,0:0:0:0:
512,177,68484,2,0,L|502:289,1,100
350,268,68827,1,0,0:1:0:0:
355,223,68913,1,0,0:0:0:0:
362,178,68998,1,8,0:0:0:0:
300,343,69170,1,0,0:0:0:0:
430,322,69341,1,0,0:0:0:0:
247,245,69513,101,8,0:0:0:0:
137,353,69684,1,0,0:0:0:0:
126,303,69770,1,0,0:0:0:0:
116,253,69856,1,0,0:0:0:0:
106,204,69941,1,0,0:0:0:0:
94,155,70027,1,0,0:0:0:0:
19,243,70198,53,0,0:0:0:0:
35,77,70370,2,0,P|77:57|151:77,1,100
314,187,70713,1,0,0:0:0:0:
314,187,70798,1,0,0:0:0:0:
314,187,70884,2,0,L|197:173,1,100
393,117,71227,2,0,L|337:31,1,100,8|0,0:0|0:0,0:0:0:0:
498,131,71570,6,0,L|503:25,1,100
314,187,71913,1,8,0:0:0:0:
512,254,72084,1,0,0:0:0:0:
489,299,72170,1,0,0:0:0:0:
447,326,72256,1,0,0:0:0:0:
397,329,72341,1,0,0:0:0:0:
350,310,72427,1,0,0:0:0:0:
393,117,72598,1,8,0:0:0:0:
420,237,72770,1,0,0:0:0:0:
498,131,72941,102,0,B|510:5|510:5|461:67,1,179.999994506836
314,187,73284,2,0,P|261:189|219:155,1,100,8|0,0:0|0:0,0:0:0:0:
127,172,73627,5,0,0:0:0:0:
202,29,73798,1,0,0:0:0:0:
39,143,73970,101,8,0:0:0:0:
21,45,74141,1,0,0:0:0:0:
21,45,74227,1,0,0:0:0:0:
21,45,74313,1,0,0:0:0:0:
56,241,74484,1,0,0:0:0:0:
39,143,74656,1,8,0:0:0:0:
3,322,74827,5,0,0:0:0:0:
47,344,74913,1,0,0:0:0:0:
96,339,74998,1,0,0:0:0:0:
139,313,75084,1,0,0:0:0:0:
158,266,75170,1,0,0:0:0:0:
39,143,75341,2,0,L|61:265,1,100,8|0,0:0|0:0,0:0:0:0:
176,123,75684,102,0,B|183:9|183:9|145:85,1,179.999994506836
248,196,76027,2,0,L|366:177,1,119.999996337891,8|0,0:0|0:0,0:0:0:0:
219,295,76370,1,0,0:0:0:0:
271,94,76541,1,0,0:0:0:0:
248,196,76713,1,8,0:0:0:0:
430,102,76884,1,0,0:0:0:0:
430,102,76970,1,0,0:0:0:0:
430,102,77056,5,0,0:0:0:0:
350,29,77227,1,0,0:0:0:0:
503,48,77398,2,0,P|521:104|509:148,1,100,8|0,0:0|0:0,0:0:0:0:
373,287,77741,2,0,P|355:240|364:192,1,100
437,361,78084,1,8,0:0:0:0:
267,229,78256,1,0,0:0:0:0:
267,229,78341,1,0,0:0:0:0:
267,229,78427,102,0,B|197:194|139:234|139:234|164:296,1,179.999994506836
234,343,78770,1,8,0:0:0:0:
296,146,78941,2,0,P|227:128|179:132,1,100
40,194,79284,1,0,0:0:0:0:
72,36,79456,5,8,0:0:0:0:
77,49,79541,1,0,0:0:0:0:
82,62,79627,1,0,0:0:0:0:
87,76,79713,1,0,0:0:0:0:
91,90,79798,102,0,L|145:78,1,50
295,145,79970,2,0,L|246:138,1,50,8|0,0:0|0:0,0:0:0:0:
399,43,80141,6,0,L|454:31,1,50,8|0,0:0|0:0,0:0:0:0:
230,32,80313,2,0,P|256:34|288:40,1,50
381,121,80484,102,0,P|389:147|391:173,1,50,8|0,0:0|0:0,0:0:0:0:
372,294,80656,2,0,P|354:312|331:325,1,50
95,259,80827,6,0,L|159:279,1,50
227,370,80998,2,0,L|163:350,1,50
82,166,81170,102,0,B|139:180|139:180|216:157,1,100
353,221,81513,2,0,B|314:209|314:209|256:223,1,100,8|0,0:0|0:0,0:0:0:0:
267,256,81770,1,0,0:0:0:0:
278,289,81856,1,0,0:0:0:0:
448,232,82027,1,0,0:0:0:0:
468,352,82198,1,8,0:0:0:0:
428,107,82370,1,0,0:0:0:0:
329,136,82541,5,0,0:0:0:0:
510,166,82713,1,0,0:0:0:0:
435,13,82884,1,8,0:0:0:0:
397,218,83056,1,0,0:0:0:0:
353,241,83141,1,0,0:0:0:0:
302,238,83227,1,0,0:0:0:0:
258,212,83313,1,0,0:0:0:0:
237,167,83398,1,0,0:0:0:0:
140,26,83570,2,0,B|159:78|159:78|143:141,1,100,8|0,0:0|0:0,0:0:0:0:
20,268,83913,102,0,B|4:220|4:220|18:154,1,100
218,224,84256,2,0,L|106:217,1,100,8|0,0:0|0:0,0:0:0:0:
118,217,84513,1,0,0:0:0:0:
118,217,84598,1,0,0:0:0:0:
262,318,84770,1,0,0:0:0:0:
322,238,84941,1,8,0:0:0:0:
271,90,85113,1,0,0:0:0:0:
419,193,85284,6,0,P|478:202|518:173,1,100
308,23,85627,2,0,P|249:14|209:43,1,100,8|0,0:0|0:0,0:0:0:0:
300,234,85970,1,0,0:0:0:0:
350,85,86141,1,0,0:0:0:0:
188,115,86313,1,8,0:0:0:0:
459,119,86484,1,0,0:0:0:0:
459,119,86570,1,0,0:0:0:0:
459,119,86656,102,0,L|461:6,1,100
291,162,86998,2,0,L|303:277,1,100,8|0,0:0|0:0,0:0:0:0:
376,341,87341,1,0,0:0:0:0:
422,252,87513,1,0,0:0:0:0:
187,262,87684,1,8,0:0:0:0:
233,351,87856,1,0,0:0:0:0:
385,163,88027,6,0,P|433:167|493:176,1,100
203,98,88370,2,0,P|155:102|95:111,1,100
259,240,88713,1,0,0:0:0:0:
316,36,88884,1,0,0:0:0:0:
259,240,89056,1,8,0:0:0:0:
316,36,89227,2,0,L|301:103,1,59.9999981689454
259,240,89398,102,0,L|283:364,1,119.999996337891
385,163,89741,1,8,0:0:0:0:
153,180,89913,1,0,0:0:0:0:
153,180,89998,1,0,0:0:0:0:
153,180,90084,2,0,L|172:286,1,100,0|8,0:0|0:0,0:0:0:0:
207,78,90427,2,0,P|158:56|107:65,1,100,8|0,0:0|0:0,0:0:0:0:
285,176,90770,5,0,0:0:0:0:
285,176,90856,1,0,0:0:0:0:
285,176,90941,2,0,L|390:162,1,100,0|8,0:0|0:0,0:0:0:0:
256,275,91284,1,0,0:0:0:0:
306,61,91456,101,8,0:0:0:0:
346,32,91541,1,0,0:0:0:0:
396,29,91627,1,0,0:0:0:0:
439,53,91713,1,0,0:0:0:0:
461,97,91798,1,0,0:0:0:0:
457,147,91884,1,0,0:0:0:0:
421,182,91970,1,0,0:0:0:0:
410,230,92056,1,0,0:0:0:0:
429,275,92141,5,2,0:0:0:0:
381,202,102256,5,0,0:0:0:0:
453,199,102427,6,0,P|342:263|317:170,1,262.500010013581
368,119,103113,6,0,L|382:205,1,85.0000016212464
228,184,103456,2,0,L|221:278,1,85.0000016212464
72,124,103798,2,0,L|88:220,1,85.0000016212464
12,52,104141,1,8,0:0:0:0:
144,16,104313,1,0,0:0:0:0:
86,207,104656,5,0,0:0:0:0:
72,124,104827,1,8,0:0:0:0:
228,184,104998,101,0,0:0:0:0:
222,268,105170,1,8,0:0:0:0:
382,203,105341,5,0,0:0:0:0:
368,120,105513,1,8,0:0:0:0:
144,16,105684,1,0,0:0:0:0:
152,56,105770,1,0,0:0:0:0:
160,96,105856,102,0,L|264:84,1,85.0000016212464,8|0,0:0|0:0,0:0:0:0:
137,187,106198,6,0,L|223:178,1,75.0000028610231
118,281,106541,102,0,L|192:273,1,64.9999970245363
104,384,106884,1,2,0:0:0:0:
46,325,107056,2,0,P|34:269|58:218,1,97.4999955368044
118,281,107398,2,0,L|202:270,1,64.9999970245363,0|2,0:0|0:0,0:0:0:0:
261,305,107741,1,0,0:0:0:0:
411,277,107913,5,2,0:0:0:0:
421,189,108084,1,0,0:0:0:0:
303,101,108256,1,2,0:0:0:0:
326,205,108427,1,0,0:0:0:0:
379,53,108598,102,0,B|248:46,1,127.50000243187,8|0,0:0|0:0,0:0:0:0:
188,90,108941,2,0,P|173:49|188:2,1,85.0000016212464,8|0,0:0|0:0,0:0:0:0:
379,53,109284,2,0,P|394:94|379:141,1,85.0000016212464,8|0,0:0|0:0,0:0:0:0:
237,169,109627,1,8,0:0:0:0:
384,250,109798,6,0,B|426:240|426:240|496:257,1,85.0000016212464,0|8,0:0|0:0,0:0:0:0:
304,344,110141,2,0,B|266:352|266:352|192:337,1,85.0000016212464,0|8,0:0|0:0,0:0:0:0:
107,226,110484,1,0,0:0:0:0:
118,309,110656,1,8,0:0:0:0:
19,140,110827,101,0,0:0:0:0:
4,223,110998,1,8,0:0:0:0:
123,91,111170,1,0,0:0:0:0:
157,80,111256,1,0,0:0:0:0:
198,84,111341,6,0,P|215:126|208:182,1,85.0000016212464,8|0,0:0|0:0,0:0:0:0:
161,344,111684,2,0,P|148:302|157:258,1,85.0000016212464,8|0,0:0|0:0,0:0:0:0:
331,309,112027,2,0,L|217:297,1,85.0000016212464,8|0,0:0|0:0,0:0:0:0:
424,353,112370,1,8,0:0:0:0:
306,130,112541,1,0,0:0:0:0:
301,171,112627,1,0,0:0:0:0:
299,214,112713,101,0,0:0:0:0:
449,37,112884,1,0,0:0:0:0:
406,31,112970,1,0,0:0:0:0:
363,26,113056,1,0,0:0:0:0:
320,23,113141,1,0,0:0:0:0:
277,20,113227,1,0,0:0:0:0:
61,126,113398,86,0,B|95:116|123:125|123:125|161:138|206:116|206:116|257:128|305:129|305:129|251:128|205:143|205:163,1,350,2|0,0:0|0:0,0:0:0:0:
209,153,114084,5,4,0:0:0:0:
71,280,119570,38,0,L|142:262,1,50,8|0,0:0|0:0,0:0:0:0:
216,327,119913,2,0,L|295:305,1,59.9999981689454,8|0,0:0|0:0,0:0:0:0:
305,301,120170,1,0,0:0:0:0:
333,291,120256,1,8,0:0:0:0:
145,367,120427,1,0,0:0:0:0:
270,217,120598,6,0,L|349:188,1,80,8|0,0:0|0:0,0:0:0:0:
158,195,120941,102,0,B|137:89|137:89|182:122,1,150,8|0,0:0|0:0,0:0:0:0:
67,47,121284,2,0,P|116:12|181:25,1,100,8|0,0:0|0:0,0:0:0:0:
266,33,121541,2,0,L|336:26,2,50
241,70,121798,1,0,0:0:0:0:
236,119,121884,1,0,0:0:0:0:
257,164,121970,2,0,L|415:148,1,150,8|0,0:0|0:0,0:0:0:0:
407,149,122313,5,8,0:0:0:0:
138,90,122484,1,0,0:0:0:0:
166,268,122656,2,0,L|241:260,1,50,8|0,0:0|0:0,0:0:0:0:
317,316,122827,2,0,L|386:307,1,50
464,227,122998,5,8,0:0:0:0:
499,191,123084,1,0,0:0:0:0:
508,141,123170,1,0,0:0:0:0:
492,93,123256,1,0,0:0:0:0:
453,61,123341,1,8,0:0:0:0:
403,55,123427,1,0,0:0:0:0:
354,68,123513,1,0,0:0:0:0:
322,106,123598,1,0,0:0:0:0:
308,154,123684,6,0,L|321:215,1,50,8|0,0:0|0:0,0:0:0:0:
184,103,123856,2,0,L|197:42,1,50
40,35,124027,2,0,L|54:101,1,50,8|0,0:0|0:0,0:0:0:0:
144,231,124198,2,0,L|157:170,1,50
0,163,124370,2,0,L|14:229,1,50,8|0,0:0|0:0,0:0:0:0:
100,356,124541,2,0,L|113:295,1,50
154,182,124713,101,8,0:0:0:0:
393,251,125056,22,0,P|401:321|349:275,1,179.999994506836,4|0,0:0|0:0,0:0:0:0:
489,227,125398,6,0,P|508:279|507:305,1,69.9999978637696,8|0,0:0|0:0,0:0:0:0:
289,364,125570,2,0,P|270:332|282:232,1,119.999996337891
465,122,125913,102,0,L|386:107,1,59.9999981689454,2|0,0:0|0:0,0:0:0:0:
258,127,126084,2,0,B|348:101,1,59.9999981689454,10|0,0:0|0:0,0:0:0:0:
483,35,126256,6,0,B|346:13|346:13|209:47,1,225.000008583069
162,156,126598,1,0,0:0:0:0:
53,91,126770,1,8,0:0:0:0:
53,91,126856,1,0,0:0:0:0:
53,91,126941,2,0,P|40:55|50:16,1,69.9999978637696
162,156,127113,102,0,B|100:242|5:207|5:207|44:218|50:279,1,240
145,319,127456,2,0,L|236:296,1,80,8|0,0:0|0:0,0:0:0:0:
428,289,127627,2,0,L|306:320,1,69.9999978637696,2|0,0:0|0:0,0:0:0:0:
145,319,127798,6,0,B|277:285|277:285|259:340,1,179.999994506836
483,356,128141,102,0,P|453:371|374:355,1,69.9999978637696,8|0,0:0|0:0,0:0:0:0:
404,158,128313,2,0,B|441:222|427:288|427:288|396:265|381:226,1,179.999994506836
189,40,128656,1,0,0:0:0:0:
350,87,128827,6,0,P|303:99|266:88,1,80,8|0,0:0|0:0,0:0:0:0:
144,207,128998,2,0,B|182:190|208:193|208:193|226:197|237:202|237:202|266:189|307:185|307:185|235:186|178:129,1,240,2|0,0:0|0:0,0:0:0:0:
88,62,129341,1,0,0:0:0:0:
273,91,129513,102,0,P|347:88|383:-13,1,139.999995727539,8|0,0:0|0:0,0:0:0:0:
88,62,129856,5,2,0:0:0:0:
67,90,129941,1,0,0:0:0:0:
68,132,130027,101,2,0:0:0:0:
96,163,130113,1,0,0:0:0:0:
96,218,130198,5,10,0:0:0:0:
75,262,130284,1,0,0:0:0:0:
75,318,130370,101,2,0:0:0:0:
107,364,130456,1,0,0:0:0:0:
185,290,130541,6,0,B|239:238|310:259|310:259|287:320,1,179.999994506836
174,204,130884,102,0,P|213:185|304:185,1,80,8|0,0:0|0:0,0:0:0:0:
438,272,131056,2,0,P|347:284|284:207,1,139.999995727539
512,384,131398,6,0,P|500:352|498:309,1,69.9999978637696,2|0,0:0|0:0,0:0:0:0:
363,109,131570,2,0,P|375:141|377:176,1,69.9999978637696,10|0,0:0|0:0,0:0:0:0:
498,190,131741,102,0,B|480:105|517:12|517:12|489:37|432:31,1,240
283,163,132084,1,0,0:0:0:0:
283,163,132170,1,0,0:0:0:0:
283,163,132256,6,0,B|194:178|194:178|111:120,1,139.999995727539,8|0,0:0|0:0,0:0:0:0:
166,324,132598,102,0,B|221:267|221:267|353:246,1,160
52,304,132941,6,0,B|117:241|117:241|21:175,1,179.999994506836,8|0,0:0|0:0,0:0:0:0:
62,42,133284,101,0,0:0:0:0:
89,119,133456,1,0,0:0:0:0:
43,190,133627,1,8,0:0:0:0:
147,56,133798,5,2,0:0:0:0:
331,175,133970,1,0,0:0:0:0:
230,22,134141,101,2,0:0:0:0:
259,285,134313,1,8,0:0:0:0:
467,117,134484,1,0,0:0:0:0:
467,117,134570,1,0,0:0:0:0:
467,117,134656,6,0,L|312:133,1,80
202,200,134827,1,0,0:0:0:0:
268,138,134998,102,0,L|402:124,1,120
202,200,135341,6,0,B|179:175|167:133|190:88|190:88|156:109|111:81,1,179.999994506836
268,138,135684,1,8,0:0:0:0:
279,184,135770,1,0,0:0:0:0:
287,229,135856,1,0,0:0:0:0:
298,275,135941,1,0,0:0:0:0:
308,321,136027,102,0,B|429:297|429:297|407:361,1,179.999994506836,4|0,0:0|0:0,0:0:0:0:
191,361,136370,6,0,L|216:253,1,80,8|0,0:0|0:0,0:0:0:0:
359,82,136541,2,0,B|379:152|379:152|354:252,1,139.999995727539
439,33,136884,102,0,L|467:122,1,69.9999978637696,2|0,0:0|0:0,0:0:0:0:
448,263,137056,2,0,L|471:169,1,69.9999978637696,10|0,0:0|0:0,0:0:0:0:
270,158,137227,6,0,B|195:146|195:146|146:166|146:166|55:149,1,209.999993591309
12,39,137570,1,0,0:0:0:0:
12,39,137656,1,0,0:0:0:0:
12,39,137741,102,0,B|134:56|134:56|86:3,1,179.999994506836,8|0,0:0|0:0,0:0:0:0:
66,151,138084,6,0,B|146:166|146:166|231:132,1,150
242,220,138427,102,0,B|191:243|191:243|261:264,1,104.999996795654,8|0,0:0|0:0,0:0:0:0:
64,190,138770,6,0,B|137:165|137:165|60:149,1,150.000005722046
123,337,139113,102,0,B|161:348|161:348|241:323,1,80,8|0,0:0|0:0,0:0:0:0:
349,270,139284,2,0,B|395:247|460:266|460:266|442:220|362:234,1,209.999993591309
368,347,139627,6,0,P|396:338|472:364,1,80,2|0,0:0|0:0,0:0:0:0:
481,168,139798,2,0,P|425:150|350:159,1,80,10|0,0:0|0:0,0:0:0:0:
187,175,139970,102,0,P|265:199|352:136,1,139.999995727539
415,21,140313,1,0,0:0:0:0:
216,57,140484,2,0,P|237:121|244:36,1,209.999993591309,8|0,0:0|0:0,0:0:0:0:
148,24,140827,6,0,P|139:58|139:97,1,59.9999981689454
187,175,140998,2,0,P|188:208|173:251,1,59.9999981689454
27,296,141170,1,8,0:0:0:0:
73,281,141256,1,0,0:0:0:0:
119,290,141341,1,0,0:0:0:0:
157,319,141427,1,0,0:0:0:0:
176,362,141513,102,0,L|321:348,1,119.999996337891
372,247,141856,6,0,L|468:233,1,80,8|0,0:0|0:0,0:0:0:0:
187,175,142027,2,0,L|326:159,1,139.999995727539
176,362,142370,102,0,L|249:356,1,69.9999978637696,2|0,0:0|0:0,0:0:0:0:
386,341,142541,2,0,L|459:332,1,69.9999978637696,10|0,0:0|0:0,0:0:0:0:
226,270,142713,6,0,B|179:284|146:270|130:257|130:257|79:282|48:275|48:275|62:237|113:233,1,240
246,356,143056,1,0,0:0:0:0:
248,95,143227,102,0,P|305:63|387:87,1,139.999995727539,8|0,0:0|0:0,0:0:0:0:
170,160,143570,6,0,P|141:105|180:6,1,150
248,95,143913,102,0,P|274:151|253:217,1,104.999996795654,8|0,0:0|0:0,0:0:0:0:
180,248,144256,5,0,0:0:0:0:
81,257,144427,1,0,0:0:0:0:
31,169,144598,1,8,0:0:0:0:
132,344,144770,101,2,0:0:0:0:
170,160,144941,1,0,0:0:0:0:
16,336,145113,5,2,0:0:0:0:
278,236,145284,1,8,0:0:0:0:
33,89,145456,1,0,0:0:0:0:
33,89,145541,1,0,0:0:0:0:
33,89,145627,102,0,B|108:106|173:59|173:59|161:95|192:142,1,209.999993591309
255,215,145970,6,0,B|239:152|291:153|250:69,1,134.999995880127
173,59,146313,102,0,L|357:43,1,175,2|0,0:0|0:0,0:0:0:0:
464,108,146998,6,0,B|448:172|448:172|468:216|468:216|444:296,1,179.999994506836,4|0,0:0|0:0,0:0:0:0:
335,240,147341,2,0,B|310:187|310:187|338:104,1,119.999996337891,8|0,0:0|0:0,0:0:0:0:
329,128,147598,1,0,0:0:0:0:
256,291,147770,2,0,L|295:386,1,59.9999981689454
178,199,148027,102,0,L|146:111,2,80,10|0|2,0:0|0:0|0:0,0:0:0:0:
153,308,148284,2,0,L|181:384,2,80,2|0|2,0:0|0:0|0:0,0:0:0:0:
72,96,148541,6,0,P|106:50|206:63,1,129.999994049073
281,245,148884,101,0,0:0:0:0:
281,245,148970,1,0,0:0:0:0:
281,245,149056,2,0,P|237:257|160:236,1,80,2|0,0:0|0:0,0:0:0:0:
230,159,149227,1,0,0:0:0:0:
311,328,149398,6,0,B|245:353|187:340|187:340|234:351|271:388,1,209.999993591309,8|0,0:0|0:0,0:0:0:0:
466,324,149741,101,0,0:0:0:0:
466,267,149827,1,0,0:0:0:0:
433,220,149913,1,0,0:0:0:0:
385,191,149998,1,0,0:0:0:0:
328,189,150084,6,0,P|315:160|318:119,1,69.9999978637696,8|0,0:0|0:0,0:0:0:0:
495,40,150256,102,0,B|454:17|404:10|358:54|358:54|362:25|352:4,1,179.999994506836
257,30,150598,6,0,P|254:63|269:100,1,69.9999978637696
433,125,150770,2,0,P|411:144|368:154,1,69.9999978637696,8|0,0:0|0:0,0:0:0:0:
168,17,150941,102,0,B|150:86|192:153|192:153|138:130,1,179.999994506836
37,222,151284,1,0,0:0:0:0:
37,222,151370,1,0,0:0:0:0:
37,222,151456,6,0,B|93:208|93:208|213:262,1,139.999995727539,8|0,0:0|0:0,0:0:0:0:
151,331,151713,2,0,L|62:293,1,80,2|0,0:0|0:0,0:0:0:0:
158,138,151884,2,0,L|259:185,1,80,2|0,0:0|0:0,0:0:0:0:
371,294,152141,1,8,0:0:0:0:
371,294,152227,102,0,B|315:311|315:311|217:264,1,139.999995727539
365,199,152484,6,0,B|486:159|486:159|434:231,1,179.999994506836
371,294,152827,1,8,0:0:0:0:
352,103,152998,102,0,L|525:47,1,150
270,163,153341,6,0,L|192:140,1,69.9999978637696
365,199,153513,102,0,L|450:172,2,80,10|0|0,0:0|0:0|0:0,0:0:0:0:
269,260,153770,2,0,L|182:235,2,80,2|0|0,0:0|0:0|0:0,0:0:0:0:
371,294,154027,1,0,0:0:0:0:
270,353,154198,6,0,B|186:329|186:329|141:366|198:410,1,139.999995727539,8|0,0:0|0:0,0:0:0:0:
82,383,154456,1,0,0:0:0:0:
82,383,154541,102,0,P|78:343|91:306,1,80
202,140,154713,2,0,P|210:178|199:216,1,80
13,135,154884,6,0,B|63:123|106:174|106:174|87:98|152:53,1,209.999993591309,8|0,0:0|0:0,0:0:0:0:
342,90,155227,102,0,P|279:158|182:115,1,179.999994506836
408,228,155570,6,0,P|403:194|416:112,1,80,8|0,0:0|0:0,0:0:0:0:
286,306,155741,2,0,P|286:240|315:310,1,209.999993591309,2|0,0:0|0:0,0:0:0:0:
198,313,156084,102,0,P|193:264|219:201,1,80
408,228,156256,2,0,P|418:266|414:307,1,80,8|0,0:0|0:0,0:0:0:0:
234,166,156427,1,0,0:0:0:0:
234,166,156513,6,0,P|289:146|407:187,1,139.999995727539
408,228,156770,1,0,0:0:0:0:
198,313,156941,1,8,0:0:0:0:
223,85,157113,1,0,0:0:0:0:
305,260,157284,102,0,B|248:280|248:280|96:224,1,179.999994506836,2|0,0:0|0:0,0:0:0:0:
29,171,157627,1,8,0:0:0:0:
33,223,157713,1,0,0:0:0:0:
39,270,157798,1,0,0:0:0:0:
46,317,157884,1,0,0:0:0:0:
51,364,157970,6,0,B|114:345|114:345|222:386,1,179.999994506836,6|0,0:0|0:0,0:0:0:0:
337,355,158313,102,0,P|302:301|344:222,1,139.999995727539,8|0,0:0|0:0,0:0:0:0:
508,292,158570,2,0,B|450:272|450:272|362:298,1,119.999996337891
422,360,158827,6,0,B|450:353|450:353|482:364,1,50,2|0,0:0|0:0,0:0:0:0:
512,199,158998,1,10,0:0:0:0:
512,199,159084,102,0,L|411:169,1,69.9999978637696
343,120,159256,1,2,0:0:0:0:
343,120,159341,2,0,L|444:90,1,69.9999978637696
259,71,159513,6,0,B|170:94|170:94|223:11,1,179.999994506836
238,159,159856,102,0,L|135:185,1,59.9999981689454,2|0,0:0|0:0,0:0:0:0:
40,208,160027,2,0,L|98:193,1,59.9999981689454
276,150,160198,5,2,0:0:0:0:
256,155,160284,1,0,0:0:0:0:
238,159,160370,2,0,B|98:193|98:193|152:210|164:276,1,209.999993591309,8|0,0:0|0:0,0:0:0:0:
20,363,160713,102,0,B|23:293|67:276|67:276|51:318|69:353,1,179.999994506836
234,329,161056,6,0,L|152:319,1,80,8|0,0:0|0:0,0:0:0:0:
328,267,161227,2,0,B|362:312|340:374|340:374|379:227,1,240
451,69,161570,102,0,B|463:109|463:109|450:189,1,80,2|0,0:0|0:0,0:0:0:0:
469,338,161741,2,0,B|457:298|457:298|470:218,1,80,10|0,0:0|0:0,0:0:0:0:
366,114,161913,1,0,0:0:0:0:
366,114,161998,1,0,0:0:0:0:
366,114,162084,6,0,L|258:98,1,69.9999978637696
89,50,162256,2,0,L|-30:77,1,80
204,158,162427,102,0,B|367:115|367:115|263:98,1,240,8|0,0:0|0:0,0:0:0:0:
89,50,162770,2,0,P|78:91|94:157,1,80
126,238,162941,1,0,0:0:0:0:
245,11,163113,1,8,0:0:0:0:
245,11,163198,2,0,L|78:53,1,160
48,155,163456,6,0,B|134:132|134:132|50:193,1,179.999994506836
89,50,163798,102,0,L|238:13,1,80,8|0,0:0|0:0,0:0:0:0:
336,147,163970,2,0,B|193:200|193:200|267:134,1,209.999993591309
354,37,164313,1,0,0:0:0:0:
459,144,164484,1,10,0:0:0:0:
459,144,164570,6,0,P|472:183|464:235,1,80
397,274,164741,1,2,0:0:0:0:
397,274,164827,2,0,P|389:314|397:353,1,80
302,377,164998,102,0,P|289:310|327:201,1,179.999994506836
195,381,165341,6,0,P|186:339|195:286,1,69.9999978637696
239,155,165513,2,0,P|220:182|204:229,1,69.9999978637696
89,338,165684,1,0,0:0:0:0:
89,338,165770,1,0,0:0:0:0:
89,338,165856,102,0,B|74:248|114:159|114:159|80:181|24:164,1,240,8|0,0:0|0:0,0:0:0:0:
74,78,166198,6,0,B|128:48|180:88|180:88|164:47|192:4,1,179.999994506836
353,44,166541,102,0,L|270:56,1,80,8|0,0:0|0:0,0:0:0:0:
116,180,166713,2,0,L|284:154,1,139.999995727539
304,152,166970,1,0,0:0:0:0:
296,200,167056,1,0,0:0:0:0:
292,248,167141,1,0,0:0:0:0:
288,296,167227,1,8,0:0:0:0:
400,240,167398,1,0,0:0:0:0:
190,223,167570,5,8,0:0:0:0:
365,360,167741,1,0,0:0:0:0:
304,152,167913,1,0,0:0:0:0:
212,345,168084,1,0,0:0:0:0:
400,240,168256,5,0,0:0:0:0:
365,360,168427,1,0,0:0:0:0:
264,80,168598,5,0,0:0:0:0:
296,200,168770,1,0,0:0:0:0:
380,24,168941,37,4,0:0:0:0:
484,100,169113,2,0,B|500:152|500:152|484:220,1,100
296,288,169456,1,0,0:0:0:0:
296,288,169541,1,0,0:0:0:0:
296,288,169627,6,0,L|420:276,1,100,8|0,0:0|0:0,0:0:0:0:
216,352,169970,2,0,L|92:340,1,100
115,140,170313,101,0,0:0:0:0:
154,270,170484,1,0,0:0:0:0:
136,44,170656,1,0,0:0:0:0:
32,218,170827,1,0,0:0:0:0:
32,218,170913,1,0,0:0:0:0:
32,218,170998,2,0,P|88:212|160:296,1,150,8|0,0:0|0:0,0:0:0:0:
168,304,171341,2,0,L|180:168,1,100
64,312,171684,5,0,0:0:0:0:
276,336,171856,1,0,0:0:0:0:
264,224,172027,1,0,0:0:0:0:
168,304,172198,1,0,0:0:0:0:
360,268,172370,102,0,P|368:204|356:172,1,100,8|0,0:0|0:0,0:0:0:0:
252,116,172713,1,0,0:0:0:0:
380,356,172884,1,0,0:0:0:0:
396,360,172970,1,0,0:0:0:0:
412,364,173056,6,0,B|460:372|460:372|520:352,1,100
264,224,173398,2,0,B|216:216|216:216|156:236,1,100
276,336,173741,1,8,0:0:0:0:
252,116,173913,1,0,0:0:0:0:
264,224,174084,1,0,0:0:0:0:
313,63,174256,1,0,0:0:0:0:
313,63,174341,1,0,0:0:0:0:
313,63,174427,102,0,B|369:75|445:47|445:47|419:65|415:105,1,179.999994506836
252,116,174770,6,0,P|236:84|245:20,1,69.9999978637696
490,110,174941,2,0,P|472:140|428:156,1,69.9999978637696
170,178,175113,101,8,0:0:0:0:
218,178,175198,1,0,0:0:0:0:
262,206,175284,1,0,0:0:0:0:
290,246,175370,1,0,0:0:0:0:
302,294,175456,1,0,0:0:0:0:
72,228,175627,5,0,0:0:0:0:
64,208,175713,1,0,0:0:0:0:
60,188,175798,1,0,0:0:0:0:
60,168,175884,1,0,0:0:0:0:
64,148,175970,1,0,0:0:0:0:
192,84,176141,101,0,0:0:0:0:
236,104,176227,1,0,0:0:0:0:
284,100,176313,1,0,0:0:0:0:
320,72,176398,1,0,0:0:0:0:
340,28,176484,1,8,0:0:0:0:
64,148,176656,5,0,0:0:0:0:
60,168,176741,1,0,0:0:0:0:
60,188,176827,1,0,0:0:0:0:
64,208,176913,1,0,0:0:0:0:
72,228,176998,1,0,0:0:0:0:
192,84,177170,102,0,P|125:14|149:111,1,255.000004863739
277,168,177856,5,8,0:0:0:0:
318,159,177941,1,0,0:0:0:0:
359,149,178027,1,0,0:0:0:0:
400,139,178113,1,0,0:0:0:0:
441,129,178198,1,0,0:0:0:0:
236,267,178370,101,0,0:0:0:0:
195,258,178456,1,0,0:0:0:0:
154,248,178541,1,0,0:0:0:0:
113,238,178627,1,0,0:0:0:0:
72,228,178713,1,0,0:0:0:0:
350,253,178884,5,0,0:0:0:0:
354,269,178970,1,0,0:0:0:0:
359,285,179056,1,0,0:0:0:0:
364,300,179141,1,0,0:0:0:0:
369,316,179227,1,8,0:0:0:0:
277,168,179398,102,0,B|236:109|266:28|266:28|310:60|297:98,1,212.500004053116
180,155,179913,6,0,P|169:106|173:50,1,100,4|0,0:0|0:0,0:0:0:0:
460,232,180256,2,0,P|477:280|470:336,1,100
203,298,180598,1,8,0:0:0:0:
301,364,180770,2,0,L|414:345,1,100
104,314,181113,1,0,0:0:0:0:
104,314,181198,1,0,0:0:0:0:
104,314,181284,102,0,L|217:295,1,100
15,245,181627,1,0,0:0:0:0:
220,76,181798,1,0,0:0:0:0:
248,92,181884,1,0,0:0:0:0:
268,116,181970,2,0,P|289:166|280:224,1,100,8|0,0:0|0:0,0:0:0:0:
93,168,182313,1,0,0:0:0:0:
204,283,182484,1,0,0:0:0:0:
375,166,182656,6,0,L|381:66,1,100
204,283,182998,2,0,L|193:183,1,100
335,351,183341,1,8,0:0:0:0:
375,166,183513,1,0,0:0:0:0:
335,351,183684,2,0,L|448:328,1,100
217,379,184027,102,0,P|217:315|194:270,1,100
0,180,184370,2,0,P|-4:244|19:289,1,100
265,32,184713,1,8,0:0:0:0:
111,34,184884,2,0,L|13:52,1,100
183,165,185227,1,0,0:0:0:0:
328,74,185398,6,0,B|391:84|406:145|406:145|438:86|517:99,1,227.499989585877,2|0,0:0|0:0,0:0:0:0:
311,169,186084,6,0,L|211:156,1,100,8|0,0:0|0:0,0:0:0:0:
486,196,186427,1,0,0:0:0:0:
236,272,186598,6,0,L|136:284,1,100
486,196,186941,1,0,0:0:0:0:
211,156,187113,102,0,L|111:143,1,100
486,196,187456,1,8,0:0:0:0:
136,283,187627,6,0,B|283:261|283:261|225:319,1,200
70,247,188141,102,0,P|53:146|126:220,1,262.500010013581,2|0,0:0|0:0,0:0:0:0:
283,261,188827,6,0,P|289:198|311:161,1,100,8|0,0:0|0:0,0:0:0:0:
245,342,189170,1,0,0:0:0:0:
190,144,189341,102,0,P|183:100|150:51,1,100
245,342,189684,1,0,0:0:0:0:
351,80,189856,2,0,L|472:60,1,100
232,228,190198,6,0,L|178:221,1,50,8|0,0:0|0:0,0:0:0:0:
331,282,190370,1,0,0:0:0:0:
347,318,190456,1,0,0:0:0:0:
343,358,190541,2,0,L|222:338,1,100
3,241,190884,6,0,P|89:232|158:342,1,200,4|0,0:0|0:0,0:0:0:0:
52,341,191398,1,0,0:0:0:0:
194,94,191570,2,0,L|181:203,1,100,8|0,0:0|0:0,0:0:0:0:
23,128,191913,2,0,L|10:18,1,100
12,28,192170,1,0,0:0:0:0:
12,28,192256,5,0,0:0:0:0:
3,241,192427,1,0,0:0:0:0:
194,94,192598,2,0,B|240:76|240:76|320:96,1,100
448,196,192941,2,0,B|390:218|390:218|301:190|301:190|368:160,1,200,8|0,0:0|0:0,0:0:0:0:
484,120,193456,1,0,0:0:0:0:
217,243,193627,102,0,P|201:190|213:140,1,100
442,234,193970,2,0,P|458:287|446:337,1,100
346,91,194313,1,8,0:0:0:0:
362,193,194484,1,0,0:0:0:0:
289,28,194656,2,0,P|341:7|398:26,1,100
200,148,194998,6,0,L|74:130,1,100
247,253,195341,1,0,0:0:0:0:
362,193,195513,2,0,L|488:175,1,100,0|8,0:0|0:0,0:0:0:0:
323,333,195856,1,0,0:0:0:0:
219,250,196027,2,0,L|93:232,1,100
90,231,196284,1,0,0:0:0:0:
60,227,196370,101,0,0:0:0:0:
239,346,196541,1,0,0:0:0:0:
200,148,196713,2,0,L|74:130,1,100
306,262,197056,5,8,0:0:0:0:
350,261,197141,1,0,0:0:0:0:
391,244,197227,1,0,0:0:0:0:
424,213,197313,1,0,0:0:0:0:
439,171,197398,1,0,0:0:0:0:
219,250,197570,101,0,0:0:0:0:
217,269,197656,1,0,0:0:0:0:
215,288,197741,1,0,0:0:0:0:
212,307,197827,1,0,0:0:0:0:
209,326,197913,1,0,0:0:0:0:
159,145,198084,5,0,0:0:0:0:
133,108,198170,1,0,0:0:0:0:
92,88,198256,1,0,0:0:0:0:
48,83,198341,1,0,0:0:0:0:
6,94,198427,1,8,0:0:0:0:
251,95,198598,101,0,0:0:0:0:
270,92,198684,1,0,0:0:0:0:
289,89,198770,1,0,0:0:0:0:
308,86,198856,1,0,0:0:0:0:
327,83,198941,1,0,0:0:0:0:
159,145,199113,6,0,B|123:157|91:153|91:153|55:149|27:161|27:161|63:177|123:177,1,225.000008583069
327,83,199798,101,8,0:0:0:0:
319,127,199884,1,0,0:0:0:0:
311,171,199970,1,0,0:0:0:0:
303,215,200056,1,0,0:0:0:0:
295,259,200141,1,0,0:0:0:0:
112,72,200313,5,0,0:0:0:0:
128,64,200398,1,0,0:0:0:0:
148,60,200484,1,0,0:0:0:0:
168,60,200570,1,0,0:0:0:0:
188,64,200656,1,0,0:0:0:0:
52,272,200827,101,0,0:0:0:0:
44,228,200913,1,0,0:0:0:0:
36,184,200998,1,0,0:0:0:0:
28,140,201084,1,0,0:0:0:0:
20,96,201170,1,8,0:0:0:0:
104,344,201341,5,0,0:0:0:0:
88,356,201427,1,0,0:0:0:0:
68,360,201513,1,0,0:0:0:0:
48,360,201598,1,0,0:0:0:0:
28,356,201684,1,0,0:0:0:0:
264,208,201856,102,0,P|332:204|412:308,1,200,4|0,0:0|0:0,0:0:0:0:
300,316,202370,1,0,0:0:0:0:
386,125,202541,2,0,P|433:130|498:145,2,100,8|0|0,0:0|0:0|0:0,0:0:0:0:
179,155,203056,6,0,P|152:160|124:162,2,50
368,220,203398,1,0,0:0:0:0:
143,272,203570,2,0,P|184:290|244:280,1,100
368,220,203913,102,0,B|308:190|242:202|242:202|301:209|316:267,1,225.000008583069,8|0,0:0|0:0,0:0:0:0:
447,261,204598,6,0,L|463:149,1,100
238,284,204941,2,0,L|252:382,1,100
110,87,205284,1,8,0:0:0:0:
47,223,205456,1,0,0:0:0:0:
211,139,205627,2,0,P|224:83|199:19,1,100
304,172,205970,102,0,B|336:180|336:180|436:144,2,100
476,92,206484,2,0,P|500:148|492:196,1,100,0|8,0:0|0:0,0:0:0:0:
338,275,206827,1,0,0:0:0:0:
264,76,206998,1,0,0:0:0:0:
176,160,207341,86,0,L|-5:141,1,175
173,61,208027,6,0,L|68:24,1,100,8|0,0:0|0:0,0:0:0:0:
360,180,208370,1,0,0:0:0:0:
172,256,208541,102,0,L|67:293,1,100
392,184,208884,1,0,0:0:0:0:
173,61,209056,6,0,L|68:24,1,100
424,188,209398,1,8,0:0:0:0:
1,141,209570,102,0,L|212:158,1,200
316,168,210084,6,0,B|199:157|199:157|212:188,1,150,2|0,0:0|0:0,0:0:0:0:
428,208,210770,102,0,P|436:152|420:104,1,100,8|0,0:0|0:0,0:0:0:0:
256,320,211113,1,0,0:0:0:0:
96,208,211284,6,0,P|80:152|96:104,1,100
256,352,211627,1,0,0:0:0:0:
428,208,211798,102,0,P|436:152|420:104,1,100
256,384,212141,1,8,0:0:0:0:
244,76,212313,2,0,B|232:120|264:156|264:156|244:188|244:188|276:224|260:296,1,200
256,384,212827,5,12,0:0:0:0:
256,192,229284,12,0,233741,0:0:0:0:
191,164,234084,69,0,0:0:0:0:
105,69,234256,2,0,L|92:7,2,50,8|0|8,0:0|0:0|0:0,0:0:0:0:
159,267,234598,1,0,0:0:0:0:
288,196,234770,6,0,L|396:180,1,85.0000016212464,4|0,0:0|0:0,0:0:0:0:
492,232,235113,2,0,P|476:288|476:336,1,85.0000016212464,8|0,0:0|0:0,0:0:0:0:
474,314,235370,1,0,0:0:0:0:
474,314,235456,1,0,0:0:0:0:
288,196,235627,2,0,P|283:153|270:113,1,85.0000016212464,0|8,0:0|0:0,0:0:0:0:
120,216,235970,1,0,0:0:0:0:
220,292,236141,101,0,0:0:0:0:
120,76,236313,2,0,L|20:92,1,85.0000016212464,0|8,0:0|0:0,0:0:0:0:
120,216,236656,1,0,0:0:0:0:
264,28,236827,2,0,B|220:40|220:40|168:24,1,85.0000016212464
360,88,237170,2,0,B|404:76|404:76|456:92,1,85.0000016212464,8|0,0:0|0:0,0:0:0:0:
464,100,237427,1,0,0:0:0:0:
488,112,237513,6,0,L|472:216,1,85.0000016212464
312,280,237856,1,8,0:0:0:0:
292,176,238027,1,0,0:0:0:0:
356,360,238198,2,0,P|312:372|260:352,1,85.0000016212464
120,236,238541,2,0,L|232:220,1,85.0000016212464,8|0,0:0|0:0,0:0:0:0:
48,312,238884,101,0,0:0:0:0:
136,128,239056,2,0,L|248:112,1,85.0000016212464,0|8,0:0|0:0,0:0:0:0:
448,156,239398,1,2,0:0:0:0:
408,168,239484,1,0,0:0:0:0:
364,164,239570,1,2,0:0:0:0:
328,140,239656,1,0,0:0:0:0:
304,104,239741,1,0,0:0:0:0:
504,16,239913,2,0,B|516:56|516:56|508:100,1,85.0000016212464,8|0,0:0|0:0,0:0:0:0:
368,246,240256,6,0,B|356:206|356:206|364:162,1,85.0000016212464
456,324,240598,1,8,0:0:0:0:
260,200,240770,1,0,0:0:0:0:
220,188,240856,1,0,0:0:0:0:
176,188,240941,2,0,P|128:200|84:240,1,85.0000016212464
196,328,241284,1,8,0:0:0:0:
128,72,241456,1,0,0:0:0:0:
68,144,241627,101,0,0:0:0:0:
220,108,241798,2,0,P|228:48|216:20,1,85.0000016212464,0|8,0:0|0:0,0:0:0:0:
36,232,242141,1,0,0:0:0:0:
36,232,242227,1,0,0:0:0:0:
36,232,242313,2,0,L|128:216,1,85.0000016212464
324,288,242656,2,0,P|332:348|320:376,1,85.0000016212464,8|0,0:0|0:0,0:0:0:0:
228,220,242998,6,0,P|296:172|372:180,1,127.50000243187
356,172,243341,2,0,P|348:128|344:80,1,85.0000016212464,8|0,0:0|0:0,0:0:0:0:
132,192,243684,2,0,P|140:234|144:284,1,85.0000016212464
52,120,244027,1,8,0:0:0:0:
16,224,244198,1,0,0:0:0:0:
16,224,244284,1,0,0:0:0:0:
16,224,244370,101,0,0:0:0:0:
224,80,244541,2,0,L|132:96,1,85.0000016212464,0|8,0:0|0:0,0:0:0:0:
228,220,244884,1,0,0:0:0:0:
328,104,245056,2,0,P|332:68|312:8,1,85.0000016212464
368,224,245398,2,0,P|440:236|492:188,1,127.50000243187,8|0,0:0|0:0,0:0:0:0:
481,206,245741,6,0,B|473:250|473:250|481:298,1,85.0000016212464,4|0,0:0|0:0,0:0:0:0:
292,368,246084,2,0,B|300:324|300:324|292:276,1,85.0000016212464,8|0,0:0|0:0,0:0:0:0:
284,252,246341,1,0,0:0:0:0:
276,216,246427,2,0,L|188:232,1,85.0000016212464
72,344,246770,1,8,0:0:0:0:
200,324,246941,1,0,0:0:0:0:
0,140,247113,101,0,0:0:0:0:
44,232,247284,2,0,P|80:240|148:204,1,85.0000016212464,0|8,0:0|0:0,0:0:0:0:
286,131,247627,1,0,0:0:0:0:
286,131,247713,1,0,0:0:0:0:
286,131,247798,2,0,L|274:227,1,85.0000016212464
204,52,248141,2,0,P|256:20|328:24,1,127.50000243187,8|0,0:0|0:0,0:0:0:0:
344,56,248484,6,0,P|385:47|440:32,1,85.0000016212464
180,152,248827,2,0,P|137:142|84:128,1,85.0000016212464,8|0,0:0|0:0,0:0:0:0:
352,220,249170,2,0,P|392:211|448:196,1,85.0000016212464
329,338,249513,1,8,0:0:0:0:
200,228,249684,102,0,P|136:228|64:308,1,170.000003242493
32,172,250198,1,8,0:0:0:0:
172,336,250370,1,2,0:0:0:0:
216,340,250456,1,0,0:0:0:0:
256,332,250541,1,2,0:0:0:0:
292,308,250627,1,0,0:0:0:0:
312,272,250713,1,0,0:0:0:0:
206,143,250884,2,0,L|198:247,1,85.0000016212464,8|0,0:0|0:0,0:0:0:0:
424,204,251227,6,0,L|432:100,1,85.0000016212464
312,92,251570,1,8,0:0:0:0:
396,288,251741,1,0,0:0:0:0:
396,288,251827,1,0,0:0:0:0:
396,288,251913,2,0,P|444:292|476:276,1,85.0000016212464
320,360,252256,1,8,0:0:0:0:
199,227,252427,2,0,P|151:223|119:239,1,85.0000016212464
72,364,252770,101,0,0:0:0:0:
168,300,252941,1,8,0:0:0:0:
16,264,253113,1,0,0:0:0:0:
279,269,253284,2,0,B|289:228|289:228|279:184,1,85.0000016212464
439,105,253627,2,0,B|432:149|432:149|442:188,1,85.0000016212464,8|0,0:0|0:0,0:0:0:0:
504,280,253970,6,0,P|444:300|368:252,1,127.50000243187
368,256,254313,2,0,L|384:348,1,85.0000016212464,8|0,0:0|0:0,0:0:0:0:
292,292,254570,2,0,L|284:244,1,42.5000008106232,2|0,0:0|0:0,0:0:0:0:
439,105,254827,2,0,L|451:193,1,85.0000016212464,8|0,0:0|0:0,0:0:0:0:
378,39,255170,102,0,P|418:15|494:31,1,100,8|0,0:0|0:0,0:0:0:0:
328,152,255513,1,0,0:0:0:0:
328,152,255598,1,0,0:0:0:0:
328,152,255684,1,0,0:0:0:0:
120,48,255856,1,0,0:0:0:0:
216,112,256027,5,0,0:0:0:0:
180,148,256113,1,0,0:0:0:0:
132,160,256198,1,0,0:0:0:0:
84,152,256284,1,0,0:0:0:0:
40,124,256370,2,0,P|52:168|56:236,1,100
172,296,256713,38,0,B|240:260|292:272|292:272|260:284|248:320,1,179.999994506836,4|0,0:0|0:0,0:0:0:0:
324,344,257056,1,0,0:0:0:0:
404,112,257227,1,0,0:0:0:0:
256,192,257313,12,0,258941,0:0:0:0:
400,52,259113,5,0,0:0:0:0:
300,212,259284,1,0,0:0:0:0:
300,212,259370,1,0,0:0:0:0:
300,212,259456,102,0,B|348:180|420:200|420:200|412:156|372:128,1,179.999994506836
304,96,259798,1,0,0:0:0:0:
372,324,259970,1,0,0:0:0:0:
256,192,260056,12,0,261513,0:0:0:0:
152,72,261684,5,0,0:0:0:0:
392,32,261856,1,0,0:0:0:0:
392,32,261941,1,0,0:0:0:0:
176,176,262198,102,0,B|108:196|64:136|64:136|88:228,1,179.999994506836
108,288,262541,1,0,0:0:0:0:
392,32,262713,1,0,0:0:0:0:
256,192,262798,12,0,264427,0:0:0:0:
388,232,264598,5,0,0:0:0:0:
132,160,264770,1,0,0:0:0:0:
132,160,264856,1,0,0:0:0:0:
132,160,264941,102,0,B|172:150|172:150|208:156|208:156|236:137|266:141|266:141|243:157|245:200,1,179.999994506836
172,248,265284,1,0,0:0:0:0:
110,12,265456,1,0,0:0:0:0:
316,68,265970,5,0,0:0:0:0:
328,72,266313,101,0,0:0:0:0:
110,12,266484,1,0,0:0:0:0:
344,76,266656,2,0,P|404:84|464:32,1,119.999996337891
328,168,266998,1,0,0:0:0:0:
312,200,267084,1,0,0:0:0:0:
308,244,267170,1,0,0:0:0:0:
324,284,267256,1,0,0:0:0:0:
364,312,267341,5,0,0:0:0:0:
412,312,267427,1,0,0:0:0:0:
460,284,267513,1,0,0:0:0:0:
476,232,267598,1,0,0:0:0:0:
447,175,267684,102,0,B|311:167,1,119.999996337891
119,219,268027,6,0,B|155:211|155:211|188:218,1,69.9999978637696
211,319,268198,2,0,B|155:307|155:307|95:323,1,119.999996337891
20,256,268541,101,0,0:0:0:0:
12,220,268627,1,0,0:0:0:0:
20,184,268713,1,0,0:0:0:0:
44,156,268798,1,0,0:0:0:0:
72,136,268884,1,0,0:0:0:0:
108,128,268970,1,0,0:0:0:0:
156,132,269056,5,0,0:0:0:0:
196,156,269141,1,0,0:0:0:0:
244,156,269227,1,0,0:0:0:0:
288,132,269313,1,0,0:0:0:0:
336,120,269398,1,0,0:0:0:0:
384,132,269484,1,0,0:0:0:0:
424,176,269570,101,0,0:0:0:0:
432,236,269656,1,0,0:0:0:0:
412,292,269741,1,0,0:0:0:0:
356,312,269827,1,0,0:0:0:0:
296,304,269913,1,0,0:0:0:0:
252,264,269998,1,0,0:0:0:0:
196,248,270084,5,0,0:0:0:0:
135,248,270170,1,0,0:0:0:0:
80,276,270256,1,0,0:0:0:0:
45,324,270341,1,0,0:0:0:0:
27,381,270427,102,0,L|31:257,1,119.999996337891
153,48,270770,6,0,L|149:156,1,69.9999978637696
296,304,270941,2,0,L|300:180,1,119.999996337891
408,148,271284,101,0,0:0:0:0:
444,156,271370,1,0,0:0:0:0:
480,144,271456,1,0,0:0:0:0:
504,116,271541,1,0,0:0:0:0:
512,80,271627,1,0,0:0:0:0:
500,44,271713,1,0,0:0:0:0:
464,16,271798,5,0,0:0:0:0:
416,12,271884,1,0,0:0:0:0:
372,36,271970,1,0,0:0:0:0:
352,80,272056,1,0,0:0:0:0:
316,108,272141,1,0,0:0:0:0:
268,120,272227,1,0,0:0:0:0:
208,112,272313,101,0,0:0:0:0:
164,72,272398,1,0,0:0:0:0:
104,60,272484,1,0,0:0:0:0:
48,84,272570,1,0,0:0:0:0:
24,140,272656,1,0,0:0:0:0:
40,196,272741,1,0,0:0:0:0:
88,232,272827,5,0,0:0:0:0:
148,232,272913,1,0,0:0:0:0:
204,252,272998,1,0,0:0:0:0:
240,300,273084,1,0,0:0:0:0:
248,360,273170,102,0,B|192:376|192:376|108:352,1,119.999996337891
432,284,273513,6,0,L|520:304,1,69.9999978637696
336,344,273684,2,0,P|316:276|336:216,1,119.999996337891
504,152,274027,101,0,0:0:0:0:
472,168,274113,1,0,0:0:0:0:
436,168,274198,1,0,0:0:0:0:
400,164,274284,1,0,0:0:0:0:
372,140,274370,1,0,0:0:0:0:
356,108,274456,1,0,0:0:0:0:
356,60,274541,5,0,0:0:0:0:
336,16,274627,1,0,0:0:0:0:
292,0,274713,1,0,0:0:0:0:
244,8,274798,1,0,0:0:0:0:
208,40,274884,1,0,0:0:0:0:
204,88,274970,1,0,0:0:0:0:
236,140,275056,101,0,0:0:0:0:
236,200,275141,1,0,0:0:0:0:
192,240,275227,1,0,0:0:0:0:
132,248,275313,1,0,0:0:0:0:
80,216,275398,1,0,0:0:0:0:
60,160,275484,1,0,0:0:0:0:
84,104,275570,5,0,0:0:0:0:
68,44,275656,1,0,0:0:0:0:
16,16,275741,1,0,0:0:0:0:
148,164,275913,102,0,B|172:219|174:282|174:282|177:234|195:201,1,179.999994506836
64,216,276256,6,0,P|76:252|76:300,1,69.9999978637696
268,336,276427,2,0,P|266:293|300:208,1,119.999996337891
496,308,276770,101,0,0:0:0:0:
496,308,276856,1,0,0:0:0:0:
496,308,276941,2,0,B|448:296|448:296|368:316,1,100
307,223,277284,6,0,L|377:202,1,50
268,336,277456,2,0,L|160:320,1,100
44,296,277798,1,0,0:0:0:0:
212,200,277970,1,0,0:0:0:0:
164,216,278056,1,0,0:0:0:0:
116,216,278141,1,0,0:0:0:0:
72,192,278227,1,0,0:0:0:0:
40,148,278313,2,0,P|32:120|32:76,1,50
254,81,278484,2,0,P|262:109|262:153,1,50
104,280,278656,37,4,0:0:0:0:
40,148,278827,2,0,L|162:128,1,100
349,289,279170,1,0,0:0:0:0:
349,289,279256,1,0,0:0:0:0:
349,289,279341,2,0,L|233:273,1,100
391,176,279684,2,0,L|315:72,1,100
505,148,280027,6,0,L|501:36,1,100
281,201,280370,1,0,0:0:0:0:
445,302,280541,1,0,0:0:0:0:
427,349,280627,1,0,0:0:0:0:
386,379,280713,1,0,0:0:0:0:
336,384,280798,1,0,0:0:0:0:
288,367,280884,1,0,0:0:0:0:
132,194,281056,1,0,0:0:0:0:
154,318,281227,1,0,0:0:0:0:
18,195,281398,102,0,B|71:123|161:155|161:155|107:224,1,209.999993591309
0,94,281741,2,0,P|43:68|100:67,1,69.9999978637696
234,96,281913,2,0,B|257:122|258:160|258:160|268:122|353:94,1,139.999995727539
161,155,282256,5,0,0:0:0:0:
345,203,282427,1,0,0:0:0:0:
161,155,282598,1,0,0:0:0:0:
316,300,282770,1,0,0:0:0:0:
234,96,282941,1,0,0:0:0:0:
99,270,283113,2,0,P|157:261|230:321,1,150
37,320,283456,2,0,P|20:259|32:225,1,100
142,362,283798,1,0,0:0:0:0:
309,202,283970,1,0,0:0:0:0:
309,202,284056,1,0,0:0:0:0:
309,202,284141,102,0,B|340:320|340:320|340:276|388:232,1,179.999994506836
224,152,284484,1,0,0:0:0:0:
452,324,284656,2,0,P|472:268|444:196,1,119.999996337891
260,60,284998,1,0,0:0:0:0:
384,32,285170,1,0,0:0:0:0:
166,56,285341,5,0,0:0:0:0:
352,120,285513,1,0,0:0:0:0:
40,152,285684,101,0,0:0:0:0:
260,60,285856,2,0,P|200:72|144:28,1,100
168,80,286113,1,0,0:0:0:0:
172,104,286198,1,0,0:0:0:0:
176,128,286284,1,0,0:0:0:0:
180,152,286370,1,0,0:0:0:0:
48,52,286541,1,0,0:0:0:0:
44,103,286627,1,0,0:0:0:0:
40,152,286713,1,0,0:0:0:0:
260,60,286884,6,0,B|314:50|391:58|391:58|368:38|337:39,1,179.999994506836
180,152,287227,1,0,0:0:0:0:
474,113,287398,2,0,P|493:59|433:-35,1,119.999996337891
160,24,287741,1,0,0:0:0:0:
226,242,287913,101,0,0:0:0:0:
259,270,287998,1,0,0:0:0:0:
302,281,288084,1,0,0:0:0:0:
346,271,288170,1,0,0:0:0:0:
383,246,288256,6,0,L|458:230,1,50
305,169,288427,2,0,L|380:153,1,50
297,360,288598,2,0,L|372:344,1,50
177,252,288770,2,0,L|252:236,1,50
133,351,288941,1,0,0:0:0:0:
88,326,289027,1,0,0:0:0:0:
65,280,289113,1,0,0:0:0:0:
63,230,289198,1,0,0:0:0:0:
88,186,289284,102,0,L|94:115,1,50
227,13,289456,2,0,L|233:84,1,50
31,67,289627,6,0,P|96:43|138:58,1,100
230,208,289970,1,0,0:0:0:0:
401,70,290141,1,0,0:0:0:0:
419,111,290227,1,0,0:0:0:0:
411,155,290313,1,0,0:0:0:0:
227,13,290484,1,0,0:0:0:0:
264,272,290656,1,0,0:0:0:0:
327,120,290827,2,0,L|219:133,1,100
412,273,291170,102,0,L|520:260,1,100
336,375,291513,1,0,0:0:0:0:
200,234,291684,1,0,0:0:0:0:
151,219,291770,1,0,0:0:0:0:
102,230,291856,1,0,0:0:0:0:
59,254,291941,1,0,0:0:0:0:
34,297,292027,1,0,0:0:0:0:
283,292,292198,1,0,0:0:0:0:
303,246,292284,1,0,0:0:0:0:
293,196,292370,6,0,P|281:155|297:94,1,100
374,153,292713,1,0,0:0:0:0:
110,73,292884,2,0,L|225:59,1,100
102,230,293227,1,0,0:0:0:0:
30,26,293398,1,0,0:0:0:0:
4,269,293570,1,0,0:0:0:0:
202,178,293741,102,0,B|215:232|215:232|203:282,1,100
32,123,294084,2,0,B|19:69|19:69|31:19,1,100
69,55,294341,1,0,0:0:0:0:
118,63,294427,1,0,0:0:0:0:
165,46,294513,1,0,0:0:0:0:
203,14,294598,1,0,0:0:0:0:
102,230,294770,1,0,0:0:0:0:
301,186,294941,1,0,0:0:0:0:
301,186,295027,1,0,0:0:0:0:
301,186,295113,6,0,L|175:175,1,100
349,286,295456,1,0,0:0:0:0:
310,79,295627,1,0,0:0:0:0:
245,314,295798,1,0,0:0:0:0:
310,79,295970,1,0,0:0:0:0:
441,330,296141,2,0,P|453:278|429:221,1,100
207,140,296484,102,0,P|195:192|219:249,1,100
399,120,296827,1,0,0:0:0:0:
140,83,296998,1,0,0:0:0:0:
93,102,297084,1,0,0:0:0:0:
43,94,297170,2,0,P|38:67|38:35,2,50
27,274,297513,2,0,L|99:261,1,50
245,314,297684,2,0,L|315:325,1,50
162,358,297856,6,0,B|151:309|151:309|165:253,1,100
336,148,298198,1,0,0:0:0:0:
386,245,298370,1,0,0:0:0:0:
338,262,298456,1,0,0:0:0:0:
291,245,298541,1,0,0:0:0:0:
449,150,298713,1,0,0:0:0:0:
226,161,298884,2,0,L|213:53,1,100
460,50,299227,102,0,L|447:158,1,100
449,150,299484,1,0,0:0:0:0:
449,150,299570,1,0,0:0:0:0:
334,38,299741,1,0,0:0:0:0:
126,149,299913,5,0,0:0:0:0:
77,159,299998,1,0,0:0:0:0:
34,132,300084,1,0,0:0:0:0:
15,85,300170,1,0,0:0:0:0:
26,36,300256,1,0,0:0:0:0:
68,7,300341,1,0,0:0:0:0:
118,7,300427,1,0,0:0:0:0:
161,32,300513,1,0,0:0:0:0:
210,25,300598,101,4,0:0:0:0:
164,132,306084,86,0,L|68:124,1,75.0000028610231
232,172,306427,2,0,P|244:132|232:92,1,75.0000028610231
228,84,306684,1,0,0:0:0:0:
212,72,306770,1,0,0:0:0:0:
160,212,306941,1,0,0:0:0:0:
16,80,307113,2,0,P|9:121|20:164,1,85.0000016212464
103,263,307456,6,0,L|253:244,1,142.49999619484
313,326,307798,2,0,L|425:310,1,94.9999974632264
235,377,308056,2,0,L|173:383,2,47.4999987316132
217,338,308313,1,0,0:0:0:0:
221,291,308398,1,0,0:0:0:0:
247,253,308484,2,0,L|350:239,1,94.9999974632264
198,182,308827,6,0,L|131:173,1,50
329,130,308998,2,0,L|396:121,1,50
182,49,309170,2,0,L|115:40,1,50
318,11,309341,2,0,L|381:1,1,50
124,107,309513,6,0,L|174:114,1,50
382,188,309684,2,0,L|333:195,1,50
106,254,309856,2,0,L|156:261,1,50
380,328,310027,2,0,L|330:334,1,50
70,348,310198,101,0,0:0:0:0:
21,320,310284,1,0,0:0:0:0:
0,268,310370,1,0,0:0:0:0:
7,213,310456,1,0,0:0:0:0:
38,168,310541,6,0,L|36:110,1,50
247,142,310713,2,0,L|244:200,1,50
144,72,310884,2,0,L|142:14,1,50
391,164,311056,1,0,0:0:0:0:
390,218,311141,1,0,0:0:0:0:
386,273,311227,1,8,0:0:0:0:
340,61,311570,6,0,B|402:12|473:53|473:53|450:103,1,179.999994506836
247,142,311913,2,0,P|277:166|319:176,1,69.9999978637696,8|0,0:0|0:0,0:0:0:0:
503,213,312084,2,0,P|421:203|354:256,1,119.999996337891
455,370,312427,6,0,L|447:286,1,69.9999978637696,2|0,0:0|0:0,0:0:0:0:
346,130,312598,2,0,L|338:46,1,69.9999978637696,8|0,0:0|0:0,0:0:0:0:
422,203,312770,2,0,B|361:260|294:222|294:222|325:260|301:324,1,209.999993591309
203,358,313113,2,0,P|167:354|127:366,1,69.9999978637696
102,281,313284,102,0,P|161:265|251:286,1,119.999996337891,8|0,0:0|0:0,0:0:0:0:
365,348,313627,2,0,P|332:262|371:180,1,179.999994506836
365,22,313970,2,0,P|398:103|365:184,1,179.999994506836,8|0,0:0|0:0,0:0:0:0:
432,305,314313,6,0,P|445:227|471:304,1,179.999994506836,2|0,0:0|0:0,0:0:0:0:
339,307,314656,2,0,P|332:262|337:231,1,69.9999978637696,8|0,0:0|0:0,0:0:0:0:
512,156,314827,2,0,B|432:121|365:175|365:175|385:140|427:112,1,209.999993591309
478,36,315170,101,0,0:0:0:0:
138,128,315341,1,8,0:0:0:0:
365,22,315513,2,0,B|257:48|257:48|165:12,1,160
138,128,315856,2,0,B|193:113|193:113|256:136,1,80
343,190,316027,2,0,B|397:101|397:101|260:135,1,209.999993591309,8|0,0:0|0:0,0:0:0:0:
192,202,316370,6,0,L|80:231,1,69.9999978637696,2|0,0:0|0:0,0:0:0:0:
169,294,316541,2,0,L|57:323,1,69.9999978637696,2|0,0:0|0:0,0:0:0:0:
275,358,316713,1,8,0:0:0:0:
295,329,316798,1,0,0:0:0:0:
301,294,316884,1,0,0:0:0:0:
294,259,316970,1,0,0:0:0:0:
274,225,317056,102,0,B|142:258|142:258|182:311,1,179.999994506836
23,193,317398,2,0,B|57:200|57:200|102:190,1,69.9999978637696,8|0,0:0|0:0,0:0:0:0:
336,132,317570,2,0,B|278:115|278:115|174:142,1,139.999995727539
415,166,317913,6,0,P|417:110|395:71,1,69.9999978637696
294,259,318084,2,0,P|292:315|314:354,1,69.9999978637696,8|0,0:0|0:0,0:0:0:0:
463,309,318256,2,0,P|455:257|420:337,1,209.999993591309
415,166,318598,1,2,0:0:0:0:
512,160,318770,102,0,B|464:151|464:151|413:166|413:166|360:152|360:152|282:166,1,209.999993591309,8|0,0:0|0:0,0:0:0:0:
356,61,319113,2,0,B|414:77|414:77|482:56,1,119.999996337891
405,261,319456,2,0,B|357:246|357:246|294:258|294:258|374:297,1,179.999994506836,8|0,0:0|0:0,0:0:0:0:
437,350,319798,5,0,0:0:0:0:
488,257,319970,1,0,0:0:0:0:
447,168,320141,1,8,0:0:0:0:
211,247,320313,101,0,0:0:0:0:
437,350,320484,1,0,0:0:0:0:
356,61,320656,5,0,0:0:0:0:
307,341,320827,2,0,L|326:229,1,80,8|0,0:0|0:0,0:0:0:0:
356,61,320998,1,2,0:0:0:0:
268,179,321170,102,0,P|201:190|140:130,1,119.999996337891
348,116,321513,2,0,B|376:142|370:201|370:201|385:145|444:129,1,179.999994506836
439,261,321856,2,0,B|395:313|324:284|324:284|341:303|339:345,1,179.999994506836
248,336,322198,1,8,0:0:0:0:
220,288,322284,1,0,0:0:0:0:
168,268,322370,1,0,0:0:0:0:
116,276,322456,1,0,0:0:0:0:
76,312,322541,6,0,B|57:188|57:188|24:256,1,179.999994506836,4|0,0:0|0:0,0:0:0:0:
160,360,322884,102,0,L|142:249,1,69.9999978637696,8|0,0:0|0:0,0:0:0:0:
109,101,323056,2,0,B|152:125|152:125|256:96,1,139.999995727539
33,237,323398,6,0,L|148:206,1,80,2|0,0:0|0:0,0:0:0:0:
273,168,323570,2,0,L|388:137,1,80,8|0,0:0|0:0,0:0:0:0:
512,96,323741,102,0,B|419:129|419:129|487:116|532:179,1,209.999993591309,2|0,0:0|0:0,0:0:0:0:
446,293,324084,2,0,P|436:259|440:225,1,69.9999978637696
308,63,324256,2,0,P|348:132|277:277,1,209.999993591309,8|0,0:0|0:0,0:0:0:0:
129,252,324598,2,0,P|91:156|134:64,1,209.999993591309
257,136,324941,2,0,P|226:200|190:129,1,179.999994506836,8|0,0:0|0:0,0:0:0:0:
313,250,325284,6,0,B|233:316|152:268|152:268|170:319,1,209.999993591309
247,366,325627,1,8,0:0:0:0:
498,297,325798,2,0,B|424:254|347:316|347:316|377:382,1,209.999993591309
313,250,326141,102,0,P|352:224|398:212,1,69.9999978637696,2|0,0:0|0:0,0:0:0:0:
512,222,326313,2,0,P|466:208|418:209,1,69.9999978637696,10|0,0:0|0:0,0:0:0:0:
168,248,326484,6,0,P|258:277|338:218,1,160
511,113,326827,2,0,P|462:130|417:123,1,80
203,110,326998,2,0,P|257:191|266:97,1,240,8|0,0:0|0:0,0:0:0:0:
4,81,327341,102,0,B|-7:122|-7:122|4:179,1,80
124,268,327513,2,0,B|135:231|135:231|124:174,1,80
28,328,327684,1,8,0:0:0:0:
69,367,327770,1,0,0:0:0:0:
123,381,327856,1,0,0:0:0:0:
177,371,327941,1,0,0:0:0:0:
220,344,328027,6,0,B|272:352|272:352|316:332|316:332|376:356|436:320,1,209.999993591309
224,248,328370,2,0,P|182:253|145:283,1,80,8|0,0:0|0:0,0:0:0:0:
340,244,328541,2,0,P|368:248|415:231,1,64.9999970245363
224,248,328884,102,0,P|224:196|212:168,1,80,2|0,0:0|0:0,0:0:0:0:
108,44,329056,2,0,P|56:28|20:36,1,80,10|0,0:0|0:0,0:0:0:0:
213,170,329227,2,0,B|300:200|380:144|380:144|352:176|360:240,1,240
444,200,329570,1,0,0:0:0:0:
282,4,329741,2,0,B|244:32|232:88|232:88|292:108|336:72,1,209.999993591309,8|0,0:0|0:0,0:0:0:0:
489,128,330084,6,0,P|413:120|377:148,1,119.999996337891
388,275,330427,2,0,B|436:306|493:279|493:279|457:301|451:348,1,179.999994506836,8|0,0:0|0:0,0:0:0:0:
356,359,330770,101,0,0:0:0:0:
294,283,330941,1,0,0:0:0:0:
284,187,331113,1,8,0:0:0:0:
156,297,331284,1,0,0:0:0:0:
390,170,331456,1,0,0:0:0:0:
132,57,331627,1,0,0:0:0:0:
164,377,331798,2,0,L|154:268,1,80,8|0,0:0|0:0,0:0:0:0:
132,57,331970,1,2,0:0:0:0:
75,227,332141,6,0,P|137:186|207:201,1,139.999995727539
331,167,332484,102,0,P|269:208|189:189,1,150
295,104,332827,6,0,P|385:117|397:196,1,175
325,287,333513,102,4,B|361:272|391:290|391:290|428:276|428:276|457:287|489:282|489:282|429:287|397:307,1,262.500010013581
308,364,334198,2,0,L|168:352,1,112.500004291535,8|0,0:0|0:0,0:0:0:0:
124,344,334541,2,0,P|112:308|128:252,1,75.0000028610231
164,216,334798,1,0,0:0:0:0:
224,176,334884,6,0,P|236:212|217:267,1,75.0000028610231
48,160,335227,2,0,L|172:144,1,112.500004291535
224,176,335570,1,8,0:0:0:0:
288,25,335741,1,0,0:0:0:0:
224,88,335913,2,0,P|264:112|344:96,1,112.500004291535
368,48,336256,102,0,P|396:88|367:166,1,112.500004291535
324,184,336598,6,0,L|304:188,4,18.7500007152558,2|0|0|0|0,0:0|0:0|0:0|0:0|0:0,0:0:0:0:
331,283,336941,101,8,0:0:0:0:
293,280,337027,1,0,0:0:0:0:
259,262,337113,1,0,0:0:0:0:
239,230,337198,1,0,0:0:0:0:
233,179,337284,2,0,L|246:131,4,37.5000014305115,2|0|0|0|0,0:0|0:0|0:0|0:0|0:0,0:0:0:0:
417,227,337627,6,0,L|431:292,1,50
324,184,337798,1,0,0:0:0:0:
357,146,337884,1,0,0:0:0:0:
415,129,337970,102,0,B|463:125|498:148|498:148|450:111|456:37,1,179.999994506836
348,50,338313,2,0,L|244:39,1,59.9999981689454,8|0,0:0|0:0,0:0:0:0:
90,121,338484,2,0,L|-11:135,1,59.9999981689454
171,45,338656,1,0,0:0:0:0:
171,45,338741,2,0,P|197:77|194:159,1,119.999996337891
150,206,338998,6,0,P|209:183|159:224,1,175
185,98,339684,102,0,P|230:108|280:167,1,112.500004291535,8|0,0:0|0:0,0:0:0:0:
283,226,340027,2,0,P|255:276|237:288,1,75.0000028610231
172,306,340284,1,0,0:0:0:0:
109,274,340370,2,0,P|85:244|79:192,1,75
172,306,340713,2,0,P|143:339|83:339,1,75.0000028610231
167,232,341056,6,0,B|207:229|240:261|245:301|245:301|254:222|339:220,1,227.499989585877,8|0,0:0|0:0,0:0:0:0:
394,298,341741,101,0,0:0:0:0:
426,259,341827,1,0,0:0:0:0:
428,208,341913,1,0,0:0:0:0:
409,162,341998,1,0,0:0:0:0:
370,129,342084,2,0,L|374:111,4,12.5,2|0|0|0|0,0:0|0:0|0:0|0:0|0:0,0:0:0:0:
226,122,342427,5,8,0:0:0:0:
188,155,342513,1,0,0:0:0:0:
138,158,342598,1,0,0:0:0:0:
91,139,342684,1,0,0:0:0:0:
62,95,342770,2,0,L|56:40,4,37.5000014305115,2|0|0|0|0,0:0|0:0|0:0|0:0|0:0,0:0:0:0:
320,222,343113,101,0,0:0:0:0:
149,62,343284,1,0,0:0:0:0:
91,282,343456,1,0,0:0:0:0:
138,158,343627,1,0,0:0:0:0:
172,347,343798,6,0,P|211:319|283:333,1,100,8|0,0:0|0:0,0:0:0:0:
415,284,344141,1,0,0:0:0:0:
437,239,344227,1,0,0:0:0:0:
431,189,344313,1,0,0:0:0:0:
410,143,344398,1,0,0:0:0:0:
366,118,344484,102,0,B|413:94|484:106|484:106|446:98|432:69,1,175,4|0,0:0|0:0,0:0:0:0:
316,65,345170,6,0,B|281:76|281:76|221:64,1,75.0000028610231,8|0,0:0|0:0,0:0:0:0:
120,40,345513,2,0,P|132:72|116:136,1,75.0000028610231
76,160,345770,1,0,0:0:0:0:
24,208,345856,102,0,P|20:245|32:280,1,75.0000028610231
201,234,346198,2,0,B|144:222|144:222|88:238,1,112.500004291535
147,296,346541,6,0,L|183:304,1,37.5000014305115,8|0,0:0|0:0,0:0:0:0:
201,234,346713,2,0,L|237:242,1,37.5000014305115
253,170,346884,2,0,B|306:182|306:182|375:155,1,112.500004291535
425,128,347227,102,0,P|385:93|302:119,1,112.500004291535
259,77,347570,6,0,L|252:54,4,18.7500007152558,2|0|0|0|0,0:0|0:0|0:0|0:0|0:0,0:0:0:0:
153,163,347913,101,8,0:0:0:0:
112,182,347998,1,0,0:0:0:0:
67,176,348084,1,0,0:0:0:0:
31,148,348170,1,0,0:0:0:0:
13,103,348256,2,0,L|5:51,4,37.5000014305115,2|0|0|0|0,0:0|0:0|0:0|0:0|0:0,0:0:0:0:
104,31,348598,6,0,L|98:100,1,59.9999981689454
79,266,348770,1,0,0:0:0:0:
72,319,348856,1,0,0:0:0:0:
67,372,348941,2,0,P|133:325|259:359,1,179.999994506836
409,350,349284,2,0,P|413:321|406:278,1,59.9999981689454,8|0,0:0|0:0,0:0:0:0:
312,127,349456,2,0,P|308:98|315:55,1,59.9999981689454
500,223,349627,1,0,0:0:0:0:
500,223,349713,2,0,L|358:215,1,119.999996337891
312,199,349970,102,0,L|508:209,1,175
455,276,350656,6,0,L|311:269,1,112.500004291535,8|0,0:0|0:0,0:0:0:0:
312,199,350998,2,0,P|303:155|328:108,1,75.0000028610231
364,75,351256,1,0,0:0:0:0:
427,39,351341,2,0,P|436:83|411:130,1,75.0000028610231
291,58,351684,2,0,L|189:50,1,75.0000028610231
163,99,352027,102,0,B|134:66|150:22|150:22|103:55|48:44|48:44|66:55|79:75,1,227.499989585877,8|0,0:0|0:0,0:0:0:0:
105,182,352713,5,0,0:0:0:0:
138,203,352798,1,0,0:0:0:0:
177,206,352884,1,0,0:0:0:0:
217,192,352970,1,0,0:0:0:0:
247,156,353056,2,0,L|242:125,4,18.7500007152558,2|0|0|0|0,0:0|0:0|0:0|0:0|0:0,0:0:0:0:
294,268,353398,101,8,0:0:0:0:
331,243,353484,1,0,0:0:0:0:
374,231,353570,1,0,0:0:0:0:
417,242,353656,1,0,0:0:0:0:
453,267,353741,2,0,L|448:305,4,37.5000014305115,2|0|0|0|0,0:0|0:0|0:0|0:0|0:0,0:0:0:0:
475,71,354084,5,0,0:0:0:0:
465,167,354256,1,0,0:0:0:0:
285,126,354427,2,0,L|400:114,1,100
259,36,354770,101,8,0:0:0:0:
202,115,354941,1,2,0:0:0:0:
312,196,355113,1,0,0:0:0:0:
206,313,355284,1,2,0:0:0:0:
379,358,355456,85,4,0:0:0:0:
231,226,355627,2,0,P|175:223|133:262,1,100,0|8,0:0|0:0,0:0:0:0:
421,248,355970,1,0,0:0:0:0:
421,248,356056,1,0,0:0:0:0:
421,248,356141,2,0,L|437:128,1,100
300,66,356484,1,8,0:0:0:0:
312,196,356656,1,0,0:0:0:0:
111,49,356827,6,0,P|176:28|223:41,1,100
23,302,357170,2,0,B|11:254|11:254|27:194,1,100,8|0,0:0|0:0,0:0:0:0:
75,214,357427,1,0,0:0:0:0:
123,206,357513,1,0,0:0:0:0:
159,170,357598,1,0,0:0:0:0:
171,122,357684,1,0,0:0:0:0:
74,119,357856,1,8,0:0:0:0:
180,297,358027,1,0,0:0:0:0:
358,143,358198,102,0,L|258:135,1,100
410,272,358541,1,8,0:0:0:0:
510,141,358713,2,0,B|521:94|521:94|501:31,1,100
276,58,359056,1,0,0:0:0:0:
276,58,359141,1,0,0:0:0:0:
276,58,359227,2,0,L|399:36,1,100,8|0,0:0|0:0,0:0:0:0:
185,71,359570,5,0,0:0:0:0:
341,135,359741,1,0,0:0:0:0:
44,200,359913,101,8,0:0:0:0:
239,155,360084,1,0,0:0:0:0:
88,108,360256,2,0,P|68:48|88:-8,1,100
220,256,360598,2,0,B|172:272|172:272|100:252,1,100,8|0,0:0|0:0,0:0:0:0:
4,360,360941,6,0,B|84:332|84:332|196:364,1,179.999994506836
175,358,361284,1,8,0:0:0:0:
159,119,361456,1,0,0:0:0:0:
76,230,361627,101,0,0:0:0:0:
114,258,361713,1,0,0:0:0:0:
159,270,361798,1,0,0:0:0:0:
206,263,361884,1,0,0:0:0:0:
242,231,361970,1,8,0:0:0:0:
464,188,362141,5,0,0:0:0:0:
461,212,362227,1,0,0:0:0:0:
458,235,362313,1,0,0:0:0:0:
454,258,362398,1,0,0:0:0:0:
451,281,362484,1,0,0:0:0:0:
288,106,362656,101,8,0:0:0:0:
319,71,362741,1,0,0:0:0:0:
361,50,362827,1,0,0:0:0:0:
409,48,362913,1,0,0:0:0:0:
450,73,362998,1,0,0:0:0:0:
166,167,363170,5,0,0:0:0:0:
162,142,363256,1,0,0:0:0:0:
159,119,363341,1,8,0:0:0:0:
155,96,363427,1,0,0:0:0:0:
153,74,363513,1,0,0:0:0:0:
350,181,363684,102,0,P|298:209|253:198,1,100
371,295,364027,1,8,0:0:0:0:
288,106,364198,1,0,0:0:0:0:
86,166,364370,5,0,0:0:0:0:
92,213,364456,1,0,0:0:0:0:
97,260,364541,1,0,0:0:0:0:
102,307,364627,1,0,0:0:0:0:
109,354,364713,1,8,0:0:0:0:
430,254,364884,101,0,0:0:0:0:
436,207,364970,1,0,0:0:0:0:
441,160,365056,1,0,0:0:0:0:
446,113,365141,1,0,0:0:0:0:
453,66,365227,1,0,0:0:0:0:
373,321,365398,5,8,0:0:0:0:
394,334,365484,1,0,0:0:0:0:
418,341,365570,1,0,0:0:0:0:
443,341,365656,1,0,0:0:0:0:
466,334,365741,1,0,0:0:0:0:
141,98,365913,101,0,0:0:0:0:
120,85,365998,1,0,0:0:0:0:
96,78,366084,1,8,0:0:0:0:
71,78,366170,1,0,0:0:0:0:
48,85,366256,1,0,0:0:0:0:
202,219,366427,5,0,0:0:0:0:
257,91,366598,1,0,0:0:0:0:
82,178,366770,2,0,L|101:281,1,100,8|0,0:0|0:0,0:0:0:0:
108,308,367027,1,0,0:0:0:0:
117,343,367113,1,0,0:0:0:0:
202,219,367284,1,0,0:0:0:0:
0,213,367456,1,8,0:0:0:0:
286,264,367627,102,0,P|295:241|280:156,1,100
117,343,367970,2,0,L|239:324,1,100,0|8,0:0|0:0,0:0:0:0:
411,339,368313,1,0,0:0:0:0:
196,135,368484,1,0,0:0:0:0:
227,95,368570,1,0,0:0:0:0:
274,78,368656,1,0,0:0:0:0:
323,77,368741,1,0,0:0:0:0:
368,97,368827,1,8,0:0:0:0:
286,264,368998,1,0,0:0:0:0:
111,117,369170,6,0,L|130:224,1,100
295,175,369513,1,8,0:0:0:0:
163,38,369684,1,0,0:0:0:0:
30,181,369856,2,0,L|50:290,1,100
202,355,370198,1,8,0:0:0:0:
295,175,370370,1,0,0:0:0:0:
134,255,370541,102,0,B|184:264|184:264|238:248,1,100
418,279,370884,2,0,B|368:264|368:264|314:286,1,100,8|0,0:0|0:0,0:0:0:0:
444,362,371227,1,0,0:0:0:0:
470,191,371398,1,0,0:0:0:0:
473,151,371484,1,0,0:0:0:0:
475,110,371570,1,8,0:0:0:0:
512,294,371741,1,0,0:0:0:0:
219,162,371913,6,0,P|303:174|385:87,1,200,0|8,0:0|0:0,0:0:0:0:
120,143,372427,1,0,0:0:0:0:
262,258,372598,6,0,L|367:276,1,100
88,139,372941,1,8,0:0:0:0:
280,63,373113,6,0,L|385:45,1,100
49,133,373456,1,0,0:0:0:0:
360,274,373627,102,0,L|465:292,1,100,8|0,0:0|0:0,0:0:0:0:
18,127,373970,1,0,0:0:0:0:
470,168,374141,1,0,0:0:0:0:
421,181,374227,1,0,0:0:0:0:
370,178,374313,1,8,0:0:0:0:
326,154,374398,1,0,0:0:0:0:
295,114,374484,1,0,0:0:0:0:
280,63,374570,1,0,0:0:0:0:
304,19,374656,6,0,B|379:0|445:14|445:14|434:39|395:56,1,200,0|8,0:0|0:0,0:0:0:0:
190,38,375170,1,0,0:0:0:0:
100,158,375341,2,0,L|118:274,1,100
115,256,375598,1,0,0:0:0:0:
115,256,375684,1,8,0:0:0:0:
403,52,375856,102,0,L|385:168,1,100,0|8,0:0|0:0,0:0:0:0:
387,150,376113,1,0,0:0:0:0:
387,150,376198,1,0,0:0:0:0:
155,81,376370,2,0,L|281:63,1,100
100,158,376713,5,8,0:0:0:0:
57,132,376798,1,0,0:0:0:0:
40,84,376884,1,0,0:0:0:0:
51,35,376970,2,0,L|138:21,1,50
206,167,377227,1,0,0:0:0:0:
337,12,377398,6,0,P|353:58|339:118,1,100,4|0,0:0|0:0,0:0:0:0:
155,81,377741,1,0,0:0:0:0:
319,221,377913,1,0,0:0:0:0:
319,221,377998,1,0,0:0:0:0:
319,221,378084,2,0,L|451:201,1,100,8|0,0:0|0:0,0:0:0:0:
264,320,378427,1,0,0:0:0:0:
110,169,378598,6,0,P|96:227|116:278,1,100
155,81,378941,1,0,0:0:0:0:
155,81,379027,1,0,0:0:0:0:
155,81,379113,2,0,L|30:65,1,100
110,169,379456,102,0,B|168:176|168:176|208:152|208:152|288:160,1,150.000005722046,8|0,0:0|0:0,0:0:0:0:
420,180,379970,1,0,0:0:0:0:
336,112,380141,6,0,P|324:60|340:8,1,100
508,132,380484,2,0,P|520:184|504:236,1,100
276,344,380827,1,8,0:0:0:0:
312,208,380998,1,0,0:0:0:0:
468,312,381170,2,0,L|340:300,1,100
128,256,381513,102,0,L|0:268,1,100
188,344,381856,1,0,0:0:0:0:
236,128,382027,2,0,L|116:140,1,100,0|8,0:0|0:0,0:0:0:0:
312,208,382370,1,0,0:0:0:0:
448,112,382541,2,0,B|458:66|458:66|436:-12,1,100
44,88,382884,6,0,B|33:133|33:133|56:212,1,100
200,252,383227,1,0,0:0:0:0:
236,128,383398,1,0,0:0:0:0:
116,328,383570,101,8,0:0:0:0:
156,356,383656,1,0,0:0:0:0:
204,364,383741,1,0,0:0:0:0:
252,356,383827,1,0,0:0:0:0:
292,324,383913,1,0,0:0:0:0:
328,60,384084,5,0,0:0:0:0:
288,32,384170,1,0,0:0:0:0:
240,24,384256,1,0,0:0:0:0:
192,32,384341,1,0,0:0:0:0:
152,64,384427,1,0,0:0:0:0:
404,184,384598,101,0,0:0:0:0:
408,160,384684,1,0,0:0:0:0:
412,136,384770,1,0,0:0:0:0:
416,112,384856,1,0,0:0:0:0:
420,88,384941,1,8,0:0:0:0:
68,140,385113,5,0,0:0:0:0:
72,164,385198,1,0,0:0:0:0:
76,188,385284,1,0,0:0:0:0:
80,212,385370,1,0,0:0:0:0:
84,236,385456,1,0,0:0:0:0:
320,320,385627,102,0,B|376:304|376:304|420:320|420:320|464:332|528:288|528:288|488:260|444:276,1,300
228,268,386313,5,8,0:0:0:0:
216,288,386398,1,0,0:0:0:0:
212,312,386484,1,0,0:0:0:0:
216,336,386570,1,0,0:0:0:0:
224,360,386656,1,0,0:0:0:0:
388,144,386827,101,0,0:0:0:0:
400,124,386913,1,0,0:0:0:0:
404,100,386998,1,0,0:0:0:0:
400,76,387084,1,0,0:0:0:0:
392,52,387170,1,0,0:0:0:0:
312,316,387341,5,0,0:0:0:0:
364,312,387427,1,0,0:0:0:0:
412,308,387513,1,0,0:0:0:0:
460,304,387598,1,0,0:0:0:0:
508,300,387684,1,8,0:0:0:0:
304,92,387856,101,0,0:0:0:0:
252,88,387941,1,0,0:0:0:0:
204,84,388027,1,0,0:0:0:0:
156,80,388113,1,0,0:0:0:0:
108,76,388198,1,0,0:0:0:0:
388,144,388370,6,4,P|404:92|384:40,1,100
216,180,388713,1,0,0:0:0:0:
380,252,388884,1,0,0:0:0:0:
380,252,388970,1,0,0:0:0:0:
380,252,389056,2,0,L|496:236,2,100,8|0|0,0:0|0:0|0:0,0:0:0:0:
200,368,389570,2,0,P|188:308|204:268,1,100
288,328,389913,1,0,0:0:0:0:
76,148,390084,2,0,L|88:252,1,100
8,72,390427,102,0,B|112:20|112:96|220:40,1,200,8|0,0:0|0:0,0:0:0:0:
380,68,390941,1,0,0:0:0:0:
292,132,391113,6,0,B|276:180|276:180|292:248,1,100
432,272,391456,2,0,B|448:320|448:320|432:388,1,100
212,268,391798,1,8,0:0:0:0:
352,336,391970,1,0,0:0:0:0:
380,184,392141,1,0,0:0:0:0:
256,348,392313,1,0,0:0:0:0:
256,348,392398,1,0,0:0:0:0:
256,348,392484,102,0,P|196:364|159:346,1,100
72,152,392827,1,0,0:0:0:0:
36,241,392998,2,0,P|99:247|139:217,1,100,0|8,0:0|0:0,0:0:0:0:
240,64,393341,1,0,0:0:0:0:
276,153,393512,2,0,P|213:159|173:129,1,100,0|8,0:0|0:0,0:0:0:0:
240,64,393856,86,0,P|311:56|371:126,1,150
444,220,394541,6,0,L|456:112,1,100,8|0,0:0|0:0,0:0:0:0:
256,328,394884,1,0,0:0:0:0:
68,220,395056,102,0,L|56:112,1,100
256,340,395398,1,0,0:0:0:0:
444,220,395570,6,0,L|456:112,1,100
256,352,395913,1,8,0:0:0:0:
160,104,396084,2,0,P|256:72|352:104,1,200
322,170,396598,102,0,P|246:142|182:178,1,150
437,163,397284,6,0,L|450:271,1,100,8|0,0:0|0:0,0:0:0:0:
256,48,397627,1,0,0:0:0:0:
75,163,397798,102,0,L|62:271,1,100
256,32,398141,1,0,0:0:0:0:
437,163,398313,6,0,L|450:271,1,100
256,16,398656,1,8,0:0:0:0:
219,216,398827,2,0,P|259:324|279:208,1,299.999990844727
256,154,399341,101,6,0:0:0:0:
