osu file format v9

[General]
AudioFilename: nanatsuop.mp3
AudioLeadIn: 1000
PreviewTime: 61518
Countdown: 0
SampleSet: Soft
StackLeniency: 0.7
Mode: 0
LetterboxInBreaks: 0

[Editor]
DistanceSpacing: 1
BeatDivisor: 4
GridSize: 8

[Metadata]
Title:Koisuru Fluorite (Short Ver.)
Artist:Akira
Creator:biwako
Version:Normal
Source:Nanatsuiro Drops
Tags:unisonshift opening Kanpakyin

[Difficulty]
HPDrainRate:3
CircleSize:3
OverallDifficulty:3
ApproachRate:4
SliderMultiplier:1
SliderTickRate:2

[Events]
//Background and Video events
0,0,"kabe006_1024.jpg"
Video,0,"nanatsuop.flv"
//Break Periods
//Storyboard Layer 0 (Background)
//Storyboard Layer 1 (Fail)
//Storyboard Layer 2 (Pass)
//Storyboard Layer 3 (Foreground)
//Storyboard Sound Samples
//Background Colour Transformations
3,100,163,162,255

[TimingPoints]
-46,389.61038961039,4,2,2,50,1,0
15826,-100,4,2,1,50,0,0
16021,-100,4,2,2,50,0,0
17385,-100,4,2,1,50,0,0
17579,-100,4,2,2,50,0,0
18943,-100,4,2,1,50,0,0
19138,-100,4,2,2,50,0,0
23618,-100,4,2,1,50,0,0
23817,-100,4,2,2,50,0,0
25181,-100,4,2,1,50,0,0
25372,-100,4,2,2,50,0,0
29852,-100,4,2,1,50,0,0
30047,-100,4,2,2,50,0,0
33748,-100,4,2,2,40,0,0
34138,-100,4,2,2,50,0,0
34527,-100,4,2,1,50,0,0
34722,-100,4,2,2,50,0,0
39203,-100,4,2,1,50,0,0
39398,-100,4,2,2,50,0,0
42320,-100,4,2,1,50,0,0
42514,-100,4,2,2,50,0,0
43878,-100,4,2,1,50,0,0
44073,-100,4,2,2,50,0,0
57904,-100,4,2,1,50,0,0
58099,-100,4,2,2,50,0,0
59462,-100,4,2,1,50,0,0
59657,-100,4,2,2,50,0,0
62096,-100,4,2,2,60,0,1
74759,-100,4,2,2,50,0,0
87031,-100,4,2,2,60,0,1
99694,-100,4,2,2,50,0,0
105928,-100,4,2,2,60,0,1
112161,-100,4,2,2,5,0,0

[Colours]
Combo1 : 255,170,85
Combo2 : 255,85,85
Combo3 : 170,255,85
Combo4 : 85,170,255
Combo5 : 255,255,85

[HitObjects]
256,80,1122,1,2
352,72,1512,2,0,B|459:120|459:264|360:320|360:320,1,300,0|2
256,336,3070,2,0,B|152:344|56:304,1,200
32,208,4239,1,2
56,112,4629,6,0,B|128:40|256:40|328:112,1,300,0|2
376,128,5992,2,0,B|363:175|366:231,1,100
316,316,6772,2,0,B|364:324|420:316,2,100,0|2|0
268,300,7746,6,0,B|284:220|268:148,1,150,0|2
256,192,8525,12,2,10083
144,248,10863,6,0,B|240:232|344:248,1,200,0|2
256,128,12226,2,0,B|303:136|355:128,2,100,0|0|2
256,192,13103,12,0,14759
168,80,15538,6,0,B|240:72|320:80,2,150,4|0|8
168,184,17096,2,0,B|96:192|16:184,2,150,0|0|8
168,288,18655,6,0,B|240:280|320:288,2,150,0|0|8
80,240,20213,2,0,B|72:192|80:136,1,100,0|8
88,88,20798,2,0,B|136:80|192:88,1,100,0|8
280,56,21577,6,0,B|368:64|376:160,1,150,4|8
376,204,22356,2,0,B|368:292|272:300,1,150,0|8
264,200,23330,2,0,B|112:200,1,150
64,216,24109,2,0,B|56:160|64:112,1,100,0|8
136,40,24889,6,0,B|208:24|288:40,2,150,0|0|8
88,128,26447,2,0,B|136:136|192:128,1,100,0|8
232,112,27031,2,0,B|269:142|322:164,1,100,0|8
368,248,27811,6,0,B|288:256|224:296,1,150,4|8
184,320,28590,2,0,B|176:240|136:176,1,150,0|8
208,108,29564,2,0,B|273:154|347:165,2,150,0|0|8
136,176,31122,5,0
160,272,31512,1,8
160,272,31707,2,0,B|232:264|312:272,1,150,0|8
408,240,32681,2,0,B|416:192|408:136,1,100,0|8
360,120,33265,2,0,B|312:128|256:120,1,100,0|8
232,168,33850,2,8,B|184:160,1,50
152,120,34239,6,0,B|72:136|8:168,2,150,4|0|8
248,96,35798,1,0
344,128,36187,1,8
344,128,36382,2,0,B|305:185|244:239,1,150,0|8
152,288,37356,6,0,B|136:240|128:192,1,100,0|8
80,176,37941,2,0,B|95:96|126:34,1,150,0|8
216,80,38915,2,0,B|288:88|368:80,1,150,0|0
472,76,39889,1,8
472,176,40278,6,0,B|480:248|472:328,1,150,4|8
424,344,41057,2,0,B|352:336|272:344,1,150,0|8
176,360,42031,2,0,B|143:288|100:230,2,150,0|0|8
256,296,43590,6,0,B|328:304|408:296,2,150,4|0|8
256,192,45148,2,0,B|208:184|152:192,1,100,0|8
104,200,45733,2,0,B|96:272|104:352,1,150,0|8
200,368,46707,5,4
296,352,47096,2,8,B|416:344|424:224,1,200
472,136,48265,2,0,B|424:128|368:136,3,100,0|8|0|8
272,112,49824,5,0
176,88,50213,2,8,B|128:144|104:224,1,150,8|8
200,256,51187,2,0,B|256:304|336:328,1,150,8|8
384,328,51966,2,0,B|432:272|456:192,1,150,0|8
432,96,52941,5,4
336,72,53330,2,8,B|232:56|136:72,1,200
40,96,54499,1,0
112,168,54889,1,8
256,312,55668,1,8
160,336,56057,5,4
184,240,56447,2,0,B|240:192|320:168,1,150,8|8
256,88,57421,1,8
256,88,57616,2,0,B|200:136|120:160,2,150,4|0|8
352,56,59174,6,0,B|432:136|432:248|352:328|352:328,1,300,4|8
304,344,60538,2,0,B|256:336|200:344,1,100,12|12
160,328,61122,1,12
88,88,62096,6,0,B|160:64|240:56,2,150,4|8|0
80,136,63460,1,8
160,192,63850,2,0,B|208:184|264:192,3,100,0|8|0|8
312,184,65213,6,0,B|296:256|312:336,1,150,0|8
408,360,66187,2,0,B|448:336|480:288|480:288,1,100,0|8
504,248,66772,2,0,B|454:193|428:116,1,150,0|8
416,72,67551,2,0,B|363:72|318:54,1,100,0|8
292,152,68330,6,0,B|248:212|217:281,1,150,4|8
144,96,69694,1,8
120,192,70083,2,0,B|112:240|96:296,3,100,0|8|0|8
120,336,71447,6,0,B|192:352|272:336,1,150,0|8
352,288,72421,1,0
384,192,72811,1,8
384,192,73005,2,0,B|312:176|232:192,1,150,0|8
136,216,73979,1,0
120,120,74369,1,8
216,96,74759,6,0,B|288:104|368:96,2,150,4|0|8
120,120,76317,1,0
248,192,76902,2,0,B|320:184|400:192,1,150,0|8
400,288,77876,6,0,B|328:280|248:288,2,150,0|0|8
440,192,79434,2,0,B|452:77|330:6|236:74,1,300,0|8
176,152,80992,5,0
232,232,81382,1,0
232,232,81577,2,8,B|240:280|232:336,1,100
136,360,82356,2,8,B|90:296|61:230,1,150
80,128,83330,2,0,B|72:80,2,50,0|0|8
128,136,83915,6,0,B|200:120|280:136,2,150,0|8|0
88,168,85278,1,8
96,216,85473,2,8,B|50:279|21:345,1,150
256,296,87031,6,0,B|325:278|396:244,1,150,4|8
440,224,87811,2,0,B|405:152|388:83,1,150,0|8
304,32,88785,2,0,B|256:24|200:32,3,100,0|8|0|8
152,24,90148,6,0,B|134:93|100:164,1,150,0|8
152,248,91122,1,0
208,328,91512,1,8
208,328,91707,2,0,B|280:320|360:328,1,150,0|8
440,272,92681,1,0
384,192,93070,5,8
384,192,93265,2,0,B|312:200|232:192,1,150,4|8
136,176,94239,1,0
48,136,94629,1,8
72,40,95018,2,0,B|112:72|168:88,3,100,0|8|0|8
208,88,96382,6,0,B|264:40|344:16,1,150,0|8
440,40,97356,1,0
480,128,97746,1,8
480,128,97941,2,0,B|488:200|480:280,1,150,0|8
384,312,98915,1,0
288,280,99304,1,8
192,312,99694,6,0,B|112:312|48:272,2,150,4|0|8
288,280,101252,2,0,B|372:227|479:227,1,200
512,128,102421,1,8
432,72,102811,6,0,B|293:16|134:44,1,300,0|8
88,56,104174,2,0,B|96:120|88:160,3,100,0|8|8|8
160,288,105928,6,0,B|208:272|256:264,1,100,4|8
304,264,106512,2,0,B|372:226|420:170,1,150,0|8
472,88,107486,2,0,B|423:79|375:63,1,100,0|8
328,56,108070,2,0,B|279:71|231:80,1,100,0|8
136,56,108850,6,8,B|80:103|42:172,1,150,4|8
72,272,109824,2,0,B|120:280|176:272,1,100,0|8
256,320,110603,1,0
344,272,110992,1,8
256,224,111382,2,0,B|256:176,3,50,0|8|0|8
256,192,112161,12,0,115278
