osu file format v9

[General]
AudioFilename: nanatsuop.mp3
AudioLeadIn: 1000
PreviewTime: 61518
Countdown: 0
SampleSet: Soft
StackLeniency: 0.7
Mode: 0
LetterboxInBreaks: 0

[Editor]
DistanceSpacing: 1
BeatDivisor: 4
GridSize: 8

[Metadata]
Title:Koisuru Fluorite (Short Ver.)
Artist:Akira
Creator:biwako
Version:Hard
Source:Nanatsuiro Drops
Tags:unisonshift opening Kanpakyin

[Difficulty]
HPDrainRate:6
CircleSize:4
OverallDifficulty:6
ApproachRate:7
SliderMultiplier:1.5
SliderTickRate:2

[Events]
//Background and Video events
0,0,"kabe006_1024.jpg"
Video,0,"nanatsuop.flv"
//Break Periods
//Storyboard Layer 0 (Background)
//Storyboard Layer 1 (Fail)
//Storyboard Layer 2 (Pass)
//Storyboard Layer 3 (Foreground)
//Storyboard Sound Samples
//Background Colour Transformations
3,100,163,162,255

[TimingPoints]
-46,389.61038961039,4,2,2,35,1,0
1313,-200,4,2,2,35,0,0
15534,-100,4,2,2,40,0,0
55762,-100,4,2,2,50,0,0
62096,-100,4,2,2,60,0,1
74759,-100,4,2,2,50,0,0
87031,-100,4,2,2,60,0,1
99694,-100,4,2,2,50,0,0
105928,-100,4,2,2,60,0,1
112161,-80,4,2,2,5,0,0

[Colours]
Combo1 : 255,170,85
Combo2 : 255,85,85
Combo3 : 170,255,85
Combo4 : 85,170,255
Combo5 : 255,255,85

[HitObjects]
88,192,1122,1,2
88,192,1317,2,0,B|128:200|168:192,1,75
240,200,1902,2,0,B|300:188|360:200,1,112.5
424,176,2681,1,2
424,176,2876,1,0
424,176,3070,2,0,B|432:136|424:96,1,75
392,32,3655,2,0,B|344:24,1,37.5
296,72,4044,2,0,B|259:78,1,37.5,0|2
184,72,4434,6,0,B|176:112|184:152,1,75
120,192,5018,2,0,B|160:237|180:295,1,112.5
256,296,5798,1,2
256,296,5992,2,0,B|289:284|320:257,1,75,0|0
424,152,6772,2,0,B|390:163|359:190,1,75,0|2
256,192,7551,12,2,10473
256,192,10863,6,0,B|216:192,2,37.5
400,232,11642,2,0,B|408:192|400:152,1,75,0|2
344,104,12226,2,0,B|305:90|274:64,1,75
128,104,13005,2,0,B|104:192|128:296,1,187.5,0|2
392,264,14759,1,0
392,120,15148,1,0
328,80,15343,5,0
328,80,15538,2,0,B|256:72|176:80,1,150,4|8
104,64,16122,2,0,B|58:127|29:193,1,150
64,264,16707,1,8
64,264,16902,1,0
200,320,17096,6,0,B|245:256|274:190,1,150,0|8
320,256,17681,2,0,B|274:192|245:126,1,150
184,80,18265,1,8
88,192,18655,6,0,B|133:255|162:321,1,150,0|8
232,352,19239,2,0,B|320:344|379:326,1,150
424,264,19824,1,8
440,192,20018,1,0
328,88,20213,6,0,B|256:80|176:88,1,150,0|8
152,160,20798,1,0
296,192,21187,1,8
155,243,21577,6,0,B|225:225|296:192,1,150,4|0
368,176,22161,1,8
424,224,22356,2,0,B|353:241|283:275,1,150
216,296,22941,1,8
104,192,23330,5,0
216,88,23720,1,8
216,88,23915,1,0
288,72,24109,2,0,B|328:80|368:72,1,75
392,144,24499,2,0,B|430:129|470:130,1,75,8|0
448,208,24889,6,0,B|464:280|448:360,1,150,0|8
376,344,25473,2,0,B|304:328|224:344,1,150
152,352,26057,1,8
80,336,26252,1,0
56,192,26447,6,0,B|110:241|187:268,1,150,0|8
256,256,27031,1,0
392,192,27421,1,8
272,96,27811,6,0,B|197:121|143:170,1,150,12|0
96,112,28395,1,8
96,112,28590,2,0,B|145:166|170:240,1,150
224,296,29174,1,8
224,296,29564,2,0,B|292:267|370:269,1,150,0|8
400,200,30148,5,0
336,144,30343,1,0
256,120,30538,1,0
176,144,30733,1,8
120,200,30928,1,0
80,56,31122,6,0,B|30:110|4:187,1,150,0|8
32,256,31707,2,0,B|104:240|184:256,1,150
256,272,32291,1,8
328,256,32486,1,0
400,272,32681,6,0,B|416:200|400:120,1,150,0|8
472,152,33265,2,0,B|397:126|343:77,1,150
272,104,33850,1,8
272,104,34044,1,8
152,192,34239,6,0,B|226:217|280:266,1,150,4|8
256,336,34824,2,0,B|281:261|330:207,1,150
344,136,35408,1,8
344,136,35603,1,0
272,104,35798,6,0,B|200:120|120:104,1,150,0|8
72,160,36382,2,0,B|142:182|203:236,1,150
264,272,36966,2,0,B|304:280|344:272,1,75,8|0
384,336,37356,6,0,B|332:277|310:206,1,150,0|8
384,192,37941,2,0,B|361:121|310:62,1,150
256,112,38525,1,8
200,64,38720,1,0
120,192,38915,6,0,B|190:214|249:265,1,150,0|8
385,185,39499,2,0,B|314:163|256:112,1,150,0|8
56,336,40278,6,0,B|128:320|208:336,1,150,12|0
272,304,40863,1,8
344,336,41057,2,0,B|409:292|448:229,1,150
472,160,41642,1,8
408,24,42031,2,0,B|336:8|256:24,1,150,0|8
201,76,42616,5,0
233,172,42811,1,0
150,115,43005,1,0
252,115,43200,1,8
169,172,43395,1,0
128,240,43590,6,0,B|186:291|257:313,1,150,0|8
336,296,44174,2,0,B|387:237|409:166,1,150
344,120,44759,1,8
344,120,44954,1,0
200,48,45148,6,0,B|129:70|70:121,1,150,0|8
112,192,45733,1,0
192,176,45928,2,0,B|192:136,2,37.5,0|0|8
272,192,46317,2,8,B|272:232,2,37.5
352,208,46707,6,0,B|368:136|352:56,1,150,4|8
432,88,47291,1,0
432,88,47486,2,0,B|416:160|432:240,1,150,0|8
368,288,48070,5,0
368,288,48265,2,0,B|296:272|216:288,1,150,0|8
219,287,48850,2,0,B|200:136,1,150
192,56,49434,1,8
136,208,49824,6,0,B|214:209|282:181,1,150,0|8
368,192,50408,2,0,B|333:126|328:48,2,150,0|8|8
400,272,51382,6,0,B|321:277|256:311,1,150,0|8
224,232,51966,2,0,B|302:226|367:192,1,150,0|8
448,200,52551,1,8
456,280,52746,2,0,B|456:320,2,37.5,8|8|4
400,104,53330,5,8
328,72,53525,1,0
328,72,53720,2,0,B|250:83|188:123,1,150,0|8
152,56,54304,5,0
152,56,54499,2,0,B|191:118|203:195,1,150,0|8
136,216,55083,2,0,B|213:204|275:164,1,150
352,144,55668,1,8
432,152,55863,1,0
448,232,56057,6,0,B|371:216|299:232,1,150,4|8
256,304,56642,1,0
136,192,57031,2,8,B|56:200,2,75,8|0|8
208,232,57616,6,0,B|236:158|233:85,1,150,4|8
312,112,58200,2,0,B|304:192,2,75,8|0|8
392,88,58785,1,8
384,168,58979,1,8
392,88,59174,6,0,B|318:59|245:62,1,150,4|8
160,64,59759,1,0
80,72,59954,1,8
96,152,60148,2,8,B|136:160,2,37.5
16,120,60538,6,12,B|31:196|15:268,1,150
96,296,61122,1,12
256,272,61512,1,0
248,192,61707,1,8
240,112,61902,1,0
408,128,62096,6,0,B|358:182|333:256,1,150,4|0
392,304,62681,1,8
392,304,62876,2,0,B|337:254|263:229,1,150
192,192,63460,1,8
104,48,63655,6,0,B|158:97|232:122,1,150
224,40,64239,1,8
304,56,64434,1,0
368,104,64629,1,0
392,184,64824,1,0
376,264,65018,1,8
328,328,65213,6,0,B|256:343|180:328,1,150
104,296,65798,1,8
104,296,65992,1,0
168,248,66187,2,0,B|158:175|116:108,1,150,0|8
256,24,66772,6,0,B|265:96|307:163,1,150
240,216,67356,1,8
168,248,67551,2,0,B|245:232|316:247,1,150
384,192,68135,1,8
408,264,68330,6,0,B|379:190|382:117,1,150,4|0
456,120,68915,1,8
456,120,69109,2,0,B|383:122|309:93,1,150
224,104,69694,1,8
176,176,69889,6,0,B|248:173|322:202,1,150
344,280,70473,1,8
272,312,70668,1,0
200,280,70863,2,0,B|128:283|54:254,1,150,0|8
80,88,71447,6,0,B|152:85|226:114,1,150
304,136,72031,1,8
384,120,72226,1,0
328,64,72421,2,0,B|298:138|301:210,1,150,0|8
176,320,73005,6,0,B|205:245|202:173,1,150
160,104,73590,1,8
216,40,73785,2,0,B|256:32,2,37.5
136,24,74174,1,0
160,104,74369,5,8
160,104,74564,2,0,B|234:133|306:130,1,150,4|0
472,104,75343,2,0,B|488:256,1,150
416,288,75928,1,8
344,256,76122,6,0,B|269:226|197:229,1,150
256,72,76902,1,0
176,88,77096,1,0
144,168,77291,1,0
197,229,77486,1,8
144,168,77681,6,0,B|216:152|296:168,1,150
368,136,78265,1,0
440,96,78460,2,0,B|368:112|288:96,1,150
256,24,79044,2,0,B|216:16|176:24,1,75,8|0
104,56,79434,6,0,B|155:114|177:185,1,150
96,168,80018,2,0,B|169:177|236:218,1,150
232,304,80603,1,8
160,264,80798,6,0,B|169:191|210:124,1,150
280,80,81382,1,0
280,80,81577,2,0,B|352:64|432:80,1,150,8|8
512,224,82356,6,0,B|440:240|360:224,1,150,8|0
392,304,82941,2,0,B|320:288|240:304,1,150,8|0
160,280,83525,1,0
80,256,83720,1,8
96,176,83915,6,0,B|240:216,1,150
304,168,84499,1,8
272,96,84694,2,0,B|200:112|120:96,1,150
152,16,85278,1,8
96,176,85473,6,0,B|166:198|227:252,1,150,8|8
304,256,86057,2,0,B|312:216|328:176,1,75,8|0
400,152,86447,1,0
392,232,86642,1,8
400,152,86837,1,0
256,64,87031,6,0,B|185:86|124:140,1,150,4|8
118,62,87616,1,8
118,62,87811,2,0,B|188:84|254:142,1,150
320,128,88395,1,8
400,112,88590,6,0,B|452:170|474:241,1,150
432,312,89174,1,8
352,336,89369,1,0
272,320,89564,2,0,B|220:262|198:191,1,150,0|8
200,24,90148,6,0,B|252:82|274:153,1,150
352,184,90733,1,8
352,184,90928,1,0
288,232,91122,2,0,B|230:284|159:306,1,150,0|8
80,296,91707,6,0,B|30:241|4:164,1,150
24,72,92291,1,8
24,72,92486,2,0,B|73:126|100:203,1,150
98,200,93070,1,8
168,240,93265,6,0,B|226:188|297:166,1,150,4|0
368,128,93850,1,8
344,48,94044,2,0,B|285:99|214:121,1,150
168,192,94629,2,0,B|208:200|248:216,1,75,8|0
320,200,95018,5,0
320,200,95213,1,0
400,216,95408,1,8
400,216,95603,1,0
440,288,95798,2,0,B|471:275|511:267,2,75,0|0|8
400,360,96382,6,0,B|332:319|259:309,1,150
256,224,96966,2,0,B|216:232|176:232,1,75,8|0
104,264,97356,2,0,B|94:190|53:123,1,150,0|8
104,56,97941,6,0,B|175:40|252:55,1,150
344,192,98525,2,0,B|272:207|195:192,2,150,8|0|8
408,344,99499,5,0
408,344,99694,2,0,B|336:328|259:343,1,150,4|0
216,272,100278,2,0,B|293:260|355:220,1,150
392,144,100863,1,8
392,144,101057,1,0
336,80,101252,6,0,B|258:91|196:131,1,150
112,112,101837,1,0
32,136,102031,2,0,B|24:96|40:48,2,75,0|0|8
112,112,102616,6,0,B|123:189|163:251,1,150
163,251,103200,1,0
163,251,103395,2,0,B|234:234|311:249,1,150
368,192,103979,1,8
352,112,104174,5,8
368,280,104564,1,8
200,288,104954,1,8
184,120,105343,1,8
184,120,105538,2,8,B|120:104,2,37.5
256,72,105928,6,0,B|328:88|408:72,1,150,4|8
456,136,106512,2,0,B|406:190|380:267,1,150
304,288,107096,1,8
304,288,107291,1,0
224,272,107486,5,0
280,208,107681,2,0,B|264:168|256:128,1,75,0|8
176,144,108070,2,0,B|164:221|124:283,1,150,0|8
256,376,108850,6,0,B|318:336|395:324,1,150,12|0
456,272,109434,1,8
480,192,109629,1,0
456,112,109824,2,0,B|393:72|316:60,1,150,0|8
160,120,110603,6,0,B|144:191|159:268,1,150,0|8
240,288,111187,1,0
320,272,111382,2,0,B|312:200,2,37.5,0|8|0
400,288,111772,2,0,B|408:360,2,37.5,0|8|8
256,192,112161,12,0,115278
