osu file format v5

[General]
AudioFilename: Akira - Koisuru Flow Light.mp3
AudioLeadIn: 2963
PreviewTime: 60563
Countdown: 0
SampleSet: Soft
StackLeniency: 0.7
Mode: 0
LetterboxInBreaks: 1
EditorDistanceSpacing: 0.800000011920929

[Metadata]
Title:Koisuru Flow Light
Artist:Akira
Creator:illuminist
Version:Hard
Source:Nanatsuiro Drops Pure!
Tags:game nanatsuiro drops pure opening op akira

[Difficulty]
HPDrainRate:6
CircleSize:5
OverallDifficulty:6
SliderMultiplier:1.2
SliderTickRate:1

[Events]
//Background and Video events
0,0,"nanatspurebg.jpg"
1,-200,"nanatsuiro drop pure.avi"
//Break Periods
2,72646,78260
//Storyboard Layer 0 (Background)
//Storyboard Layer 1 (Failing)
//Storyboard Layer 2 (Passing)
//Storyboard Layer 3 (Foreground)
4,3,1,"sp-01.png",525,316 M,0,10303,10303,525,316,525,316 F,0,10303,11083,0,1 F,0,11083,13420,1,1 F,0,13420,14199,1,0
4,3,1,"sp-02.png",526,362 M,0,11083,11083,526,362,526,362 F,0,11083,11862,0,1 F,0,11862,13420,1,1 F,0,13420,14199,1,0
//Storyboard Sound Samples
//Background Colour Transformations
3,100,255,255,155

[TimingPoints]
174,389.61038961039,4,2,0,100,1,0
13420,-100,4,2,0,100,0,0
59979,-100,4,1,0,100,0,0
60563,-100,4,1,1,100,0,1
73616,-100,4,2,0,100,0,0
85303,-100,4,1,1,100,0,1
98161,-100,4,2,0,100,0,0
104589,-100,4,1,0,100,0,0
122901,-100,4,2,0,100,0,0
134686,-100,4,2,1,0,0,0

[Colours]
Combo1 : 21,213,136
Combo2 : 250,187,141
Combo3 : 253,249,87

[HitObjects]
78,115,14589,6,2,B|174:51|286:115,1,180
466,193,16148,2,2,B|434:273|290:289,1,180,2|2
200,276,17122,2,2,B|152:276|152:228,1,60,2|2
88,152,17706,2,2,B|120:56|264:72,1,180
461,57,19070,5,0
420,101,19265,2,2,B|483:156|392:226,1,120
425,263,19849,1,0
305,270,20239,1,2
185,273,20628,2,2,B|25:273|89:81,1,240
96,176,22966,5,0
153,159,23161,2,2,B|345:95|345:192,2,180
288,304,25304,5,0
234,331,25499,2,2,B|122:299|120:176,1,180
89,89,26473,1,0
205,61,26862,1,2
324,73,27252,1,0
370,110,27447,2,2,B|418:174|277:282,1,180
288,96,29200,5,0
317,148,29395,1,2
266,181,29590,1,0
296,232,29784,1,2
251,272,29979,2,2,B|91:240|91:160,1,180
101,130,30758,2,2,B|253:131,2,120
368,96,33291,6,2,B|451:117|464:224,1,120
445,233,33875,2,2,B|373:339|282:293,1,180
234,292,34654,1,0
184,256,34849,2,2,B|120:240|80:176,1,120
45,148,35434,1,0
130,64,35823,2,2,B|236:17|329:139,1,180
384,128,37771,5,0
425,171,37966,2,2,B|281:299,1,180
186,229,38940,1,2
243,123,39330,2,2,B|289:268|99:203,1,180
97,242,40109,2,2,B|40:91|79:43|280:43,1,300
382,118,41667,5,0
332,152,41862,1,2
381,186,42057,1,0
337,227,42252,1,2
372,275,42447,2,2,B|244:355|148:227,1,240
384,240,44005,5,0
441,258,44200,2,2,B|403:347|302:304,1,120
297,283,44784,1,2
190,227,45174,1,4
91,76,45758,5,0
211,76,46148,1,10
271,77,46343,1,2
331,78,46538,1,2
246,162,46927,1,10
306,163,47122,2,2,B|336:300|212:306,1,180,2|10
176,304,47901,1,2
115,304,48096,1,2
118,183,48486,1,10
177,182,48680,1,2
297,182,49070,5,2
357,182,49265,1,10
416,185,49460,2,2,B|390:267|325:221,2,120
237,164,50823,1,2
187,197,51018,1,2
275,277,51408,1,2
315,232,51603,1,2
336,176,51797,1,2
111,89,52577,5,0
84,142,52771,2,2,B|72:219|153:233,1,120
197,205,53356,1,2
354,108,54719,5,0
300,135,54914,2,2,B|174:75|155:213,1,180
134,241,55693,1,2
254,246,56083,2,2,B|338:248|328:171,1,120
327,116,56667,1,2
206,116,57057,1,0
205,176,57252,1,2
324,177,57641,1,2
322,237,57836,1,0
256,192,58031,12,6,59590
128,90,60564,5,4
162,138,60758,1,0
218,116,60953,1,14
252,164,61148,1,0
390,98,62317,5,2
408,155,62512,1,8
368,200,62706,2,0,B|366:269|303:293,1,120,2|0
240,280,63291,1,2
192,240,63486,1,8
184,176,63680,2,0,B|200:96|296:112,1,120,2|0
320,136,64265,1,6
96,224,65044,5,2
98,164,65238,2,0,B|169:165|198:108,1,120,0|2
176,48,65823,1,4
429,287,66603,6,0,B|424:184|349:143,1,120,0|2
339,208,67187,1,8
310,155,67382,1,4
215,168,68551,5,2
184,219,68745,1,8
201,276,68940,2,0,B|271:293|304:198,1,120,0|0
304,160,69525,1,2
359,181,69719,1,8
381,236,69914,2,0,B|401:309|306:342,1,120,0|2
269,328,70499,1,0
93,164,71278,5,2
150,147,71473,2,0,B|241:127|243:229,1,120,0|8
288,240,72057,2,0,B|284:314|353:335,1,120,0|4
136,120,79460,5,0
192,120,79654,1,2
248,120,79849,1,0
248,240,80239,1,2
192,240,80434,1,0
136,240,80628,1,6
315,85,82382,5,0
256,99,82577,1,2
256,158,82771,1,0
293,205,82966,2,2,B|329:269|242:310,1,120
199,279,83551,1,0
148,246,83745,2,2,B|104:175|220:142,1,120
195,93,84330,1,0
253,77,84525,1,6
133,273,85499,5,0
176,231,85693,1,2
221,191,85888,1,12
267,153,86083,1,4
418,157,87252,5,0
386,208,87447,1,10
351,256,87641,2,0,B|335:316|246:323,1,120
199,319,88226,1,2
142,298,88421,1,8
104,251,88616,2,0,B|38:189|108:106,1,120,0|2
118,93,89200,1,0
357,78,89979,5,2
298,90,90174,2,0,B|207:94|169:157,1,120,0|8
152,179,90758,1,4
383,116,91538,6,0,B|431:197|374:243,1,120,0|2
344,267,92122,1,8
288,291,92317,1,4
102,87,93486,5,2
156,62,93680,1,8
215,53,93875,2,0,B|302:31|381:84,1,120
378,98,94460,1,2
412,146,94654,1,8
436,200,94849,2,0,B|457:288|388:336,1,120,0|0
363,346,95434,1,0
128,294,96213,5,2
187,297,96408,2,0,B|264:277|303:217,1,120,0|8
281,176,96992,2,0,B|216:238|142:252,1,120,2|4
426,67,98356,5,2
427,127,98551,2,2,B|370:183|298:113,1,120
318,70,99135,1,2
285,307,99914,1,0
224,308,100109,1,2
109,96,100888,5,0
166,114,101083,1,2
146,170,101278,1,0
202,189,101473,1,2
184,245,101667,2,0,B|234:316|327:285,1,120
319,242,102252,1,2
136,86,103031,5,0
189,58,103226,2,0,B|264:98|211:164,1,120,2|2
98,169,104005,2,0,B|62:236|186:280,1,120,0|4
276,139,104979,6,0,B|356:128|381:218,1,120,0|8
391,250,105564,2,0,B|367:316|208:324,1,180,0|0
196,276,106343,1,0
224,223,106538,1,0
172,192,106732,1,0
211,146,106927,1,8
156,120,107122,2,0,B|97:90|44:140,2,120
256,192,108096,12,4,109654
424,82,111213,6,0,B|454:164|378:225,1,120,0|8
377,143,111797,2,0,B|329:211|373:320,1,180
317,287,112577,1,0
270,323,112771,1,0
235,273,112966,1,0
183,304,113161,1,8
145,256,113356,2,0,B|104:172|162:119,1,120
243,77,114135,5,0
300,60,114330,2,0,B|374:72|414:134,1,120,0|8
426,172,114914,2,0,B|426:259|316:323,1,180
292,267,115693,2,0,B|338:207,1,60
343,160,116083,2,0,B|310:97,1,60,0|8
271,65,116473,2,0,B|192:65,2,60,0|0|4
92,92,117447,6,0,B|55:181|109:254,1,120,0|8
112,262,118031,2,8,B|176:351|269:334,1,180,0|0
284,277,118810,1,0
228,253,119005,1,0
264,205,119200,1,0
217,166,119395,1,8
208,106,119590,2,0,B|138:53|73:130,1,120
85,224,120369,2,0,B|127:329|240:343|317:286,1,240
319,259,121343,1,4
256,192,121538,12,4,123290
155,105,123680,5,0
99,276,124265,1,0
215,247,124654,1,0
245,195,124849,1,0
298,223,125044,1,0
371,127,125434,1,0
261,78,125823,1,0
150,125,126213,1,0
131,182,126408,1,0
167,295,126797,5,2
346,310,127382,1,2
156,77,128356,1,2
89,244,128940,1,2
267,217,129525,1,2
349,130,129914,1,2
401,302,130499,5,0
256,176,130888,1,0
256,176,131083,1,2
256,176,131278,1,0
256,176,131473,1,2
125,299,132057,1,2
304,299,132641,1,0
379,135,133226,1,2
256,176,133810,1,2
256,176,134005,1,0
256,176,134200,1,2
256,176,134395,1,2
256,176,134590,1,2
256,192,134784,12,0,139849
