osu file format v5

[General]
AudioFilename: 創聖的大天使OP.mp3
AudioLeadIn: 0
PreviewTime: -1
Countdown: 1
SampleSet: Soft
StackLeniency: 0.7
Mode: 0
LetterboxInBreaks: 1

[Metadata]
Title:Aquarion OP 1
Artist:Akino
Creator:Vikon
Version:Normal
Source:
Tags:

[Difficulty]
HPDrainRate:5
CircleSize:5
OverallDifficulty:5
SliderMultiplier:1.5
SliderTickRate:4

[Events]
//Background and Video events
//Break Periods
2,33664,45290
//Storyboard Layer 0 (Background)
//Storyboard Layer 1 (Failing)
//Storyboard Layer 2 (Passing)
//Storyboard Layer 3 (Foreground)
//Storyboard Sound Samples
//Background Colour Transformations
3,100,163,162,255

[TimingPoints]
7800,388.852883992223,4,2,0,100,1

[HitObjects]
64,96,7799,2,2,B|160:96,3,75
192,96,8772,1,2
256,96,9355,2,2,B|256:326,1,225
448,288,11105,6,2,B|352:288,3,75
320,288,12077,1,2
256,288,12660,2,2,B|258:59,1,225
192,160,14604,6,2,B|320:256|320:256|320:96,2,300
192,224,16549,2,2,B|193:305,1,75
256,192,17521,12,2,20435
64,96,20826,6,2,B|160:96,3,75
192,96,21798,1,2
192,160,21993,1,2
256,96,22381,2,2,B|256:264,2,150
448,288,23791,6,2,B|352:288,3,75
320,288,24763,1,2
320,224,24958,1,2
256,288,25346,2,2,B|256:128,2,150
192,160,27388,6,2,B|320:256|320:256|320:96,2,300
192,224,29332,2,2,B|193:305,2,75
96,224,30353,6,10,B|96:320|96:320|160:320|160:320|158:247,2,225,10|10|10
128,160,31908,2,10,B|211:124,1,75
256,96,32492,1,10
288,96,32686,2,14,B|448:128|288:192|320:256|384:256|384:288|288:320,1,300
480,64,46490,6,2,B|480:224,2,150
416,224,47803,2,2,B|384:128|320:96,1,150
288,139,48580,2,2,B|256:256|352:256,1,150
384,256,49164,2,2,B|384:352,1,75
352,320,49601,2,2,B|320:352|288:288,3,75
64,288,52129,6,2,B|64:192,3,75
64,128,52971,2,2,B|128:96|224:160,2,150
64,192,54138,2,2,B|128:224|224:192,2,150
64,128,55304,2,2,B|160:96|224:160,1,150
64,192,56147,6,10,B|224:64|352:192,1,300,10|10
352,256,57313,2,10,B|224:352|64:256,1,300
64,192,58480,2,10,B|224:192,6,150
256,192,61024,12,14,61801
416,320,62433,6,2,B|384:224|384:224|224:288|224:288|192:224,1,325
192,256,63730,2,2,B|224:288|224:288|224:160,1,150
224,171,64507,2,2,B|192:128|192:128|193:247,1,150
192,223,65301,2,2,B|371:222,1,175
366,222,66127,2,2,B|352:160|352:160|288:192|288:192|288:160,3,150
224,192,67683,2,10,B|192:224|192:224|160:192,5,75
160,192,68849,6,2,B|192:32,2,150
160,192,70016,2,2,B|224:256,2,75
160,192,70842,2,2,B|89:253,2,75
160,192,71620,2,2,B|352:192,1,175
352,192,72495,2,2,B|32:192,2,300
352,192,74423,2,10,B|512:192,1,150
512,128,75201,6,2,B|416:64|224:160,1,300
224,160,76432,2,2,B|224:320,3,150
256,320,77987,2,2,B|448:320,1,175
448,288,78814,2,10,B|480:224|416:128,6,150
384,288,81552,6,10,B|384:224|384:224|320:224|320:224|320:192,2,150
320,288,82783,2,2,B|160:288,2,150,10|10|10
320,224,84015,1,10
352,160,84339,2,10,B|364:112|346:61,2,75
288,160,85181,2,10,B|279:132|288:96|308:82,1,75
320,96,85570,2,10,B|480:160,1,150
256,192,85959,12,14,89005
