osu file format v9

[General]
AudioFilename: rengoku.mp3
AudioLeadIn: 2000
PreviewTime: 13651
Countdown: 0
SampleSet: Normal
StackLeniency: 0.3
Mode: 0
LetterboxInBreaks: 1

[Editor]
DistanceSpacing: 0.9
BeatDivisor: 4
GridSize: 8

[Metadata]
Title:Umineko no Naku Koro ni ~Rengoku~
Artist:Akiko Shikata
Creator:qinche
Version:Insane
Source:Umineko no Naku Koro ni
Tags:EP1 EP2 beatrice 07th expansion Harmonia ice coffee AngelHoney ignorethis

[Difficulty]
HPDrainRate:5
CircleSize:4
OverallDifficulty:5
ApproachRate:8
SliderMultiplier:1
SliderTickRate:1

[Events]
//Background and Video events
0,0,"Umineko.jpg"
//Break Periods
2,80933,81619
//Storyboard Layer 0 (Background)
//Storyboard Layer 1 (Fail)
//Storyboard Layer 2 (Pass)
//Storyboard Layer 3 (Foreground)
//Storyboard Sound Samples
//Background Colour Transformations
3,100,255,255,53

[TimingPoints]
551.57162993708,272.727272727273,3,1,0,75,1,0
5437,-100,3,1,0,75,0,0
13082,-100,3,1,0,70,0,0
13354,-100,3,1,0,65,0,0
13559,-200,3,1,1,65,0,0
14170,-100,3,1,0,60,0,0
25082,-100,3,1,0,55,0,0
26718,-100,3,1,0,50,0,0
28354,-100,3,2,0,60,0,0
41445,-100,3,1,0,55,0,0
53854,-100,3,1,1,75,0,0
54551,-100,3,1,1,75,0,1
79286,-100,3,1,1,0,0,0
82354,-100,3,1,1,74,0,0
83991,-100,3,1,1,60,0,0
88900,-100,3,1,1,74,0,0
90537,-100,3,1,1,60,0,0
95445,-100,3,2,0,60,0,0
102809,-100,3,1,1,40,0,0
103627,-100,3,1,0,40,0,0
104445,-100,3,1,1,45,0,0
105263,-100,3,1,0,50,0,0
106082,-100,3,1,1,50,0,0
106900,-100,3,1,0,0,0,0
111809,-100,3,1,1,56,0,0
124900,-100,3,1,0,0,0,0
131445,-200,3,2,0,50,0,0
134718,-100,3,1,0,50,0,0
137991,-200,3,2,0,60,0,0
143718,-200,3,1,1,25,0,0
143991,-200,3,1,1,30,0,0
144536,-200,3,2,0,60,0,0
151082,-100,3,1,0,50,0,0
151900,-100,3,1,0,50,0,0
155991,-200,3,1,0,50,0,0
169082,-200,3,1,0,50,0,0
169900,-200,3,1,0,55,0,0
170036,-200,3,1,0,60,0,0
170172,-200,3,1,0,65,0,0
170309,-200,3,1,0,70,0,0
170445,-100,3,1,0,70,0,0
195604,-100,3,1,0,0,0,0

[Colours]
Combo1 : 236,0,6
Combo2 : 255,244,25
Combo3 : 232,232,232
Combo4 : 0,96,255

[HitObjects]
256,296,551,1,4
168,152,824,5,0
152,168,960,5,0
360,168,1233,5,0
344,152,1369,5,0
256,296,1642,5,0
256,194,1915,1,0
256,296,2187,6,0,B|256:232|256:184,1,100,4|0
184,184,2597,2,0,B|264:136|336:192,1,150
325,184,3142,1,0
325,184,3278,1,0
325,184,3415,1,0
325,184,3551,1,0
176,320,3824,6,0,L|120:320|80:272,1,100,4|0
64,256,4233,1,0
96,112,4506,1,0
64,144,4642,1,0
176,48,4915,1,0
288,144,5187,1,0
256,112,5324,1,0
256,112,5460,6,0,L|344:112|392:168,1,150,4|0
384,200,6006,1,0
384,240,6142,1,0
384,280,6278,1,0
256,320,6551,1,0
128,280,6824,1,0
208,80,7097,5,4
208,80,7233,1,0
208,80,7369,2,0,B|256:56|304:80,1,100
256,192,7915,1,0
304,303,8187,2,0,B|256:328|208:304,1,100
408,144,8733,5,4
408,144,8869,1,0
408,144,9006,2,0,B|440:192|400:248,1,100
256,192,9551,1,0
104,240,9824,2,0,B|70:193|112:144,2,100,0|0|4
256,96,10642,5,0
256,96,10778,2,0,L|176:96|152:120,1,100
128,144,11187,1,0
152,184,11324,1,0
176,224,11460,1,0
176,224,11733,1,0
336,224,12006,5,4
360,184,12142,1,0
384,144,12278,1,0
384,144,12551,1,0
256,40,12824,5,0
256,80,12960,1,0
256,120,13097,1,0
256,160,13233,1,0
256,200,13369,1,0
256,240,13506,1,0
256,280,13642,6,0,L|248:296|264:296|248:296|264:304|248:304|256:320,1,100,4|0
168,344,14460,1,0
344,344,14733,1,0
256,280,15006,2,0,L|256:216|256:128,1,150
224,112,15551,1,0
224,112,15687,2,0,B|152:112,1,50
136,112,15960,1,0
136,112,16097,2,0,L|64:112|32:136,1,100
40,256,16642,1,0
160,336,16915,1,4
200,192,17187,5,0
272,48,17460,1,0
360,184,17733,2,0,L|360:264|336:280,1,100
344,320,18142,1,0
344,360,18278,1,0
456,72,18551,5,4
56,72,18960,5,0
256,288,19369,5,0
256,240,19506,1,0
256,192,19642,1,0
256,192,19915,1,0
112,96,20187,6,0,L|160:56|256:56,1,150,4|0
296,56,20733,1,0
328,88,20869,1,0
360,120,21006,1,0
456,256,21278,6,0,B|392:232|352:264,1,100
336,296,21687,1,0
304,336,21824,2,0,B|256:360|200:336,1,100,4|0
168,320,22233,1,0
128,296,22369,1,0
96,264,22506,1,0
80,224,22642,2,0,L|112:152|144:152,1,100
304,192,23187,1,0
256,192,23324,1,0
208,192,23460,1,4
104,72,23733,5,0
408,72,24006,1,0
256,128,24278,2,0,B|256:232,1,100
256,272,24687,1,0
256,312,24824,1,0
144,112,25097,5,0
144,112,25233,2,0,B|40:112,1,100
16,152,25642,1,0
0,192,25778,1,0
16,232,25915,1,0
144,288,26187,1,4
144,288,26460,1,4
368,112,26733,5,0
368,112,26869,2,0,B|472:112,1,100
496,152,27278,1,0
512,192,27415,1,0
496,232,27551,1,0
368,288,27824,1,4
368,288,28097,1,4
112,296,28369,6,0,B|80:256|72:200,1,100,2|0
96,168,28778,1,0
128,136,28915,2,0,B|184:152|225:194,1,100,0|2
280,72,29460,1,0
320,96,29597,1,0
336,136,29733,2,0,B|392:136|432:112,1,100,0|2
288,224,30278,2,0,B|341:162|330:119,2,100,0|0|2
256,264,30960,1,0
224,296,31097,1,0
176,72,31369,5,0
168,112,31506,1,0
160,152,31642,2,0,B|128:176|120:208|136:256,1,100,2|0
256,312,32187,1,0
336,72,32460,1,2
344,112,32597,1,0
352,152,32733,2,0,B|384:176|392:208|376:256,1,100
256,312,33278,1,2
144,248,33551,1,0
256,192,33824,1,0
144,136,34097,1,2
256,72,34369,1,8
368,136,34642,1,8
400,296,34915,6,0,B|432:256|440:200,1,100,2|0
416,168,35324,1,0
384,136,35460,2,0,B|328:152|286:194,1,100,0|2
248,40,36006,1,0
216,80,36142,1,0
176,96,36278,2,0,B|136:144|136:144,1,50
208,184,36551,2,0,B|176:184|144:168,1,50,2|0
144,248,36824,2,0,B|135:198,1,50
64,200,37097,2,0,B|109:179,1,50,0|0
80,112,37370,1,2
80,112,37506,1,0
80,112,37642,1,0
376,104,37915,6,0,B|424:120|472:72,1,100,0|2
392,160,38460,1,0
344,176,38597,1,0
320,128,38733,1,0
440,264,39006,1,2
280,304,39278,1,0
208,160,39551,1,0
56,216,39824,6,0,B|104:264|184:216|240:280,1,200,2|0
272,304,40506,1,0
320,320,40642,1,2
368,312,40778,1,0
408,280,40915,1,8
432,144,41187,1,8
216,96,41460,6,0,B|184:72|144:112|112:88,1,100,4|0
80,112,41869,1,0
56,144,42006,1,0
56,144,42278,2,4,B|72:200|40:256,2,100,0|0|0
72,280,43097,1,0
104,312,43233,1,0
152,320,43369,1,0
192,160,43642,2,0,L|248:128|288:128,1,100
328,128,44051,2,0,B|328:184,1,50
376,184,44324,2,0,L|376:232,1,50
144,312,44733,6,0,L|256:312,1,100
288,312,45278,5,0
368,256,45551,6,0,L|248:256,1,100,0|0
224,256,46097,5,0
194,96,46369,2,0,L|144:96,1,50
147,179,46642,2,0,L|112:144,1,50
64,218,46915,2,0,L|64:168,1,50
64,128,47187,1,0
64,88,47324,1,0
64,48,47460,1,0
296,96,47733,6,0,B|328:72|368:112|400:88,1,100,0|4
432,112,48142,1,0
456,144,48279,1,0
456,144,48551,2,0,B|440:200|472:256,2,100,0|4|4
440,280,49370,1,4
408,312,49506,1,0
360,320,49642,1,0
320,160,49915,2,0,L|264:128|224:128,1,100
184,128,50324,2,0,B|184:184,1,50
136,184,50597,2,0,L|136:232,1,50
368,312,51006,6,0,L|256:312,1,100
224,312,51551,5,0
144,256,51824,6,0,L|264:256,1,100,0|0
288,256,52370,5,0
200,128,52642,2,0,L|264:128,1,50
312,128,52915,2,0,L|256:128,1,50
256,160,53187,2,0,L|256:224|256:232,1,50
208,248,53460,1,0
256,280,53597,1,0
304,248,53733,1,0
256,192,53869,8,4,54551
256,192,54824,5,0
256,192,55097,2,0,B|288:248|360:240|384:296,1,150
416,296,55642,1,0
464,280,55778,1,0
480,240,55915,1,0
256,192,56187,2,0,B|224:136|152:144|128:88,1,150,4|0
96,80,56733,1,0
56,96,56869,1,0
40,144,57006,2,0,B|64:208|120:232,1,100
80,256,57415,1,0
64,296,57551,2,0,B|131:307|180:270,1,100
384,88,58097,5,0
392,248,58369,1,0
248,312,58642,1,0
192,184,58915,1,0
192,128,59051,1,0
240,104,59187,1,0
56,192,59460,5,0
456,192,59869,5,0
256,320,60278,6,0,B|216:240|264:160,1,150,0|0
272,136,60824,1,0
256,88,60960,1,0
64,256,61097,6,0,B|160:248|176:168,1,150,4|0
192,136,61642,1,0
216,96,61778,2,0,B|264:48|312:56,1,100
344,48,62187,1,0
448,144,62460,1,0
312,184,62733,5,4
352,216,62869,1,0
400,224,63006,1,0
448,256,63142,2,0,B|424:280|400:280,1,50
432,328,63415,2,0,B|405:347|369:327,1,50
272,240,63824,1,0
160,336,64097,1,0
160,336,64233,1,0
128,88,64642,5,0
120,248,64914,1,0
264,312,65187,1,0
320,184,65460,1,0
320,128,65596,1,0
272,104,65732,1,0
256,192,66005,5,0
256,192,66278,2,0,B|256:296,2,100
256,192,67097,5,0
176,88,67369,1,0
336,88,67642,1,4
256,192,67915,1,0
256,192,68187,2,0,B|224:248|152:240|128:296,1,150
96,296,68732,1,0
48,280,68868,1,0
32,240,69005,1,0
256,192,69277,2,0,B|288:136|360:144|384:88,1,150,4|0
416,80,69823,1,0
456,96,69959,1,0
472,144,70096,2,0,B|448:208|392:232,1,100
432,256,70505,1,0
448,296,70641,2,0,B|381:307|332:270,1,100
120,192,71187,5,0
256,72,71460,1,0
392,192,71733,1,0
256,288,72006,1,0
256,240,72142,1,0
256,192,72278,1,0
256,32,72551,1,0
256,352,72960,1,0
256,96,73369,1,0
256,144,73505,1,0
256,192,73641,1,0
256,192,73915,5,0
256,192,74187,2,0,B|136:192,1,100,4|0
144,232,74597,2,0,B|24:232,1,100
44,232,75006,1,0
40,72,75278,1,0
200,72,75551,1,0
256,192,75824,6,0,B|376:192,1,100,4|0
368,152,76234,2,0,B|488:152,1,100
468,152,76643,1,0
472,304,76915,1,0
320,304,77188,1,0
280,304,77324,1,0
240,304,77460,5,0
240,168,77733,1,0
128,64,78006,2,0,B|16:64,1,100
80,112,78415,1,0
80,112,78551,2,0,B|80:224,1,100
80,256,78960,1,0
80,296,79097,1,0
256,192,79233,8,0,80733
32,352,82369,5,6
480,352,82778,1,2
256,32,83187,1,2
256,192,83460,1,2
256,288,84006,5,2
256,304,84415,5,2
256,320,84824,5,0
152,192,85097,1,0
360,192,85369,1,0
256,88,85642,6,0,B|360:112,1,100,2|0
392,120,86051,1,2
256,296,86460,6,0,B|152:272,1,100,2|0
120,264,86869,1,2
120,264,87006,1,2
256,160,87278,5,2
256,144,87687,5,2
256,128,88097,5,2
256,128,88233,1,0
256,128,88369,1,0
256,128,88642,1,2
32,32,88915,5,6
480,32,89324,1,2
256,352,89733,1,2
256,192,90006,1,2
256,96,90552,5,2
256,80,90961,5,2
256,64,91370,5,0
152,192,91643,1,0
360,192,91915,1,0
256,296,92187,6,0,B|152:272,1,100,2|0
120,264,92596,1,2
256,88,93005,6,0,B|360:112,1,100,2|0
392,120,93414,1,2
392,120,93551,1,2
256,224,93823,5,2
256,240,94233,5,2
256,256,94643,5,2
256,256,94779,1,0
256,256,94915,1,0
256,256,95187,1,2
256,256,95460,6,0,B|168:336|72:256,1,200,4|0
112,120,96278,1,2
256,48,96551,1,2
400,120,96824,1,0
256,256,97097,6,0,B|344:336|440:256,1,200
400,120,97915,1,2
256,48,98188,1,2
112,120,98461,1,0
256,48,98733,6,0,B|256:200,1,150,4|0
256,208,99278,6,0,B|256:328,1,100,0|2
152,240,99824,1,2
360,240,100097,1,0
304,120,100369,1,0
256,80,100506,1,0
208,120,100642,1,0
256,272,100915,5,0
96,176,101187,1,2
256,272,101460,1,2
416,176,101733,1,0
304,120,102006,6,0,B|256:88|208:120,1,100,4|0
200,184,102415,1,0
256,216,102551,1,0
312,184,102687,1,0
256,216,102824,5,4
80,312,103097,1,4
440,312,103369,1,4
208,264,103642,6,0,B|256:296|304:264,1,100,4|0
328,200,104051,1,0
256,168,104187,1,0
184,200,104323,1,0
256,168,104460,5,4
432,72,104733,1,4
72,72,105005,1,4
296,248,105278,5,4
256,128,105415,1,0
216,248,105551,1,0
320,176,105687,1,0
192,176,105824,1,0
256,192,105960,1,0
256,192,106097,5,4
256,24,106369,1,4
256,360,106642,1,4
256,192,106915,8,0,108278
256,192,108551,8,0,111278
64,120,111824,6,0,B|112:80|168:88,1,100,2|0
256,168,112369,1,0
448,120,112642,2,0,B|400:80|344:88,1,100
256,216,113187,1,0
304,320,113460,6,0,B|256:336|200:320,1,100,2|0
256,192,114006,1,0
256,192,114142,1,0
256,192,114278,6,0,B|192:216,1,50
256,192,114550,2,0,B|320:216,1,50
256,192,114824,2,0,B|256:256,1,50
104,184,115097,5,2
80,72,115370,1,0
192,40,115642,1,0
320,40,115915,1,0
432,72,116187,1,0
408,184,116460,1,0
160,256,116733,5,2
208,288,116869,1,0
256,312,117006,1,0
256,312,117278,1,0
304,288,117415,1,0
352,256,117551,1,0
256,184,117824,1,8
256,168,118097,5,8
160,80,118369,6,0,B|64:136,1,100,2|0
48,152,118915,5,0
120,264,119187,2,0,B|216:208,1,100
232,200,119733,5,0
352,80,120006,6,0,B|448:136,1,100,2|0
464,152,120552,5,0
392,264,120824,2,0,B|296:208,1,100
272,192,121233,1,0
272,192,121369,1,0
256,328,121642,5,2
120,192,121915,1,0
160,208,122051,1,0
192,240,122187,1,0
256,56,122460,1,0
392,192,122733,1,0
352,176,122869,1,0
320,144,123005,1,0
160,192,123278,6,0,L|208:168|208:168|272:184,1,100,2|0
259,204,123687,2,0,L|304:216|304:216|352:192,1,100
352,192,124097,1,0
352,192,124233,1,0
352,192,124369,1,8
160,192,124642,1,8
256,192,124915,8,0,126006
256,192,126278,8,0,127369
256,192,127642,8,0,131187
160,136,131460,6,0,B|176:72|232:72,1,100
248,144,132278,2,0,B|264:208|320:208,1,100
328,200,132960,1,0
336,184,133097,1,0
408,216,133369,1,0
368,280,133642,1,0
352,288,133778,1,0
336,296,133915,1,0
264,280,134187,1,0
192,256,134460,1,0
256,48,134733,5,4
256,48,135142,1,4
256,48,135415,1,4
256,48,135551,1,4
96,304,135824,1,8
416,304,136097,1,8
192,152,136369,1,0
192,232,136506,1,0
256,272,136642,1,0
320,232,136778,1,0
320,152,136915,1,0
256,112,137051,1,0
256,192,137187,5,4
256,344,137460,1,8
256,344,137733,1,8
360,256,138006,6,0,B|424:256|440:200,1,100,2|0
368,168,138824,2,0,B|384:128|408:128,1,50,2|0
408,120,139233,1,0
416,112,139369,1,0
352,48,139642,1,0
288,112,139915,1,0
224,48,140187,1,0
208,48,140324,1,0
192,48,140460,1,0
128,112,140733,1,0
128,200,141006,5,0
216,200,141278,2,0,B|240:200|272:200,1,50,2|0
288,200,141687,1,0
304,200,141824,1,0
360,264,142097,6,0,B|336:296|296:304,1,75,2|0
280,304,142642,1,0
200,336,142915,1,0
192,320,143051,1,0
184,304,143188,1,0
152,224,143460,1,0
152,224,143733,1,0
168,216,143869,1,0
184,208,144006,1,2
200,200,144142,1,2
216,192,144278,1,2
256,120,144551,6,0,B|280:72|344:72,1,100,4|0
352,72,145233,1,0
368,72,145369,2,0,B|376:104|416:128,1,75,2|0
424,136,145915,1,0
472,208,146187,1,0
424,280,146460,1,0
344,280,146733,1,0
328,280,146869,1,0
312,280,147006,2,0,B|208:280,1,100
192,280,147687,1,0
176,280,147824,1,0
96,224,148097,6,0,B|144:128|248:96,1,200,2|0
232,184,149460,2,0,B|328:184|368:136,1,150
328,64,150551,1,0
256,104,150824,1,0
184,64,151097,5,4
256,104,151506,5,4
256,104,151778,1,4
256,104,151915,1,4
256,320,152187,1,8
256,104,152460,1,8
256,320,152733,5,0
256,320,153142,1,0
256,320,153415,1,0
256,320,153551,1,4
392,112,153824,1,8
120,112,154097,1,8
256,192,154369,5,0
256,176,154506,1,0
256,160,154642,1,0
256,144,154778,1,0
256,128,154915,1,0
256,320,155187,5,4
120,112,155460,1,8
392,112,155733,1,8
256,192,156006,6,0,B|256:152|256:112,2,75,0|0|0
256,192,157097,1,0
160,192,157642,6,0,B|160:280|256:280,1,150
256,280,158733,1,0
256,280,159006,5,0
255,280,159278,2,0,B|352:280|352:192,1,150
352,192,160369,1,0
352,192,160642,5,0
352,192,160915,2,0,B|352:104|256:104,1,150
256,104,162006,1,0
256,104,162279,5,0
256,103,162551,2,0,B|160:104|160:192,1,150
160,192,163642,5,0
256,192,163915,1,0
256,208,164051,1,0
256,224,164187,2,0,B|232:264|168:280,1,100
256,304,165006,2,0,B|275:330|323:330,1,75
336,328,165551,1,0
416,304,165824,1,0
464,232,166097,1,0
416,160,166369,1,0
336,120,166642,1,0
336,104,166778,1,0
336,88,166915,1,0
248,88,167187,5,0
248,104,167324,1,0
248,120,167460,1,0
168,160,167733,1,0
120,232,168006,1,0
168,304,168278,1,0
248,344,168551,1,0
328,304,168824,1,0
328,304,169097,2,0,B|408:240|320:176,1,150
312,168,170051,1,0
296,152,170187,1,0
280,136,170324,1,0
264,120,170460,5,0
136,96,170733,2,0,B|80:104|48:160,1,100,4|0
32,184,171142,1,0
32,224,171278,1,0
136,312,171551,1,0
248,224,171824,2,0,B|288:272|352:272,1,100
368,296,172233,1,0
402,270,172369,2,0,B|448:272|488:224,1,100,4|0
456,192,172778,1,0
416,176,172915,2,0,B|368:176|312:176,1,100
192,176,173460,1,0
256,64,173733,1,0
256,192,174006,6,0,B|216:232|152:256,1,100,4|0
136,256,174415,1,0
96,256,174551,1,0
128,120,174824,1,0
256,64,175097,1,0
376,120,175369,1,0
256,192,175642,6,0,B|296:232|360:256,1,100,4|0
376,256,176051,1,0
416,256,176187,1,0
376,120,176460,1,0
256,64,176733,1,0
136,120,177006,1,0
376,288,177278,6,0,B|432:280|464:224,1,100,4|0
480,200,177687,1,0
480,160,177823,1,0
376,72,178096,1,0
248,120,178369,2,0,B|192:112|144:152,2,100,0|0|4
176,232,179187,1,0
80,128,179460,1,0
112,96,179597,1,0
160,80,179733,2,0,B|208:104,1,50
240,72,180006,2,0,B|280:112,1,50
320,88,180278,2,0,B|348:136,1,50
328,248,180551,5,4
184,248,180824,1,0
328,248,181097,1,0
184,248,181369,1,0
208,288,181506,1,0
256,304,181642,1,0
304,288,181778,1,0
328,248,181915,1,0
256,112,182187,5,4
256,208,182460,2,0,B|256:96,1,100
256,72,182869,1,0
256,32,183006,1,0
160,160,183278,5,0
352,160,183551,1,0
256,280,183824,2,0,B|216:304|160:264|96:288,1,150,4|0
64,296,184369,1,0
24,288,184506,1,0
0,256,184642,1,0
96,136,184915,2,0,B|152:144|208:184,1,100
272,48,185460,2,0,B|280:104|320:160,1,100,4|0
328,176,185869,1,0
352,208,186006,1,0
488,280,186278,2,0,B|432:272|376:296,1,100
248,328,186824,2,0,B|304:320|360:280,1,100,0|4
336,104,187369,5,0
176,104,187642,1,0
296,64,187915,2,0,B|346:64,1,50
280,128,188187,2,0,B|216:128,1,50
168,64,188460,2,0,B|218:64,1,50
256,64,188733,1,4
256,176,189006,1,0
256,176,189278,2,0,B|256:216|256:280,1,100
256,320,189687,1,0
256,360,189824,1,0
352,160,190097,5,0
160,160,190370,1,4
256,280,190643,2,0,B|296:304|352:264|416:288,1,150
448,296,191188,1,0
488,288,191325,1,0
512,256,191461,1,0
416,136,191734,2,0,B|360:144|304:184,1,100,0|4
240,48,192279,2,0,B|232:104|192:160,1,100
184,176,192688,1,0
160,208,192825,1,0
24,280,193097,2,0,B|80:272|136:296,1,100
264,328,193643,2,0,B|208:320|152:280,1,100,4|0
144,256,194051,1,0
160,208,194187,1,0
256,78,194460,5,0
369,192,194733,1,0
256,305,195006,1,0
142,192,195278,1,4
256,192,195551,8,0,197733
