osu file format v9

[General]
AudioFilename: rengoku.mp3
AudioLeadIn: 2000
PreviewTime: 13651
Countdown: 0
SampleSet: Normal
StackLeniency: 0.3
Mode: 0
LetterboxInBreaks: 1

[Editor]
Bookmarks: 13642,28369,54551,82369,106915,131460,144551,157642,170733,195278,208369,244369
DistanceSpacing: 1.1
BeatDivisor: 2
GridSize: 8

[Metadata]
Title:Umineko no Naku Koro ni ~Rengoku~
Artist:Akiko Shikata
Creator:qinche
Version:Ignore this
Source:Umineko no Naku Koro ni
Tags:EP1 EP2 beatrice 07-expansion Harmonia ice coffee AngelHoney ignorethis

[Difficulty]
HPDrainRate:4
CircleSize:4
OverallDifficulty:2
ApproachRate:5
SliderMultiplier:0.919999999999999
SliderTickRate:0.5

[Events]
//Background and Video events
0,0,"Umineko.jpg"
//Break Periods
2,82569,87715
2,131660,143351
//Storyboard Layer 0 (Background)
//Storyboard Layer 1 (Fail)
//Storyboard Layer 2 (Pass)
//Storyboard Layer 3 (Foreground)
//Storyboard Sound Samples
//Background Colour Transformations
3,100,255,255,53

[TimingPoints]
551.57162993708,272.727272727273,3,1,0,60,1,0
13642,-100,3,2,0,60,0,0
25137,-100,3,2,0,0,0,0
25895,-100,3,2,0,60,0,0
26051,-100,3,1,0,40,0,0
26597,-100,3,2,0,60,0,0
26753,-100,3,2,0,0,0,0
27531,-100,3,2,0,60,0,0
27687,-100,3,1,0,30,0,0
28233,-100,3,2,0,60,0,0
54142,-100,3,1,1,45,0,0
88915,-100,3,1,1,60,0,0
95460,-100,3,2,0,60,0,0
106915,-100,3,2,0,0,0,0
111824,-100,3,1,0,60,0,0
144551,-100,3,1,1,60,0,0
157506,-100,3,2,1,60,0,0
169915,-100,3,1,1,30,0,0
170187,-100,3,1,1,35,0,0
170324,-100,3,1,1,40,0,0
170460,-100,3,1,1,45,0,0
170597,-100,3,1,1,50,0,0
170733,-100,3,1,1,60,0,0
195415,-100,3,2,0,0,0,0

[Colours]
Combo1 : 236,0,6
Combo2 : 255,244,25
Combo3 : 232,232,232
Combo4 : 0,96,255

[HitObjects]
96,48,551,1,4
176,80,824,1,0
176,80,960,1,0
256,48,1233,1,0
256,48,1369,1,0
336,80,1642,2,0,B|432:48,1,91.9999999999999
448,128,2187,5,4
416,272,2597,1,0
272,224,3006,1,0
256,320,3278,1,0
256,320,3415,1,0
256,320,3551,1,0
160,304,3824,6,0,B|64:304,1,91.9999999999999,4|0
68,304,4233,1,0
48,208,4506,1,0
48,208,4642,2,0,B|160:208,2,91.9999999999999
48,208,5460,6,0,B|80:144|48:64,2,138,4|0|0
64,304,6551,1,0
160,320,6824,1,0
256,336,7097,6,0,B|289:252|256:144,1,184,4|0
112,64,7915,2,0,B|79:148|112:256,1,184
108,244,8733,5,0
192,336,9005,1,0
192,336,9142,1,0
192,336,9278,1,0
224,224,9551,1,0
309,314,9824,1,0
309,314,9960,1,0
309,314,10097,1,0
400,256,10369,6,0,B|448:288|464:320,2,91.9999999999999,4|0|0
416,160,11187,1,0
336,96,11460,1,0
336,96,11597,1,0
336,96,11733,1,0
240,64,12006,5,4
128,128,12278,1,0
128,256,12551,1,0
240,320,12824,1,4
352,256,13096,1,0
352,128,13369,1,0
352,128,13642,6,0,B|448:176|416:304,1,184,4|0
272,352,14460,1,0
272,352,14733,2,0,B|224:320|240:256,1,91.9999999999999
272,160,15278,6,0,B|192:96|96:128,1,184,2|0
48,256,16097,1,0
48,256,16369,2,0,B|80:352,1,91.9999999999999
192,352,16915,6,0,B|144:208,2,138,2|0|2
256,288,18006,1,0
256,288,18142,1,0
256,288,18278,1,0
320,352,18551,6,0,B|400:320|368:224,2,138,2|0|2
256,288,19642,1,0
256,240,19778,1,0
256,192,19915,1,0
192,112,20187,6,0,B|128:112|80:144|80:208,2,138,4|0|0
320,144,21278,1,0
224,224,21551,1,0
352,256,21824,6,0,B|320:368|192:336,1,184,2|0
224,224,22642,2,0,B|256:112|384:144,1,184
448,160,23460,5,2
352,64,23733,1,0
224,112,24006,1,0
224,112,24278,2,0,B|160:192|192:288,1,184,2|0
383,337,25097,6,0,B|513:220|368:96,1,276,4|0
256,192,26187,1,0
256,192,26460,1,0
129,47,26733,6,0,B|-1:164|144:288,1,276,2|0
256,192,27824,1,0
256,192,28096,1,0
400,128,28369,6,0,B|448:208|400:304,1,184
272,336,29187,2,0,B|224:256|272:160,1,184
320,48,30006,1,0
320,48,30278,2,0,B|208:48,1,91.9999999999999
96,48,30824,2,0,B|64:128|128:160|96:240,1,184
96,336,31642,6,0,B|206:344|154:238|288:256,1,184
368,288,32460,1,0
368,288,32733,2,0,B|384:240|368:192,1,91.9999999999999
352,64,33278,2,0,B|256:48|176:128,1,184
96,208,34097,1,0
96,208,34233,1,0
96,208,34369,1,0
64,320,34642,1,0
64,320,34915,6,0,B|160:352|273:309,1,184,2|0
256,208,35733,2,0,B|341:174|437:206,1,184
436,206,36551,1,0
432,96,36824,2,0,B|384:80|320:96,1,91.9999999999999
240,80,37369,6,0,B|144:112|32:64,1,184
48,176,38187,5,2
96,256,38460,2,0,B|128:304|112:368,1,91.9999999999999
208,352,39006,1,2
304,336,39278,2,0,B|292:296|324:248,1,91.9999999999999
416,240,39824,2,0,B|464:144|404:48,1,184,2|0
272,64,40642,2,0,B|221:144|269:240,1,184,2|0
304,320,41460,6,0,B|208:320,1,91.9999999999999,4|0
112,352,42006,1,0
112,352,42278,2,0,B|80:160,1,184,2|0
176,208,43097,2,0,B|176:96,1,91.9999999999999,2|0
256,144,43642,1,0
256,144,43779,1,0
256,144,43915,1,2
432,144,44733,6,0,B|464:240|416:352,1,184,2|0
320,336,45551,1,0
320,336,45824,1,0
320,336,46097,1,0
208,320,46369,2,0,B|170:235|202:139,1,184,2|0
202,140,47187,1,0
80,80,47733,1,0
80,80,48006,6,0,B|48:192,1,91.9999999999999,4|0
64,272,48551,1,0
160,304,48824,2,0,B|256:240|176:128,1,184,2|0
144,48,49642,1,2
144,48,49915,2,0,B|256:48,1,91.9999999999999
236,48,50460,1,2
432,144,51006,1,0
432,144,51278,6,0,B|464:256|416:320,1,184,4|0
304,367,52097,2,0,B|192:400|127:351,1,184,2|0
72,248,52915,2,0,B|40:136|88:72,1,184,4|0
192,24,53734,2,0,B|305:-8|369:40,1,184,2|0
424,120,54551,6,0,B|456:264,1,138,4|0
432,288,55097,2,0,B|416:368,1,46
384,352,55369,1,0
304,304,55642,1,0
256,224,55915,1,0
256,224,56187,6,0,B|181:208|96:227,2,138,4|0|0
304,144,57278,1,0
336,64,57551,1,0
336,64,58097,5,0
416,96,58370,1,0
336,64,58642,2,0,B|256:48|192:64,1,138,4|0
198,62,59187,1,0
80,176,59460,6,0,B|54:251|84:322,2,138,4|0|0
176,192,60551,1,4
240,128,60824,1,4
240,128,61097,6,0,B|336:192|272:320,1,184,4|0
192,352,61915,1,0
192,352,62187,2,0,B|128:336|80:352,1,91.9999999999999
96,240,62733,6,0,B|144:160|96:64,1,184,4|0
272,128,63551,2,0,B|224:223|272:303,1,184
416,336,64369,5,4
448,256,64642,1,0
416,176,64915,2,0,B|432:128|416:64,1,91.9999999999999,0|4
320,48,65460,1,0
320,80,65597,1,0
320,112,65733,1,0
320,224,66006,1,4
320,224,66278,6,0,B|284:273|192:272|154:220,1,184,4|0
160,128,67097,1,4
160,128,67369,1,4
160,128,67642,6,0,B|196:79|288:80|326:132,1,184,4|0
416,160,68460,1,0
416,160,68733,2,0,B|448:256,1,91.9999999999999
480,352,69278,6,0,B|384:336|288:352,1,184,4|0
256,256,70097,1,0
256,256,70369,2,0,B|160:288,1,91.9999999999999
80,320,70915,6,0,B|32:239|80:144,1,184,4|0
256,80,71733,2,0,B|304:161|256:256,1,184,4|0
336,336,72551,6,0,B|416:352|480:272,2,138,4|0|0
256,272,73642,1,4
176,336,73915,1,4
176,336,74187,6,0,B|64:304|112:176,1,184,4|0
128,80,75006,1,0
128,80,75278,2,0,B|224:112,1,91.9999999999999
304,144,75824,6,0,B|368:176|448:128,2,138,4|0|0
192,128,76915,1,0
176,240,77187,1,0
176,240,77460,6,0,B|96:256|80:368,1,138,4|0
86,334,78006,1,0
35,257,78278,2,0,B|44:178|124:162,1,138,4|0
122,162,78823,1,0
256,192,79097,8,4,82369
64,80,88915,6,0,B|138:64|214:80,1,138,2|2
256,192,89733,1,2
256,192,90006,1,2
208,288,90278,1,0
208,288,90551,6,0,B|135:269|53:294,1,138,2|2
48,128,91369,1,2
48,128,91642,1,2
128,160,91915,1,0
208,112,92187,6,0,B|256:32|352:48,1,138,2|2
416,128,93006,1,2
416,128,93278,1,2
448,224,93551,1,0
448,224,93824,6,0,B|374:212|304:240,2,138,2|2|2
464,320,94915,1,0
464,320,95051,1,0
464,320,95187,1,0
368,352,95460,6,0,B|256:384|176:304,1,184,4|0
96,256,96278,2,0,B|208:272|256:160,1,184
288,80,97097,1,0
381,117,97369,1,0
381,117,97506,1,0
381,117,97642,1,0
425,208,97915,2,0,B|441:272|409:320,1,91.9999999999999
420,298,98460,1,0
326,335,98733,6,0,B|228:372|126:318,1,184,2|0
57,281,99551,1,0
57,281,99824,2,0,B|84:244|54:186,1,91.9999999999999
96,96,100369,2,0,B|186:144|288:92,1,184,2|0
368,48,101187,1,0
368,48,101460,2,0,B|416:128,1,91.9999999999999
464,224,102006,5,2
400,288,102278,1,0
400,288,102415,1,0
400,288,102551,1,0
304,320,102824,2,0,B|252:336|192:320,2,91.9999999999999
320,224,103642,5,2
272,144,103915,1,0
272,144,104051,1,0
272,144,104187,1,0
208,80,104460,2,0,B|160:64|96:80,2,91.9999999999999
297,60,105278,5,2
384,96,105551,1,0
384,96,105687,1,0
384,96,105824,1,0
432,176,106097,2,0,B|448:240|432:288,2,91.9999999999999
256,192,106915,8,0,108551
256,192,108687,8,0,111278
80,80,111824,6,0,B|64:128|96:176,1,91.9999999999999,4|0
144,256,112369,1,0
256,336,112642,2,0,B|272:288|240:240,1,91.9999999999999
192,160,113187,1,0
240,64,113460,5,0
304,144,113733,1,0
304,144,113869,1,0
304,144,114006,1,0
400,112,114278,2,0,B|448:128|464:176,2,91.9999999999999
384,208,115097,5,4
384,208,115369,1,0
304,272,115642,2,0,B|256:288|224:336,1,91.9999999999999
128,336,116187,1,0
128,336,116460,1,0
80,224,116733,5,0
176,176,117006,1,0
176,176,117142,1,0
176,176,117278,1,0
208,80,117551,1,0
208,80,117824,2,0,B|256:80|304:80,1,91.9999999999999
400,32,118369,6,0,B|448:128,1,91.9999999999999,4|0
441,114,118915,1,0
384,272,119187,2,0,B|336:176,1,91.9999999999999
342,189,119733,1,0
208,128,120006,6,0,B|176:176|208:224,1,91.9999999999999
202,214,120415,1,0
202,214,120551,1,0
112,256,120824,2,0,B|144:304|112:352,2,91.9999999999999
71,163,121642,6,0,B|44:120|76:64,2,91.9999999999999,4|0|0
162,120,122460,1,0
255,81,122733,2,0,B|281:125|254:168,1,91.9999999999999
191,247,123278,1,0
90,261,123551,2,0,B|140:362|268:336,1,184
241,340,124369,1,0
336,304,124642,1,0
256,192,124915,8,4,126278
256,192,126415,8,4,127915
256,192,128051,8,4,129278
256,192,129415,8,4,131460
80,48,144551,6,0,B|44:147|85:246,1,184,0|0
179,228,145369,2,0,B|215:129|174:30,1,184
278,20,146187,1,0
352,89,146460,1,0
450,113,146733,1,0
450,113,146869,1,0
450,112,147006,2,0,B|460:217|371:277,1,184
300,335,147824,6,0,B|242:259|116:263,1,184,4|0
40,291,148642,2,0,B|89:200|45:108,1,184
76,17,149460,1,0
76,17,149733,2,0,B|170:60,1,91.9999999999999
250,101,150278,2,0,B|341:142|356:46|441:83,1,184
462,171,151097,6,0,B|496:248|452:308,1,138,4|0
354,306,151778,1,0
354,306,151915,2,0,B|323:352|269:342,2,91.9999999999999
267,251,152733,6,0,B|184:230|145:313,1,138,4|0
72,365,153415,1,0
72,365,153551,2,0,B|34:320|58:259,2,91.9999999999999
157,310,154369,6,0,B|169:261,2,46,4|0|0
199,337,154778,1,0
243,312,154915,1,0
284,338,155051,1,0
327,312,155187,2,0,B|374:331|433:304,2,91.9999999999999
321,207,156006,6,0,B|243:189|162:212,2,138,4|0|0
418,234,157097,1,0
441,135,157369,1,0
341,115,157642,6,0,B|241:141|149:80,1,184,4|0
71,47,158460,2,0,B|98:153|43:240,1,184
60,326,159278,1,0
60,326,159551,2,0,B|160:340,1,91.9999999999999
251,354,160097,2,0,B|213:268|262:156,1,184
338,118,160915,6,0,B|439:157,1,91.9999999999999,2|0
423,151,161324,1,0
423,151,161460,1,0
435,251,161733,2,0,B|334:212,1,91.9999999999999
349,218,162142,1,0
349,218,162278,1,0
257,174,162551,2,0,B|230:216|248:268,2,91.9999999999999
172,118,163369,2,0,B|128:208|168:313,1,184
340,266,164187,6,0,B|384:176|344:71,1,184,4|0
256,64,165006,1,0
160,80,165278,1,0
64,48,165551,1,0
64,48,165687,1,0
64,48,165824,6,0,B|32:128|64:208,1,138
55,183,166369,1,0
160,160,166642,2,0,B|208:256|144:352,1,184
256,368,167460,6,0,B|400:352,1,138,4|0
393,352,168006,1,0
448,272,168278,2,0,B|464:224|448:160,2,91.9999999999999
366,211,169097,6,0,B|350:163|366:99,1,91.9999999999999,4|0
386,21,169642,1,0
336,27,169778,1,0
285,18,169915,2,0,B|235:8|179:24,1,91.9999999999999
145,37,170324,1,0
102,64,170460,2,0,B|74:127,1,46
65,153,170733,6,0,B|44:248|102:332,1,184,4|0
198,350,171551,1,0
198,350,171824,2,0,B|260:337|310:351,1,91.9999999999999
390,350,172369,2,0,B|472:272|380:181,1,184,0|0
302,135,173187,1,0
302,135,173460,2,0,B|242:126|190:137,1,91.9999999999999
110,115,174006,5,4
110,115,174278,2,0,B|95:171|96:217,1,91.9999999999999
180,261,174824,1,0
180,262,175097,2,0,B|195:206|194:160,1,91.9999999999999
238,80,175642,6,0,B|291:79|339:108,1,91.9999999999999
326,101,176051,1,0
326,101,176187,1,0
396,173,176460,2,0,B|420:227|392:287,1,91.9999999999999
374,306,176869,1,0
323,300,177006,2,0,B|323:337|310:365,1,46
269,361,177278,6,0,B|190:297|75:330,1,184,4|0
17,259,178097,1,0
110,221,178369,2,0,B|113:168|98:119,1,91.9999999999999
193,87,178915,6,0,B|232:184|213:281,1,184
281,344,179733,1,0
348,269,180006,2,0,B|406:260|450:269,1,91.9999999999999
477,173,180551,6,0,B|388:158|275:175,1,184,4|0
303,71,181369,2,0,B|214:56|119:70,1,184
82,164,182187,6,0,B|68:223|95:283,1,91.9999999999999
84,254,182597,1,0
84,254,182733,1,0
171,306,183006,1,0
252,246,183278,2,0,B|304:240|346:246,1,91.9999999999999
413,319,183824,6,0,B|482:233|402:139,1,184,4|0
399,50,184642,1,0
315,107,184915,2,0,B|260:96|204:106,1,91.9999999999999
124,82,185460,5,0
93,178,185733,2,0,B|75:241,2,46
174,237,186278,1,0
265,193,186551,2,0,B|283:130,2,46,0|0|0
263,294,187097,5,4
349,242,187369,2,0,B|398:236|447:241,1,91.9999999999999
466,142,187915,2,0,B|395:138|308:144,1,138
328,142,188460,1,0
233,106,188733,1,4
253,205,189006,1,0
253,205,189142,1,0
253,205,189278,1,0
328,142,189551,2,0,B|380:140|437:144,1,91.9999999999999
483,63,190097,1,0
499,162,190369,6,0,B|527:256|497:353,1,184,4|0
398,348,191187,1,0
339,264,191460,1,0
302,275,191597,1,0
267,285,191733,1,0
179,311,192006,6,0,B|126:302|72:315,1,91.9999999999999
64,266,192415,1,0
79,217,192551,1,0
59,170,192687,1,0
80,124,192824,2,0,B|182:112|278:127,1,184
299,219,193642,6,0,B|414:191|391:66,1,184,4|0
474,144,194460,1,4
444,240,194733,1,0
473,337,195006,1,0
473,337,195278,1,4
256,192,195415,8,0,198551
